War (2019)

Not Rated | 2h 34min | Action, Thriller | 2 October 2019 (USA)

An Indian soldier is assigned a mission to eliminate his former mentor, who has gone rogue.

Watch trailer

Media information

General
Format : Matroska
Format version : Version 4
File size : 1.29 GiB
Duration : 2 h 31 min
Overall bit rate : 1 218 kb/s
Movie name : War.2019.Hindi720p.WEB-DL.2CH.x264.AVC
Encoded date : UTC 2019-12-02 18:02:17
Writing application : mkvmerge v40.0.0 (‘Old Town Road + Pony’) 32-bit
Writing library : libebml v1.3.9 + libmatroska v1.5.2

Video
ID : 1
Format : AVC
Format/Info : Advanced Video Codec
Format profile : [email protected]
Format settings : CABAC / 4 Ref Frames
Format settings, CABAC : Yes
Format settings, Reference frames : 4 frames
Codec ID : V_MPEG4/ISO/AVC
Duration : 2 h 31 min
Bit rate : 1 100 kb/s
Width : 1 280 pixels
Height : 544 pixels
Display aspect ratio : 2.35:1
Frame rate mode : Constant
Frame rate : 23.976 (24000/1001) FPS
Color space : YUV
Chroma subsampling : 4:2:0
Bit depth : 8 bits
Scan type : Progressive
Bits/(Pixel*Frame) : 0.066
Stream size : 1.15 GiB (89%)
Default : Yes
Forced : No
Color range : Limited
Color primaries : BT.709
Transfer characteristics : BT.709
Matrix coefficients : BT.709

Audio
ID : 2
Format : AAC LC
Codec ID : A_AAC-2
Duration : 2 h 31 min
Bit rate : 128 kb/s
Channel(s) : 2 channels
Channel layout : L R
Sampling rate : 48.0 kHz
Frame rate : 46.875 FPS (1024 SPF)
Compression mode : Lossy
Delay relative to video : -21 ms
Stream size : 139 MiB (11%)
Language : Hindi
Default : Yes
Forced : No

Text
ID : 3
Format : ASS
Codec ID : S_TEXT/ASS
Duration : 2 h 26 min
Bit rate : 58 b/s
Count of elements : 1266
Compression mode : Lossless
Stream size : 63.0 KiB (0%)
Language : English
Default : Yes
Forced : No

[collapse]
Download Link(s)

Download

Direct download files get automatically deleted after a month or so. Posted on : 12/02/2019

[collapse]
Magnet Link

Magnet

WAR.2019.720p.x264.AC3-2.4 GB

[collapse]

You may also like...

error: nah :p~