War of the Worlds (2005)

PG-13 | 1h 56min | Adventure, Sci-Fi, Thriller | 29 June 2005 (USA)

As Earth is invaded by alien tripod fighting machines, one family fights for survival.

Watch trailer

Media information

General
Format : Matroska
Format version : Version 4
File size : 1.85 GiB
Duration : 1 h 56 min
Overall bit rate : 2 274 kb/s
Movie name : War.of the.Worlds .2005.1080p.10bit.BluRay.6CH.x265.HEVC
Encoded date : UTC 2018-09-18 19:37:58
Writing application : mkvmerge v26.0.0 (‘In The Game’) 32-bit
Writing library : libebml v1.3.6 + libmatroska v1.4.9

Video
ID : 1
Format : HEVC
Format/Info : High Efficiency Video Coding
Format profile : Main [email protected]@Main
Codec ID : V_MPEGH/ISO/HEVC
Duration : 1 h 56 min
Bit rate : 1 999 kb/s
Width : 1 920 pixels
Height : 1 040 pixels
Display aspect ratio : 1.85:1
Frame rate mode : Constant
Frame rate : 23.976 (24000/1001) FPS
Color space : YUV
Chroma subsampling : 4:2:0
Bit depth : 10 bits
Bits/(Pixel*Frame) : 0.042
Stream size : 1.63 GiB (88%)
Default : Yes
Forced : No
Color range : Limited
Color primaries : BT.709
Transfer characteristics : BT.709
Matrix coefficients : BT.709

Audio
ID : 2
Format : AAC LC SBR
Commercial name : HE-AAC
Format settings : NBC
Codec ID : A_AAC-5
Duration : 1 h 56 min
Bit rate : 256 kb/s
Channel(s) : 6 channels
Channel layout : C L R Ls Rs LFE
Sampling rate : 48.0 kHz
Frame rate : 23.438 FPS (2048 SPF)
Compression mode : Lossy
Delay relative to video : -105 ms
Stream size : 213 MiB (11%)
Title : Surround
Language : English
Default : Yes
Forced : No

Text #1
ID : 3
Format : PGS
Muxing mode : zlib
Codec ID : S_HDMV/PGS
Duration : 1 h 54 min
Bit rate : 27.7 kb/s
Count of elements : 2239
Stream size : 22.8 MiB (1%)
Language : English
Default : Yes
Forced : No

Text #2
ID : 4
Format : PGS
Muxing mode : zlib
Codec ID : S_HDMV/PGS
Duration : 1 h 54 min
Bit rate : 30.4 kb/s
Count of elements : 2450
Stream size : 24.9 MiB (1%)
Language : English
Default : No
Forced : No

[collapse]
Download Link(s)

Part01 Part02

Direct download files get automatically deleted after a month or so. Posted on : 09/19/2018

[collapse]
Magnet Link

Magnet

Source : War.of.the.Worlds.2005.1080p.BluRay.AVC.DTS-HD.MA.5.1-FGT-39.45 GB

[collapse]

Media information

General
Format : Matroska
Format version : Version 4
File size : 764 MiB
Duration : 1 h 56 min
Overall bit rate : 916 kb/s
Movie name : War.Of The.Worlds .2005.720p.BluRay.2CH.x265.HEVC
Encoded date : UTC 2018-09-20 21:42:15
Writing application : mkvmerge v26.0.0 (‘In The Game’) 32-bit
Writing library : libebml v1.3.6 + libmatroska v1.4.9

Video
ID : 1
Format : HEVC
Format/Info : High Efficiency Video Coding
Format profile : [email protected]@Main
Codec ID : V_MPEGH/ISO/HEVC
Duration : 1 h 56 min
Bit rate : 800 kb/s
Width : 1 280 pixels
Height : 694 pixels
Display aspect ratio : 1.85:1
Frame rate mode : Constant
Frame rate : 23.976 (24000/1001) FPS
Color space : YUV
Chroma subsampling : 4:2:0
Bit depth : 8 bits
Bits/(Pixel*Frame) : 0.038
Stream size : 667 MiB (87%)
Default : Yes
Forced : No
Color range : Limited
Color primaries : BT.709
Transfer characteristics : BT.709
Matrix coefficients : BT.709

Audio
ID : 2
Format : AAC LC
Codec ID : A_AAC-2
Duration : 1 h 56 min
Bit rate : 96.0 kb/s
Channel(s) : 2 channels
Channel layout : L R
Sampling rate : 48.0 kHz
Frame rate : 46.875 FPS (1024 SPF)
Compression mode : Lossy
Delay relative to video : -105 ms
Stream size : 80.4 MiB (11%)
Title : Stereo
Language : English
Default : Yes
Forced : No

Text #1
ID : 3
Format : PGS
Muxing mode : zlib
Codec ID : S_HDMV/PGS
Duration : 1 h 54 min
Bit rate : 27.7 kb/s
Count of elements : 2239
Stream size : 22.8 MiB (3%)
Language : English
Default : Yes
Forced : Yes

Text #2
ID : 4
Format : PGS
Muxing mode : zlib
Codec ID : S_HDMV/PGS
Duration : 1 h 54 min
Bit rate : 30.4 kb/s
Count of elements : 2450
Stream size : 24.9 MiB (3%)
Language : English
Default : No
Forced : No

[collapse]
Download Link(s)

Download

Direct download files get automatically deleted after a month or so. Posted on : 09/21/2018

[collapse]
Magnet Link

Magnet

Source : War.of.the.Worlds.2005.1080p.BluRay.AVC.DTS-HD.MA.5.1-FGT-39.45 GB

[collapse]

You may also like...

error: nah :p~