Warfighter (2018)

1h 45min | Action, Drama, Romance | 27 April 2018 (USA)

Rusty Wittenburg is a Navy SEAL struggling to balance his family life and his job. He fights daily to maintain the line between reality and the nightmares his PTSD conjures up for him. Dedicated to his team and his mission, he is willing to give the ultimate sacrifice for his fellow brothers and teammates.

Watch trailer

Media information

General
Format : Matroska
Format version : Version 4
File size : 807 MiB
Duration : 1 h 45 min
Overall bit rate : 1 070 kb/s
Movie name : Warfighter.2018.720p.WEB-DL.2CH.x265.HEVC
Encoded date : UTC 2019-04-12 18:22:44
Writing application : mkvmerge v32.0.0 (‘Astral Progressions’) 32-bit
Writing library : libebml v1.3.7 + libmatroska v1.5.0

Video
ID : 1
Format : HEVC
Format/Info : High Efficiency Video Coding
Format profile : [email protected]@Main
Codec ID : V_MPEGH/ISO/HEVC
Duration : 1 h 45 min
Bit rate : 999 kb/s
Width : 1 280 pixels
Height : 536 pixels
Display aspect ratio : 2.40:1
Frame rate mode : Constant
Frame rate : 24.000 FPS
Color space : YUV
Chroma subsampling : 4:2:0
Bit depth : 8 bits
Bits/(Pixel*Frame) : 0.061
Stream size : 754 MiB (93%)
Default : Yes
Forced : No

Audio
ID : 2
Format : AAC LC SBR
Commercial name : HE-AAC
Format settings : Explicit
Codec ID : A_AAC-2
Duration : 1 h 45 min
Bit rate : 69.1 kb/s
Channel(s) : 2 channels
Channel layout : L R
Sampling rate : 48.0 kHz
Frame rate : 23.438 FPS (2048 SPF)
Compression mode : Lossy
Delay relative to video : 23 ms
Stream size : 52.2 MiB (6%)
Language : English
Default : Yes
Forced : No

Text
ID : 3
Format : UTF-8
Codec ID : S_TEXT/UTF8
Codec ID/Info : UTF-8 Plain Text
Duration : 1 h 40 min
Bit rate : 49 b/s
Count of elements : 1466
Stream size : 36.8 KiB (0%)
Language : English
Default : Yes
Forced : No

[collapse]
Download Link(s)

Download

Direct download files get automatically deleted after a month or so. Posted on : 04/12/2019

[collapse]
Magnet Link

Magnet

Warfighter.2018.1080p.WEB-DL.DD5.1.H264-FGT-3.63 GB

[collapse]

You may also like...

error: nah :p~