Warrior (2011)

PG-13 | 2h 20min | Action, Drama, Sport | 9 September 2011 (USA)

The youngest son of an alcoholic former boxer returns home, where he’s trained by his father for competition in a mixed martial arts tournament – a path that puts the fighter on a collision course with his estranged, older brother.

Watch trailer

Media information

General
Format : Matroska
Format version : Version 4
File size : 2.19 GiB
Duration : 2 h 19 min
Overall bit rate : 2 237 kb/s
Movie name : Warrior.2011.1080p.10bit.BluRay.8CH.x265.HEVC

Video
ID : 1
Format : HEVC
Format/Info : High Efficiency Video Coding
Format profile : Main [email protected]@Main
Codec ID : V_MPEGH/ISO/HEVC
Duration : 2 h 19 min
Bit rate : 1 900 kb/s
Width : 1 920 pixels
Height : 800 pixels
Display aspect ratio : 2.40:1
Frame rate mode : Constant
Frame rate : 23.976 (24000/1001) FPS
Color space : YUV
Chroma subsampling : 4:2:0
Bit depth : 10 bits
Bits/(Pixel*Frame) : 0.052
Stream size : 1.86 GiB (85%)
Default : Yes
Forced : No
Color range : Limited
Color primaries : BT.709
Transfer characteristics : BT.709
Matrix coefficients : BT.709

Audio
ID : 2
Format : AAC LC
Codec ID : A_AAC-2
Duration : 2 h 19 min
Bit rate : 320 kb/s
Channel(s) : 8 channels
Channel layout : C L R Ls Rs Lw Rw LFE
Sampling rate : 48.0 kHz
Frame rate : 46.875 FPS (1024 SPF)
Compression mode : Lossy
Delay relative to video : -1 ms
Stream size : 321 MiB (14%)
Language : English
Default : Yes
Forced : No

Text #1
ID : 3
Format : VobSub
Muxing mode : zlib
Codec ID : S_VOBSUB
Duration : 2 h 12 min
Bit rate : 13.4 kb/s
Count of elements : 2001
Stream size : 12.7 MiB (1%)
Language : English
Default : Yes
Forced : No

Text #2
ID : 4
Format : VobSub
Muxing mode : zlib
Codec ID : S_VOBSUB
Duration : 2 h 8 min
Bit rate : 11.5 kb/s
Count of elements : 1882
Stream size : 10.5 MiB (0%)
Language : Spanish
Default : No
Forced : No

[collapse]
Download Link(s)

Download

Direct download files get automatically deleted after a month or so. Posted on : 08/29/2020

[collapse]
Magnet Link

Magnet

Warrior-2011-REPACK-1080p-BluRay-x265-HEVC-10bit-AAC-7-1-9.0 GB

[collapse]

Media information

General
Format : Matroska
Format version : Version 4
File size : 1.16 GiB
Duration : 2 h 19 min
Overall bit rate : 1 192 kb/s
Movie name : Warrior.2011.720p.10bit.BluRay.6CH.x265.HEVC

Video
ID : 1
Format : HEVC
Format/Info : High Efficiency Video Coding
Format profile : Main [email protected]@Main
Codec ID : V_MPEGH/ISO/HEVC
Duration : 2 h 19 min
Bit rate : 951 kb/s
Width : 1 280 pixels
Height : 534 pixels
Display aspect ratio : 2.40:1
Frame rate mode : Constant
Frame rate : 23.976 (24000/1001) FPS
Color space : YUV
Chroma subsampling : 4:2:0
Bit depth : 10 bits
Bits/(Pixel*Frame) : 0.058
Stream size : 951 MiB (80%)
Default : Yes
Forced : No
Color range : Limited
Color primaries : BT.709
Transfer characteristics : BT.709
Matrix coefficients : BT.709

Audio
ID : 2
Format : AAC LC
Codec ID : A_AAC-2
Duration : 2 h 19 min
Bit rate : 224 kb/s
Channel(s) : 6 channels
Channel layout : C L R Ls Rs LFE
Sampling rate : 48.0 kHz
Frame rate : 46.875 FPS (1024 SPF)
Compression mode : Lossy
Delay relative to video : -1 ms
Stream size : 224 MiB (19%)
Language : English
Default : Yes
Forced : No

Text #1
ID : 3
Format : VobSub
Muxing mode : zlib
Codec ID : S_VOBSUB
Duration : 2 h 12 min
Bit rate : 13.4 kb/s
Count of elements : 2001
Stream size : 12.7 MiB (1%)
Language : English
Default : Yes
Forced : No

Text #2
ID : 4
Format : VobSub
Muxing mode : zlib
Codec ID : S_VOBSUB
Duration : 2 h 8 min
Bit rate : 11.5 kb/s
Count of elements : 1882
Stream size : 10.5 MiB (1%)
Language : Spanish
Default : No
Forced : No

[collapse]
Download Link(s)

Download

Direct download files get automatically deleted after a month or so. Posted on : 08/29/2020

[collapse]
Magnet Link

Magnet

Warrior-2011-REPACK-1080p-BluRay-x265-HEVC-10bit-AAC-7-1-9.0 GB

[collapse]

You may also like...

error: nah :p~