Watchmen (2009)

R | 2h 42min | Action, Drama, Mystery | 6 March 2009 (USA)

In 1985 where former superheroes exist, the murder of a colleague sends active vigilante Rorschach into his own sprawling investigation, uncovering something that could completely change the course of history as we know it.

Watch trailer

Media information

General
Format : Matroska
Format version : Version 4
File size : 1.61 GiB
Duration : 3 h 35 min
Overall bit rate : 1 069 kb/s
Movie name : Watchmen.2009.THE.ULTIMATE.CUT.720p.10bit.BluRay.6CH.x265.HEVC
Encoded date : UTC 2019-12-08 15:47:39
Writing application : mkvmerge v41.0.0 (‘Smarra’) 32-bit
Writing library : libebml v1.3.9 + libmatroska v1.5.2

Video
ID : 1
Format : HEVC
Format/Info : High Efficiency Video Coding
Format profile : Main [email protected]@Main
Codec ID : V_MPEGH/ISO/HEVC
Duration : 3 h 35 min
Bit rate : 846 kb/s
Width : 1 280 pixels
Height : 536 pixels
Display aspect ratio : 2.40:1
Frame rate mode : Constant
Frame rate : 23.976 (24000/1001) FPS
Color space : YUV
Chroma subsampling : 4:2:0
Bit depth : 10 bits
Bits/(Pixel*Frame) : 0.051
Stream size : 1.27 GiB (79%)
Default : Yes
Forced : No

Audio
ID : 2
Format : AAC LC SBR
Commercial name : HE-AAC
Format settings : Explicit
Codec ID : A_AAC-2
Duration : 3 h 35 min
Bit rate : 220 kb/s
Channel(s) : 6 channels
Channel layout : C L R Ls Rs LFE
Sampling rate : 48.0 kHz
Frame rate : 23.438 FPS (2048 SPF)
Compression mode : Lossy
Delay relative to video : 31 ms
Stream size : 339 MiB (21%)
Language : English
Default : Yes
Forced : No

Text #1
ID : 3
Format : UTF-8
Codec ID : S_TEXT/UTF8
Codec ID/Info : UTF-8 Plain Text
Duration : 3 h 24 min
Bit rate : 54 b/s
Count of elements : 2370
Stream size : 81.0 KiB (0%)
Language : English
Default : Yes
Forced : No

Text #2
ID : 4
Format : UTF-8
Codec ID : S_TEXT/UTF8
Codec ID/Info : UTF-8 Plain Text
Duration : 3 h 24 min
Bit rate : 58 b/s
Count of elements : 2592
Stream size : 87.2 KiB (0%)
Title : SDH
Language : English
Default : No
Forced : No

[collapse]
Download Link(s)

Download

Direct download files get automatically deleted after a month or so. Posted on : 12/08/2019

[collapse]
Magnet Link

Magnet

Watchmen.2009.The.Ultimate.Cut.1080p.BluRay.REMUX.AVC.TrueHD.5.1-FGT-41.22 GB

[collapse]

You may also like...

error: nah :p~