Waterworld (1995)

PG-13 | 2h 15min | Action, Adventure, Sci-Fi | 28 July 1995 (USA)

In a future where the polar ice-caps have melted and Earth is almost entirely submerged, a mutated mariner fights starvation and outlaw “smokers,” and reluctantly helps a woman and a young girl try to find dry land.

Watch trailer

Media information

General
Format : Matroska
Format version : Version 4
File size : 2.23 GiB
Duration : 2 h 57 min
Overall bit rate : 1 804 kb/s
Movie name : Waterworld.1995.The.Ulysses.Cut.720p.10bit.BluRay.6CH.x265.HEVC
Encoded date : UTC 2019-01-21 15:06:26
Writing application : mkvmerge v30.1.0 (‘Forever And More’) 32-bit
Writing library : libebml v1.3.6 + libmatroska v1.4.9

Video
ID : 1
Format : HEVC
Format/Info : High Efficiency Video Coding
Format profile : Main [email protected]@Main
Codec ID : V_MPEGH/ISO/HEVC
Duration : 2 h 57 min
Bit rate : 1 593 kb/s
Width : 1 280 pixels
Height : 688 pixels
Display aspect ratio : 1.85:1
Frame rate mode : Constant
Frame rate : 23.976 (24000/1001) FPS
Color space : YUV
Chroma subsampling : 4:2:0
Bit depth : 10 bits
Bits/(Pixel*Frame) : 0.075
Stream size : 1.97 GiB (88%)
Default : Yes
Forced : No

Audio
ID : 2
Format : AAC LC SBR
Commercial name : HE-AAC
Format settings : Explicit
Codec ID : A_AAC-2
Duration : 2 h 57 min
Bit rate : 209 kb/s
Channel(s) : 6 channels
Channel layout : C L R Ls Rs LFE
Sampling rate : 48.0 kHz
Frame rate : 23.438 FPS (2048 SPF)
Compression mode : Lossy
Delay relative to video : 23 ms
Stream size : 265 MiB (12%)
Language : English
Default : Yes
Forced : No

Text
ID : 3
Format : UTF-8
Codec ID : S_TEXT/UTF8
Codec ID/Info : UTF-8 Plain Text
Duration : 2 h 48 min
Bit rate : 37 b/s
Count of elements : 1485
Stream size : 46.0 KiB (0%)
Language : English
Default : Yes
Forced : No

[collapse]
Download Link(s)

Part01 Part02 Part03

Direct download files get automatically deleted after a month or so. Posted on : 01/21/2019

[collapse]
Magnet Link

Magnet

Waterworld.1995.The.Ulysses.Cut.1080p.BluRay.REMUX.AVC.DTS-HD.MA.5.1-FGT-41.35 GB

[collapse]

You may also like...

error: nah :p~