West of Hell (2018)

1h 30min | Fantasy, Horror, Western | 2018 (USA)

A gunslinger, a vengeful ex-slave, and a runaway board a midnight train to Atlanta. They discover that the train is haunted by a sinister force, and must fight to survive the night.

Watch trailer

Media information

General
Format : Matroska
Format version : Version 4 / Version 2
File size : 652 MiB
Duration : 1 h 20 min
Overall bit rate : 1 138 kb/s
Movie name : West.of.Hell.2018.UNCUT.720p.BluRay.2CH.x264.AVC
Encoded date : UTC 2018-07-05 13:27:55
Writing application : mkvmerge v24.0.0 (‘Beyond The Pale’) 32-bit
Writing library : libebml v1.3.6 + libmatroska v1.4.9

Video
ID : 2
Format : AVC
Format/Info : Advanced Video Codec
Format profile : [email protected]
Format settings : CABAC / 8 Ref Frames
Format settings, CABAC : Yes
Format settings, RefFrames : 8 frames
Codec ID : V_MPEG4/ISO/AVC
Duration : 1 h 20 min
Bit rate : 1 073 kb/s
Width : 1 280 pixels
Height : 532 pixels
Display aspect ratio : 2.40:1
Frame rate mode : Constant
Frame rate : 23.976 (24000/1001) FPS
Color space : YUV
Chroma subsampling : 4:2:0
Bit depth : 8 bits
Scan type : Progressive
Bits/(Pixel*Frame) : 0.066
Stream size : 614 MiB (94%)
Default : Yes
Forced : No
Color range : Limited
Color primaries : BT.709
Transfer characteristics : BT.709
Matrix coefficients : BT.709

Audio
ID : 1
Format : AAC
Format/Info : Advanced Audio Codec
Format profile : HE-AAC / LC
Format settings : Explicit
Codec ID : A_AAC-2
Duration : 1 h 20 min
Bit rate : 63.9 kb/s
Channel(s) : 2 channels
Channel positions : Front: L R
Sampling rate : 48.0 kHz / 24.0 kHz
Frame rate : 23.438 FPS (1024 SPF)
Compression mode : Lossy
Delay relative to video : 31 ms
Stream size : 36.6 MiB (6%)
Language : English
Default : Yes
Forced : No

[collapse]
Download Link(s)

Download

No subs are available

Direct download files get automatically deleted after a month or so. Posted on : 07/05/2018

[collapse]
Magnet Link

Magnet

Source : West.of.Hell.2018.UNCUT.720p.BluRay.x264-GETiT-3.28 GB

[collapse]

You may also like...

error: nah :p~