Williams (2017)

1h 49min | Documentary, Biography, Sport | 4 August 2017 (UK)

Focusing on the career and family of its legendary founder Sir Frank Williams, the British sports documentary tells the extraordinary story of the Williams Formula 1 team, from its inception to the present day.

Watch trailer

Media information

General
Format : Matroska
Format version : Version 4
File size : 630 MiB
Duration : 1 h 44 min
Overall bit rate : 842 kb/s
Movie name : Williams.2017.720p.BluRay.2CH.x265.HEVC
Encoded date : UTC 2019-01-06 11:39:06
Writing application : mkvmerge v30.1.0 (‘Forever And More’) 32-bit
Writing library : libebml v1.3.6 + libmatroska v1.4.9

Video
ID : 1
Format : HEVC
Format/Info : High Efficiency Video Coding
Format profile : [email protected]@Main
Codec ID : V_MPEGH/ISO/HEVC
Duration : 1 h 44 min
Bit rate : 759 kb/s
Width : 1 280 pixels
Height : 640 pixels
Display aspect ratio : 2.000
Frame rate mode : Constant
Frame rate : 25.000 FPS
Color space : YUV
Chroma subsampling : 4:2:0
Bit depth : 8 bits
Bits/(Pixel*Frame) : 0.037
Stream size : 568 MiB (90%)
Default : Yes
Forced : No
Color range : Limited
Color primaries : BT.709
Transfer characteristics : BT.709
Matrix coefficients : BT.709

Audio
ID : 2
Format : AAC LC
Codec ID : A_AAC-2
Duration : 1 h 44 min
Bit rate : 80.3 kb/s
Channel(s) : 2 channels
Channel layout : L R
Sampling rate : 48.0 kHz
Frame rate : 46.875 FPS (1024 SPF)
Compression mode : Lossy
Delay relative to video : -64 ms
Stream size : 60.1 MiB (10%)
Title : Stereo
Language : English
Default : Yes
Forced : No

Text
ID : 3
Format : ASS
Codec ID : S_TEXT/ASS
Duration : 1 h 43 min
Bit rate : 151 b/s
Count of elements : 1582
Compression mode : Lossless
Stream size : 115 KiB (0%)
Language : English
Default : Yes
Forced : Yes

Forced : No

[collapse]
Download Link(s)

Download

Direct download files get automatically deleted after a month or so. Posted on : 01/06/2019

[collapse]
Magnet Link

Magnet

Williams.2017.1080p.BluRay.x264-CADAVER-7.8 GB

[collapse]

You may also like...

error: nah :p~