Win It All (2017)

TV-MA | 1h 28min | Comedy | 7 April 2017 (USA)

Eddie Garrett agrees to watch a duffel bag for an acquaintance who is heading to prison. When he discovers cash in the bag, he’s unable to resist the temptation and winds up deeply in debt. When the prison release is shortened, Eddie suddenly has a small window of time to win all the money back.

Watch trailer

Media information

General
Format : Matroska
Format version : Version 4 / Version 2
File size : 706 MiB
Duration : 1 h 28 min
Overall bit rate : 1 110 kb/s
Movie name : Win.it.All.2017.720p.WEB-DL.2CH.x264.AVC
Encoded date : UTC 2018-07-09 15:46:22
Writing application : mkvmerge v24.0.0 (‘Beyond The Pale’) 32-bit
Writing library : libebml v1.3.6 + libmatroska v1.4.9

Video
ID : 1
Format : AVC
Format/Info : Advanced Video Codec
Format profile : [email protected]
Format settings : CABAC / 4 Ref Frames
Format settings, CABAC : Yes
Format settings, RefFrames : 4 frames
Codec ID : V_MPEG4/ISO/AVC
Duration : 1 h 28 min
Bit rate : 1 000 kb/s
Width : 1 280 pixels
Height : 544 pixels
Display aspect ratio : 2.35:1
Frame rate mode : Constant
Frame rate : 23.976 (24000/1001) FPS
Color space : YUV
Chroma subsampling : 4:2:0
Bit depth : 8 bits
Scan type : Progressive
Bits/(Pixel*Frame) : 0.060
Stream size : 623 MiB (88%)
Default : Yes
Forced : No
Color range : Limited
Color primaries : BT.709
Transfer characteristics : BT.709
Matrix coefficients : BT.709

Audio
ID : 2
Format : AAC
Format/Info : Advanced Audio Codec
Format profile : HE-AAC / LC
Format settings : NBC
Codec ID : A_AAC-5
Duration : 1 h 28 min
Bit rate : 128 kb/s
Channel(s) : 2 channels
Channel positions : Front: L R
Sampling rate : 48.0 kHz / 24.0 kHz
Frame rate : 23.438 FPS (1024 SPF)
Compression mode : Lossy
Delay relative to video : -105 ms
Stream size : 81.5 MiB (12%)
Language : English
Default : Yes
Forced : No

Text #1
ID : 3
Format : ASS
Codec ID : S_TEXT/ASS
Codec ID/Info : Advanced Sub Station Alpha
Duration : 1 h 27 min
Bit rate : 167 b/s
Count of elements : 1872
Compression mode : Lossless
Stream size : 108 KiB (0%)
Language : English
Default : Yes
Forced : No

Text #2
ID : 4
Format : ASS
Codec ID : S_TEXT/ASS
Codec ID/Info : Advanced Sub Station Alpha
Duration : 1 h 27 min
Bit rate : 126 b/s
Count of elements : 1591
Compression mode : Lossless
Stream size : 81.6 KiB (0%)
Language : Spanish
Default : No
Forced : No

Text #3
ID : 5
Format : ASS
Codec ID : S_TEXT/ASS
Codec ID/Info : Advanced Sub Station Alpha
Duration : 1 h 27 min
Bit rate : 133 b/s
Count of elements : 1588
Compression mode : Lossless
Stream size : 85.7 KiB (0%)
Language : French
Default : No
Forced : No

Text #4
ID : 6
Format : ASS
Codec ID : S_TEXT/ASS
Codec ID/Info : Advanced Sub Station Alpha
Duration : 1 h 27 min
Bit rate : 128 b/s
Count of elements : 1626
Compression mode : Lossless
Stream size : 82.3 KiB (0%)
Language : Chinese
Default : No
Forced : No

Text #5
ID : 7
Format : ASS
Codec ID : S_TEXT/ASS
Codec ID/Info : Advanced Sub Station Alpha
Duration : 1 h 27 min
Bit rate : 126 b/s
Count of elements : 1626
Compression mode : Lossless
Stream size : 81.6 KiB (0%)
Language : Chinese
Default : No
Forced : No

[collapse]
Download Link(s)

Download

Direct download files get automatically deleted after a month or so. Posted on : 07/10/2018

[collapse]
Magnet Link

Magnet

Source : Win.It.All.2017.1080p.NF.WEBRip.DD5.1.x264-monkee-4.86 GB

[collapse]

You may also like...

error: nah :p~