Wind Chill (2007)

R | 1h 31min | Drama, Horror, Thriller | 3 August 2007 (UK)

Two college students share a ride home for the holidays, but when they break down on a deserted stretch of road, they are preyed upon by the ghosts of people who have died there.

Watch trailer

Details

General
Format : Matroska
Format version : Version 4
File size : 757 MiB
Duration : 1 h 30 min
Overall bit rate : 1 165 kb/s
Movie name : Wind.Chill.2007.1080p.BluRay.2CH.x265.HEVC
Encoded date : UTC 2018-09-07 18:49:10
Writing application : mkvmerge v26.0.0 (‘In The Game’) 32-bit
Writing library : libebml v1.3.6 + libmatroska v1.4.9

Video
ID : 1
Format : HEVC
Format/Info : High Efficiency Video Coding
Format profile : [email protected]@Main
Codec ID : V_MPEGH/ISO/HEVC
Duration : 1 h 30 min
Bit rate : 1 051 kb/s
Width : 1 920 pixels
Height : 800 pixels
Display aspect ratio : 2.40:1
Frame rate mode : Constant
Frame rate : 23.976 (24000/1001) FPS
Color space : YUV
Chroma subsampling : 4:2:0
Bit depth : 8 bits
Bits/(Pixel*Frame) : 0.029
Stream size : 682 MiB (90%)
Default : Yes
Forced : No
Color range : Limited
Color primaries : BT.709
Transfer characteristics : BT.709
Matrix coefficients : BT.709

Audio
ID : 2
Format : AAC LC
Codec ID : A_AAC-2
Duration : 1 h 30 min
Bit rate : 112 kb/s
Channel(s) : 2 channels
Channel layout : L R
Sampling rate : 48.0 kHz
Frame rate : 46.875 FPS (1024 SPF)
Compression mode : Lossy
Stream size : 72.7 MiB (10%)
Title : Stereo
Language : English
Default : Yes
Forced : No

Text
ID : 3
Format : ASS
Codec ID : S_TEXT/ASS
Codec ID/Info : Advanced Sub Station Alpha
Duration : 1 h 21 min
Bit rate : 71 b/s
Count of elements : 711
Compression mode : Lossless
Stream size : 42.6 KiB (0%)
Language : English
Default : Yes
Forced : Yes

[collapse]
Download

Download

Direct download files get automatically deleted after a month or so. Posted on : 09/07/2018

[collapse]
Magnet Link

Magnet

Wind.Chill.2007.1080p.BluRay.x264-PSYCHD-6.56 GB

[collapse]

Details

General
Format : Matroska
Format version : Version 4
File size : 358 MiB
Duration : 1 h 30 min
Overall bit rate : 552 kb/s
Movie name : Wind.Chill.2007.720p.BluRay.2CH.x265.HEVC
Encoded date : UTC 2018-09-06 15:28:51
Writing application : mkvmerge v26.0.0 (‘In The Game’) 32-bit
Writing library : libebml v1.3.6 + libmatroska v1.4.9

Video
ID : 1
Format : HEVC
Format/Info : High Efficiency Video Coding
Format profile : [email protected]@Main
Codec ID : V_MPEGH/ISO/HEVC
Duration : 1 h 30 min
Bit rate : 454 kb/s
Width : 1 280 pixels
Height : 534 pixels
Display aspect ratio : 2.40:1
Original display aspect ratio : 2.40:1
Frame rate mode : Constant
Frame rate : 23.976 (24000/1001) FPS
Color space : YUV
Chroma subsampling : 4:2:0
Bit depth : 8 bits
Bits/(Pixel*Frame) : 0.028
Stream size : 294 MiB (82%)
Default : Yes
Forced : No
Color range : Limited
Color primaries : BT.709
Transfer characteristics : BT.709
Matrix coefficients : BT.709

Audio
ID : 2
Format : AAC LC
Codec ID : A_AAC-2
Duration : 1 h 30 min
Bit rate : 96.0 kb/s
Channel(s) : 2 channels
Channel layout : L R
Sampling rate : 48.0 kHz
Frame rate : 46.875 FPS (1024 SPF)
Compression mode : Lossy
Stream size : 62.3 MiB (17%)
Title : Stereo
Language : English
Default : Yes
Forced : No

Text
ID : 3
Format : ASS
Codec ID : S_TEXT/ASS
Codec ID/Info : Advanced Sub Station Alpha
Duration : 1 h 21 min
Bit rate : 71 b/s
Count of elements : 711
Compression mode : Lossless
Stream size : 42.6 KiB (0%)
Language : English
Default : Yes
Forced : Yes

[collapse]
Download

Download

[RE-UP]-Direct download files get automatically deleted after a month or so. Posted on : 09/06/2018

[collapse]
Magnet Link

Magnet

Wind.Chill.2007.1080p.BluRay.x264-PSYCHD-6.56 GB

[collapse]

You may also like...

error: nah :p~