Wind River (2017)

R | 1h 47min | Crime, Drama, Mystery | 18 August 2017 (USA)

A veteran tracker with the Fish and Wildlife Service helps to investigate the murder of a young Native American woman, and uses the case as a means of seeking redemption for an earlier act of irresponsibility which ended in tragedy.

Watch trailer

Media information

General
Format : Matroska
Format version : Version 4 / Version 2
File size : 904 MiB
Duration : 1 h 46 min
Overall bit rate : 1 184 kb/s
Movie name : Wind.River.2017.720p.10bit.BluRay.6CH.x265.HEVC
Encoded date : UTC 2018-02-03 12:46:39
Writing application : mkvmerge v20.0.0 (‘I Am The Sun’) 32-bit
Writing library : libebml v1.3.5 + libmatroska v1.4.8

Video
ID : 1
Format : HEVC
Format/Info : High Efficiency Video Coding
Format profile : Main [email protected]@Main
Codec ID : V_MPEGH/ISO/HEVC
Duration : 1 h 46 min
Bit rate : 984 kb/s
Width : 1 280 pixels
Height : 536 pixels
Display aspect ratio : 2.40:1
Frame rate mode : Constant
Frame rate : 23.976 (24000/1001) FPS
Color space : YUV
Chroma subsampling : 4:2:0
Bit depth : 10 bits
Bits/(Pixel*Frame) : 0.060
Stream size : 752 MiB (83%)
Default : Yes
Forced : No

Audio
ID : 2
Format : AAC
Format/Info : Advanced Audio Codec
Format profile : HE-AAC / LC
Format settings : NBC
Codec ID : A_AAC-2
Duration : 1 h 46 min
Bit rate : 197 kb/s
Channel(s) : 6 channels
Channel(s)_Original : 18 channels
Channel positions : Front: 14, Side: C, Back: C, LFE= 2
Sampling rate : 48.0 kHz / 24.0 kHz
Frame rate : 23.438 FPS (1024 SPF)
Compression mode : Lossy
Delay relative to video : 23 ms
Stream size : 151 MiB (17%)
Default : Yes
Forced : No

Text #1
ID : 3
Format : UTF-8
Codec ID : S_TEXT/UTF8
Codec ID/Info : UTF-8 Plain Text
Duration : 1 h 43 min
Bit rate : 55 b/s
Count of elements : 1458
Stream size : 41.8 KiB (0%)
Title : ENG
Language : English
Default : Yes
Forced : No

Text #2
ID : 4
Format : UTF-8
Codec ID : S_TEXT/UTF8
Codec ID/Info : UTF-8 Plain Text
Duration : 1 h 46 min
Bit rate : 63 b/s
Count of elements : 1818
Stream size : 49.3 KiB (0%)
Title : ENG SDH
Language : English
Default : No
Forced : No

[collapse]

Download Link(s)

Download

[RE-UP] – Direct download files get automatically deleted after a month or so. Posted on : 07/14/2018

[collapse]
Magnet Link

Magnet

Source : Wind.River.2017.1080p.BluRay.x264.DTS-HD.MA.5.1-HDC-12.57 GB

[collapse]

You may also like...

error: nah :p~