Wish Upon (2017)

PG-13 | 1h 30min | Fantasy, Horror, Thriller | 14 July 2017 (USA)

A teenage girl discovers a box that carries magic powers and a deadly price for using them.

Media information

General
Format : Matroska
Format version : Version 4 / Version 2
File size : 641 MiB
Duration : 1 h 30 min
Overall bit rate : 985 kb/s
Movie name : Wish.Upon.2017.UNRATED.720p.BrRip.2CH.x265.HEVC
Encoded date : UTC 2017-10-29 14:27:09
Writing application : mkvmerge v17.0.0 (‘Be Ur Friend’) 32-bit
Writing library : libebml v1.3.5 + libmatroska v1.4.8

Video
ID : 1
Format : HEVC
Format/Info : High Efficiency Video Coding
Format profile : [email protected]@Main
Codec ID : V_MPEGH/ISO/HEVC
Duration : 1 h 30 min
Bit rate : 915 kb/s
Width : 1 280 pixels
Height : 536 pixels
Display aspect ratio : 2.40:1
Frame rate mode : Constant
Frame rate : 23.976 (24000/1001) FPS
Color space : YUV
Chroma subsampling : 4:2:0
Bit depth : 8 bits
Bits/(Pixel*Frame) : 0.056
Stream size : 595 MiB (93%)
Default : Yes
Forced : No

Audio
ID : 2
Format : AAC
Format/Info : Advanced Audio Codec
Format profile : HE-AAC / LC
Format settings : Explicit
Codec ID : A_AAC-2
Duration : 1 h 30 min
Bit rate : 68.6 kb/s
Channel(s) : 2 channels
Channel positions : Front: L R
Sampling rate : 48.0 kHz / 24.0 kHz
Frame rate : 23.438 FPS (1024 SPF)
Compression mode : Lossy
Delay relative to video : 23 ms
Stream size : 44.6 MiB (7%)
Default : Yes
Forced : No

Text #1
ID : 3
Format : UTF-8
Codec ID : S_TEXT/UTF8
Codec ID/Info : UTF-8 Plain Text
Duration : 1 h 27 min
Bit rate : 48 b/s
Count of elements : 1129
Stream size : 31.0 KiB (0%)
Title : ENG
Default : Yes
Forced : No

Text #2
ID : 4
Format : UTF-8
Codec ID : S_TEXT/UTF8
Codec ID/Info : UTF-8 Plain Text
Duration : 1 h 28 min
Bit rate : 56 b/s
Count of elements : 1384
Stream size : 36.3 KiB (0%)
Title : ENG SDH
Default : No
Forced : No

[collapse]
Download Link(s)

Download

[RE-UP] -Direct download files get automatically deleted after a month or so. Posted on : 09/28/2018

[collapse]
Magnet Link

 

Magnet

Source : Wish.Upon.2017.UNRATED.1080p.BluRay.x264-DRONES-6.56 GB

[collapse]

You may also like...

error: nah :p~