Wrong Turn 2: Dead End (2007)

R | 1h 33min | Horror, Thriller | Video 9 October 2007

A group of reality show contestants find themselves fighting for their survival against a family of hideously deformed inbred cannibals who plan to ruthlessly butcher them all.

Watch trailer

Media information

General
Format : Matroska
Format version : Version 4 / Version 2
File size : 859 MiB
Duration : 1 h 36 min
Overall bit rate : 1 238 kb/s
Movie name : Wrong.Turn.2.Dead.End.Unrated.2007.720p.BluRay.2CH.x265.HEVC
Encoded date : UTC 2018-08-27 16:13:04
Writing application : mkvmerge v26.0.0 (‘In The Game’) 32-bit
Writing library : libebml v1.3.6 + libmatroska v1.4.9

Video
ID : 1
Format : HEVC
Format/Info : High Efficiency Video Coding
Format profile : [email protected]@Main
Codec ID : V_MPEGH/ISO/HEVC
Duration : 1 h 36 min
Bit rate : 1 178 kb/s
Width : 1 280 pixels
Height : 720 pixels
Display aspect ratio : 16:9
Frame rate mode : Constant
Frame rate : 23.976 (24000/1001) FPS
Color space : YUV
Chroma subsampling : 4:2:0
Bit depth : 8 bits
Bits/(Pixel*Frame) : 0.053
Stream size : 817 MiB (95%)
Default : Yes
Forced : No
Color range : Limited
Color primaries : BT.709
Transfer characteristics : BT.709
Matrix coefficients : BT.709

Audio
ID : 2
Format : Opus
Codec ID : A_OPUS
Duration : 1 h 36 min
Bit rate : 57.9 kb/s
Channel(s) : 2 channels
Channel positions : Front: L R
Sampling rate : 48.0 kHz
Frame rate : 50.000 FPS (960 SPF)
Compression mode : Lossy
Delay relative to video : -125 ms
Stream size : 40.2 MiB (5%)
Title : Stereo
Language : English
Default : Yes
Forced : No

Text
ID : 3
Format : ASS
Codec ID : S_TEXT/ASS
Duration : 1 h 29 min
Bit rate : 71 b/s
Count of elements : 752
Compression mode : Lossless
Stream size : 47.1 KiB (0%)
Language : English
Default : Yes
Forced : Yes

[collapse]
Download Link(s)

Download

[RE-UP]-Direct download files get automatically deleted after a month or so. Posted on : 05/17/2019

[collapse]
Magnet Link

Magnet

Wrong.Turn.2.Dead.End.2007.1080p.BluRay.x264-THUGLiNE-7.95 GB

[collapse]

You may also like...

error: nah :p~