Wrong Turn (2003)

R | 1h 24min | Horror | 30 May 2003 (USA)

Six people find themselves trapped in the woods of West Virginia, hunted down by “cannibalistic mountain men grossly disfigured through generations of in-breeding.”

Watch trailer

Media information

General
Format : Matroska
Format version : Version 4 / Version 2
File size : 566 MiB
Duration : 1 h 24 min
Overall bit rate : 939 kb/s
Movie name : Wrong.Turn.Unrated.2003.720p.BluRay.2CH.x265.HEVC
Encoded date : UTC 2018-08-24 18:58:45
Writing application : mkvmerge v25.0.0 (‘Prog Noir’) 32-bit
Writing library : libebml v1.3.6 + libmatroska v1.4.9

Video
ID : 1
Format : HEVC
Format/Info : High Efficiency Video Coding
Format profile : [email protected]@Main
Codec ID : V_MPEGH/ISO/HEVC
Duration : 1 h 24 min
Bit rate : 849 kb/s
Width : 1 280 pixels
Height : 688 pixels
Display aspect ratio : 1.85:1
Frame rate mode : Constant
Frame rate : 23.976 (24000/1001) FPS
Color space : YUV
Chroma subsampling : 4:2:0
Bit depth : 8 bits
Bits/(Pixel*Frame) : 0.040
Stream size : 512 MiB (90%)
Default : Yes
Forced : No
Color range : Limited
Color primaries : BT.709
Transfer characteristics : BT.709
Matrix coefficients : BT.709

Audio
ID : 2
Format : Opus
Codec ID : A_OPUS
Duration : 1 h 24 min
Bit rate : 88.2 kb/s
Channel(s) : 2 channels
Channel positions : Front: L R
Sampling rate : 48.0 kHz
Frame rate : 50.000 FPS (960 SPF)
Compression mode : Lossy
Delay relative to video : -125 ms
Stream size : 52.5 MiB (9%)
Title : Stereo
Language : English
Default : Yes
Forced : No

Text
ID : 3
Format : ASS
Codec ID : S_TEXT/ASS
Codec ID/Info : Advanced Sub Station Alpha
Duration : 1 h 19 min
Bit rate : 53 b/s
Count of elements : 530
Compression mode : Lossless
Stream size : 31.3 KiB (0%)
Language : English
Default : Yes
Forced : Yes

[collapse]
Download Link(s)

Download

[RE-UP]-Direct download files get automatically deleted after a month or so. Posted on : 05/17/2019

[collapse]
Magnet Link

Magnet

Wrong.Turn.2003.1080p.BluRay.x264-LEVERAGE-7.95 GB

[collapse]

You may also like...

error: nah :p~