Wrong Turn 4: Bloody Beginnings (2011)

R | 1h 33min | Horror | 25 October 2011 (USA)

A group of college students gets lost in a storm during their snowmobiling trip and takes shelter in an abandoned sanitarium which, unbeknown to them, is home to three deformed cannibals.

Watch trailer

Media information

General
Format : Matroska
Format version : Version 4 / Version 2
File size : 696 MiB
Duration : 1 h 33 min
Overall bit rate : 1 043 kb/s
Movie name : Wrong.Turn.4.Bloody.Beginnings.UNRATED.2011.720p.BluRay.2CH.x264.AVC
Encoded date : UTC 2018-08-27 20:38:23
Writing application : mkvmerge v26.0.0 (‘In The Game’) 32-bit
Writing library : libebml v1.3.6 + libmatroska v1.4.9

Video
ID : 1
Format : AVC
Format/Info : Advanced Video Codec
Format profile : [email protected]
Format settings : CABAC / 9 Ref Frames
Format settings, CABAC : Yes
Format settings, RefFrames : 9 frames
Codec ID : V_MPEG4/ISO/AVC
Duration : 1 h 33 min
Bit rate : 949 kb/s
Width : 1 280 pixels
Height : 720 pixels
Display aspect ratio : 16:9
Frame rate mode : Constant
Frame rate : 23.976 (24000/1001) FPS
Color space : YUV
Chroma subsampling : 4:2:0
Bit depth : 8 bits
Scan type : Progressive
Bits/(Pixel*Frame) : 0.043
Stream size : 631 MiB (91%)
Default : Yes
Forced : No

Audio
ID : 2
Format : AAC
Format/Info : Advanced Audio Codec
Format profile : LC
Codec ID : A_AAC-2
Duration : 1 h 33 min
Bit rate : 96.0 kb/s
Channel(s) : 2 channels
Channel positions : Front: L R
Sampling rate : 48.0 kHz
Frame rate : 46.875 FPS (1024 SPF)
Compression mode : Lossy
Delay relative to video : -125 ms
Stream size : 64.1 MiB (9%)
Language : English
Default : Yes
Forced : No

Text
ID : 3
Format : UTF-8
Codec ID : S_TEXT/UTF8
Codec ID/Info : UTF-8 Plain Text
Duration : 1 h 32 min
Bit rate : 56 b/s
Count of elements : 1335
Stream size : 38.6 KiB (0%)
Language : English
Default : Yes
Forced : No

[collapse]
Download Link(s)

Download

[RE-UP]-Direct download files get automatically deleted after a month or so. Posted on : 05/17/2019

[collapse]
Magnet Link

Magnet

Wrong.Turn.4.2011.1080p.BluRay.x264-Japhson-6.55 GB

[collapse]

You may also like...

error: nah :p~