Wrong Turn 5: Bloodlines (2012)

R | 1h 31min | Horror | Video 22 February 2013

A group of college students, on a trip to the Mountain Man Festival on Halloween in West Virginia, encounter a clan of cannibals.

Watch trailer

Media information

General
Format : Matroska
Format version : Version 4 / Version 2
File size : 694 MiB
Duration : 1 h 30 min
Overall bit rate : 1 069 kb/s
Movie name : Wrong.Turn.5.UNRATED.2012.720p.BluRay.2CH.x264.AVC
Encoded date : UTC 2018-08-28 15:01:49
Writing application : mkvmerge v26.0.0 (‘In The Game’) 32-bit
Writing library : libebml v1.3.6 + libmatroska v1.4.9

Video
ID : 1
Format : AVC
Format/Info : Advanced Video Codec
Format profile : [email protected]
Format settings : CABAC / 9 Ref Frames
Format settings, CABAC : Yes
Format settings, RefFrames : 9 frames
Codec ID : V_MPEG4/ISO/AVC
Duration : 1 h 30 min
Bit rate : 978 kb/s
Width : 1 280 pixels
Height : 720 pixels
Display aspect ratio : 16:9
Frame rate mode : Constant
Frame rate : 23.976 (24000/1001) FPS
Color space : YUV
Chroma subsampling : 4:2:0
Bit depth : 8 bits
Scan type : Progressive
Bits/(Pixel*Frame) : 0.044
Stream size : 630 MiB (91%)
Default : Yes
Forced : No

Audio
ID : 2
Format : AAC
Format/Info : Advanced Audio Codec
Format profile : LC
Codec ID : A_AAC-2
Duration : 1 h 30 min
Bit rate : 96.0 kb/s
Channel(s) : 2 channels
Channel positions : Front: L R
Sampling rate : 48.0 kHz
Frame rate : 46.875 FPS (1024 SPF)
Compression mode : Lossy
Delay relative to video : -125 ms
Stream size : 62.3 MiB (9%)
Default : Yes
Forced : No

Text
ID : 3
Format : UTF-8
Codec ID : S_TEXT/UTF8
Codec ID/Info : UTF-8 Plain Text
Duration : 1 h 30 min
Bit rate : 69 b/s
Count of elements : 1269
Stream size : 46.0 KiB (0%)
Language : English
Default : Yes
Forced : No

Forced : No

[collapse]
Download Link(s)

Download

[RE-UP]-Direct download files get automatically deleted after a month or so. Posted on : 05/17/2019

[collapse]
Magnet Link

Magnet

Wrong.Turn.5.Bloodlines.2012.1080p.BluRay.x264.DTS-FGT-7.73 GB

[collapse]

You may also like...

error: nah :p~