Wrong Turn 6: Last Resort (2014)

R | 1h 31min | Horror | 13 October 2014 (USA)

An inheritance leads a young man and his friends to an abandoned resort inhabited by two sketchy caretakers and a clan of mutant cannibals.

Watch trailer

Media information

General
Format : Matroska
Format version : Version 4 / Version 2
File size : 607 MiB
Duration : 1 h 30 min
Overall bit rate : 938 kb/s
Movie name : Wrong.Turn.6.Last.Resort.2014.720p.BluRay.2CH.x265.HEVC
Encoded date : UTC 2018-08-28 15:04:10
Writing application : mkvmerge v26.0.0 (‘In The Game’) 32-bit
Writing library : libebml v1.3.6 + libmatroska v1.4.9

Video
ID : 1
Format : HEVC
Format/Info : High Efficiency Video Coding
Format profile : [email protected]@Main
Codec ID : V_MPEGH/ISO/HEVC
Duration : 1 h 30 min
Bit rate : 862 kb/s
Width : 1 280 pixels
Height : 720 pixels
Display aspect ratio : 16:9
Frame rate mode : Constant
Frame rate : 23.976 (24000/1001) FPS
Color space : YUV
Chroma subsampling : 4:2:0
Bit depth : 8 bits
Bits/(Pixel*Frame) : 0.039
Stream size : 558 MiB (92%)
Default : Yes
Forced : No
Color range : Limited
Color primaries : BT.709
Transfer characteristics : BT.709
Matrix coefficients : BT.709

Audio
ID : 2
Format : Opus
Codec ID : A_OPUS
Duration : 1 h 30 min
Bit rate : 74.0 kb/s
Channel(s) : 2 channels
Channel positions : Front: L R
Sampling rate : 48.0 kHz
Frame rate : 50.000 FPS (960 SPF)
Compression mode : Lossy
Stream size : 47.9 MiB (8%)
Title : Stereo
Language : English
Default : Yes
Forced : No

Text
ID : 3
Format : ASS
Codec ID : S_TEXT/ASS
Codec ID/Info : Advanced Sub Station Alpha
Duration : 1 h 29 min
Bit rate : 80 b/s
Count of elements : 998
Compression mode : Lossless
Stream size : 53.2 KiB (0%)
Language : English
Default : Yes
Forced : Yes

[collapse]
Download Link(s)

Download

[RE-UP]-Direct download files get automatically deleted after a month or so. Posted on : 05/17/2019

[collapse]
Magnet Link

Magnet

Wrong.Turn.6.Last.Resort.2014.1080p.BluRay.x264-MELiTE- 6.55 GB

[collapse]

You may also like...

error: nah :p~