Yanni: Live at the Acropolis (1994)

Not Rated | 1h 35min | Music | TV Special

On September 25, 1993, beneath the glow of the Parthenon, an audience assembled to witness Yanni’s extraordinary homecoming. Live At The Acropolis features the acclaimed composer’s most timeless works brought to life with a full band and orchestra.

Watch trailer

Media information

General
Format : Matroska
Format version : Version 4
File size : 2.89 GiB
Duration : 1 h 35 min
Overall bit rate : 4 335 kb/s
Movie name : Yanni.Live.At.The.Acropolis.1994.25th.ANNIVERSARY.EDITION.1080p.10bit.BluRay.DTS.6CH.x265.HEVC

Video
ID : 1
Format : HEVC
Format/Info : High Efficiency Video Coding
Format profile : Main [email protected]@Main
Codec ID : V_MPEGH/ISO/HEVC
Duration : 1 h 35 min
Bit rate : 2 824 kb/s
Width : 1 920 pixels
Height : 1 080 pixels
Display aspect ratio : 16:9
Frame rate mode : Constant
Frame rate : 23.976 (24000/1001) FPS
Color space : YUV
Chroma subsampling : 4:2:0
Bit depth : 10 bits
Bits/(Pixel*Frame) : 0.057
Stream size : 1.89 GiB (65%)
Default : Yes
Forced : No
Color range : Limited
Color primaries : BT.709
Transfer characteristics : BT.709
Matrix coefficients : BT.709

Audio
ID : 2
Format : DTS
Codec ID : A_DTS
Duration : 1 h 35 min
Bit rate mode : Constant
Bit rate : 1 509 kb/s
Channel(s) : 6 channels
Channel layout : C L R Ls Rs LFE
Sampling rate : 48.0 kHz
Frame rate : 93.750 FPS (512 SPF)
Bit depth : 24 bits
Compression mode : Lossy
Stream size : 1.01 GiB (35%)
Language : English
Default : Yes
Forced : No

[collapse]
Download Link(s)

Part01 Part02

Direct download files get automatically deleted after a month or so. Posted on : 11/08/2020

[collapse]
Magnet Link

Magnet

Yanni-Live-At-The-Acropolis-1994-25th-ANNIVERSARY-EDITION-1080p-10bit-BluRay-DTS-6CH-x265-HEVC-2.9 GB

[collapse]

Media information

General
Format : Matroska
Format version : Version 4
File size : 1.97 GiB
Duration : 1 h 35 min
Overall bit rate : 2 957 kb/s
Movie name : Yanni.Live.At.The.Acropolis.1994.25th.ANNIVERSARY.EDITION.720p.10bit.BluRay.DTS.6CH.x265.HEVC

Video
ID : 1
Format : HEVC
Format/Info : High Efficiency Video Coding
Format profile : Main [email protected]@Main
Codec ID : V_MPEGH/ISO/HEVC
Duration : 1 h 35 min
Bit rate : 1 446 kb/s
Width : 1 280 pixels
Height : 720 pixels
Display aspect ratio : 16:9
Frame rate mode : Constant
Frame rate : 23.976 (24000/1001) FPS
Color space : YUV
Chroma subsampling : 4:2:0
Bit depth : 10 bits
Bits/(Pixel*Frame) : 0.065
Stream size : 988 MiB (49%)
Default : Yes
Forced : No
Color range : Limited
Color primaries : BT.709
Transfer characteristics : BT.709
Matrix coefficients : BT.709

Audio
ID : 2
Format : DTS
Codec ID : A_DTS
Duration : 1 h 35 min
Bit rate mode : Constant
Bit rate : 1 509 kb/s
Channel(s) : 6 channels
Channel layout : C L R Ls Rs LFE
Sampling rate : 48.0 kHz
Frame rate : 93.750 FPS (512 SPF)
Bit depth : 24 bits
Compression mode : Lossy
Stream size : 1.01 GiB (51%)
Language : English
Default : Yes
Forced : No

[collapse]
Download Link(s)

Download

Direct download files get automatically deleted after a month or so. Posted on : 11/08/2020

[collapse]
Magnet Link

Magnet

Yanni-Live-At-The-Acropolis-1994-25th-ANNIVERSARY-EDITION-1080p-10bit-BluRay-DTS-6CH-x265-HEVC-2.9 GB

[collapse]

You may also like...

error: nah :p~