You Don’t Mess with the Zohan (2008)

PG-13 | 1h 53min | Comedy | 6 June 2008 (USA)

An Israeli Special Forces Soldier fakes his death so he can re-emerge in New York City as a hair stylist.

Watch trailer

Media information

General
Format : Matroska
Format version : Version 4 / Version 2
File size : 880 MiB
Duration : 1 h 56 min
Overall bit rate : 1 053 kb/s
Movie name : You.Don’t.Mess.with.the.Zohan.2008.UNRATED.EXTENDED.720p.BluRay.2CH.x265.HEVC
Encoded date : UTC 2018-08-14 06:54:16
Writing application : mkvmerge v25.0.0 (‘Prog Noir’) 32-bit
Writing library : libebml v1.3.6 + libmatroska v1.4.9

Video
ID : 1
Format : HEVC
Format/Info : High Efficiency Video Coding
Format profile : [email protected]@Main
Codec ID : V_MPEGH/ISO/HEVC
Duration : 1 h 56 min
Bit rate : 987 kb/s
Width : 1 280 pixels
Height : 688 pixels
Display aspect ratio : 1.85:1
Frame rate mode : Constant
Frame rate : 23.976 (24000/1001) FPS
Color space : YUV
Chroma subsampling : 4:2:0
Bit depth : 8 bits
Bits/(Pixel*Frame) : 0.047
Stream size : 825 MiB (94%)
Default : Yes
Forced : No

Audio
ID : 2
Format : AAC
Format/Info : Advanced Audio Codec
Format profile : HE-AAC / LC
Format settings : Explicit
Codec ID : A_AAC-2
Duration : 1 h 56 min
Bit rate : 64.2 kb/s
Channel(s) : 2 channels
Channel positions : Front: L R
Sampling rate : 48.0 kHz / 24.0 kHz
Frame rate : 23.438 FPS (1024 SPF)
Compression mode : Lossy
Delay relative to video : 23 ms
Stream size : 53.7 MiB (6%)
Language : English
Default : Yes
Forced : No

Text
ID : 3
Format : UTF-8
Codec ID : S_TEXT/UTF8
Codec ID/Info : UTF-8 Plain Text
Duration : 1 h 48 min
Bit rate : 75 b/s
Count of elements : 1702
Stream size : 60.1 KiB (0%)
Language : English
Default : Yes
Forced : No

[collapse]
Download Link(s)

Download

[RE-UP]-Direct download files get automatically deleted after a month or so. Posted on: 03/28/2019

[collapse]
Magnet Link

Magnet

You.Dont.Mess.with.the.Zohan.2008.UNRATED.EXTENDED.1080p.BluRay.x264.DTS-FGT-13.47 GB

[collapse]

You may also like...

error: nah :p~