YPF (2007)

Young People Fucking (original title)|Not Rated | 1h 27min | Comedy, Drama, Romance | 13 June 2008 (Canada)

On a Tuesday night, five couples have separate sexual adventures.

Watch trailer

Media information

General
Format : Matroska
Format version : Version 4
File size : 896 MiB
Duration : 1 h 30 min
Overall bit rate : 1 384 kb/s
Movie name : Young.People.Fucking.2007.1080p.10bit.BluRay.2CH.x265.HEVC
Encoded date : UTC 2019-12-27 22:36:31
Writing application : mkvmerge v41.0.0 (‘Smarra’) 32-bit
Writing library : libebml v1.3.9 + libmatroska v1.5.2

Video
ID : 1
Format : HEVC
Format/Info : High Efficiency Video Coding
Format profile : Main [email protected]@Main
Codec ID : V_MPEGH/ISO/HEVC
Duration : 1 h 30 min
Bit rate : 1 269 kb/s
Width : 1 920 pixels
Height : 1 080 pixels
Display aspect ratio : 16:9
Frame rate mode : Constant
Frame rate : 23.976 (23976/1000) FPS
Original frame rate : 23.976 (24000/1001) FPS
Color space : YUV
Chroma subsampling : 4:2:0
Bit depth : 10 bits
Bits/(Pixel*Frame) : 0.026
Stream size : 821 MiB (92%)
Default : Yes
Forced : No
Color range : Limited
Color primaries : BT.709
Transfer characteristics : BT.709
Matrix coefficients : BT.709

Audio
ID : 2
Format : AAC LC
Codec ID : A_AAC-2
Duration : 1 h 30 min
Bit rate : 112 kb/s
Channel(s) : 2 channels
Channel layout : L R
Sampling rate : 48.0 kHz
Frame rate : 46.875 FPS (1024 SPF)
Compression mode : Lossy
Delay relative to video : -21 ms
Stream size : 72.7 MiB (8%)
Title : Stereo
Language : English
Default : Yes
Forced : No

Text #1
ID : 3
Format : UTF-8
Codec ID : S_TEXT/UTF8
Codec ID/Info : UTF-8 Plain Text
Duration : 1 h 29 min
Bit rate : 53 b/s
Count of elements : 900
Stream size : 35.3 KiB (0%)
Language : English
Default : Yes
Forced : No

Text #2
ID : 4
Format : UTF-8
Codec ID : S_TEXT/UTF8
Codec ID/Info : UTF-8 Plain Text
Duration : 1 h 29 min
Bit rate : 53 b/s
Count of elements : 900
Stream size : 35.3 KiB (0%)
Language : English
Default : No
Forced : No

[collapse]
Download Link(s)

Download

Direct download files get automatically deleted after a month or so. Posted on : 12/28/2019

[collapse]
Magnet Link

Magnet

Young.People.Fucking.2007.1080p.BluRay.x264-CiNEFiLE-7.94 GB

[collapse]

You may also like...

error: nah :p~