Z-O-M-B-I-E-S (2018)

TV-G | 1h 34min | Musical, Romance | TV Movie 16 February 2018

Students from Zombietown are transferred to a high school in a suburban town preoccupied with uniformity, traditions and pep rallies.

Watch trailer

Media information

General
Format : Matroska
Format version : Version 4 / Version 2
File size : 826 MiB
Duration : 1 h 34 min
Overall bit rate : 1 224 kb/s
Movie name : Z-O-M-B-I-E-S.2018.720p.WEB-DL.2CH.x265.HEVC
Encoded date : UTC 2018-06-24 15:37:39
Writing application : mkvmerge v24.0.0 (‘Beyond The Pale’) 32-bit
Writing library : libebml v1.3.6 + libmatroska v1.4.9

Video
ID : 1
Format : HEVC
Format/Info : High Efficiency Video Coding
Format profile : [email protected]@Main
Codec ID : V_MPEGH/ISO/HEVC
Duration : 1 h 34 min
Bit rate : 1 151 kb/s
Width : 1 280 pixels
Height : 720 pixels
Display aspect ratio : 16:9
Frame rate mode : Constant
Frame rate : 23.976 (24000/1001) FPS
Color space : YUV
Chroma subsampling : 4:2:0
Bit depth : 8 bits
Bits/(Pixel*Frame) : 0.052
Stream size : 777 MiB (94%)
Default : Yes
Forced : No

Audio
ID : 2
Format : AAC
Format/Info : Advanced Audio Codec
Format profile : HE-AAC / LC
Format settings : Explicit
Codec ID : A_AAC-2
Duration : 1 h 34 min
Bit rate : 72.0 kb/s
Channel(s) : 2 channels
Channel positions : Front: L R
Sampling rate : 48.0 kHz / 24.0 kHz
Frame rate : 23.438 FPS (1024 SPF)
Compression mode : Lossy
Delay relative to video : 23 ms
Stream size : 48.1 MiB (6%)
Language : English
Default : Yes
Forced : No

Text
ID : 3
Format : UTF-8
Codec ID : S_TEXT/UTF8
Codec ID/Info : UTF-8 Plain Text
Duration : 1 h 34 min
Bit rate : 84 b/s
Count of elements : 2223
Stream size : 58.4 KiB (0%)
Language : English
Default : Yes
Forced : No

[collapse]
Download Link(s)

Download

Direct download files get automatically deleted after a month or so. Posted on : 06/24/2018

[collapse]
Magnet Link

Magnet

ZOMBIES.2018.1080p.WEB-DL.DD5.1.H264-CMRG-3.6 GB

[collapse]

You may also like...

error: nah :p~