A Christmas Carol

1h | Drama, Fantasy | TV Mini-Series (2019– )

A television adaptation of Charles Dickens’ classic Christmas tale of the miser Ebenezer Scrooge.

Watch trailer

Media information

General
Format : Matroska
Format version : Version 4
File size : 1.86 GiB
Duration : 2 h 52 min
Overall bit rate : 1 547 kb/s
Movie name : A.Christmas.Carol.2019.S01E01E02E03.FX.CUT.1080p.10bit.WEBRip.6CH.x265.HEVC

Video
ID : 1
Format : HEVC
Format/Info : High Efficiency Video Coding
Format profile : Main [email protected]@Main
Codec ID : V_MPEGH/ISO/HEVC
Duration : 2 h 52 min
Bit rate : 1 321 kb/s
Width : 1 920 pixels
Height : 1 080 pixels
Display aspect ratio : 1.985
Frame rate mode : Constant
Frame rate : 23.976 (24000/1001) FPS
Color space : YUV
Chroma subsampling : 4:2:0
Bit depth : 10 bits
Bits/(Pixel*Frame) : 0.027
Stream size : 1.59 GiB (85%)
Default : Yes
Forced : No
Color range : Limited
Color primaries : BT.709
Transfer characteristics : BT.709
Matrix coefficients : BT.709

Audio
ID : 2
Format : AAC LC
Codec ID : A_AAC-2
Duration : 2 h 52 min
Bit rate : 224 kb/s
Channel(s) : 6 channels
Channel layout : C L R Ls Rs LFE
Sampling rate : 48.0 kHz
Frame rate : 46.875 FPS (1024 SPF)
Compression mode : Lossy
Delay relative to video : -21 ms
Stream size : 276 MiB (14%)
Language : English
Default : Yes
Forced : No

Text #1
ID : 3
Format : UTF-8
Codec ID : S_TEXT/UTF8
Codec ID/Info : UTF-8 Plain Text
Duration : 2 h 52 min
Bit rate : 55 b/s
Count of elements : 2572
Stream size : 69.5 KiB (0%)
Language : English
Default : No
Forced : No

Text #2
ID : 4
Format : UTF-8
Codec ID : S_TEXT/UTF8
Codec ID/Info : UTF-8 Plain Text
Duration : 2 h 52 min
Bit rate : 55 b/s
Count of elements : 2590
Stream size : 69.5 KiB (0%)
Title : SDH
Language : English
Default : Yes
Forced : No

[collapse]
Download Link(s)

Download

Direct download files get automatically deleted after a month or so. Posted on: 12/25/2020

[collapse]
Magnet Link

Magnet

A.Christmas.Carol.2019.S01E01E02E03.1080p.AMZN.WEBRip.DDP5.1.x264-NTG-11.81 GB

[collapse]

Media information

General
Format : Matroska
Format version : Version 4
File size : 776 MiB
Duration : 2 h 52 min
Overall bit rate : 629 kb/s
Movie name : A.Christmas.Carol.2019.S01E01E02E03.FX.CUT.720p.10bit.WEBRip.2CH.x265.HEVC

Video
ID : 1
Format : HEVC
Format/Info : High Efficiency Video Coding
Format profile : Main [email protected]@Main
Codec ID : V_MPEGH/ISO/HEVC
Duration : 2 h 52 min
Bit rate : 558 kb/s
Width : 1 280 pixels
Height : 640 pixels
Display aspect ratio : 2.000
Frame rate mode : Constant
Frame rate : 23.976 (24000/1001) FPS
Color space : YUV
Chroma subsampling : 4:2:0
Bit depth : 10 bits
Bits/(Pixel*Frame) : 0.028
Stream size : 688 MiB (89%)
Default : Yes
Forced : No
Color range : Limited
Color primaries : BT.709
Transfer characteristics : BT.709
Matrix coefficients : BT.709

Audio
ID : 2
Format : AAC LC SBR
Commercial name : HE-AAC
Format settings : Explicit
Codec ID : A_AAC-2
Duration : 2 h 52 min
Bit rate : 69.1 kb/s
Channel(s) : 2 channels
Channel layout : L R
Sampling rate : 48.0 kHz
Frame rate : 23.438 FPS (2048 SPF)
Compression mode : Lossy
Delay relative to video : 23 ms
Stream size : 85.3 MiB (11%)
Language : English
Default : Yes
Forced : No

Text
ID : 3
Format : UTF-8
Codec ID : S_TEXT/UTF8
Codec ID/Info : UTF-8 Plain Text
Duration : 2 h 51 min
Bit rate : 55 b/s
Count of elements : 2589
Stream size : 69.5 KiB (0%)
Language : English
Default : Yes
Forced : No

[collapse]
Download Link(s)

Download

[RE-UP]-Direct download files get automatically deleted after a month or so. Posted on: 12/24/2020

[collapse]
Magnet Link

Magnet

A.Christmas.Carol.2019.S01E01E02E03.1080p.AMZN.WEBRip.DDP5.1.x264-NTG-11.81 GB

[collapse]

You may also like...

error: nah :p~