Ancient Aliens

TV-PG | 1h 30min | Documentary, History, Sci-Fi | TV Series (2009– )

Science and mythology – and how they are the same thing.

Watch trailer

Details and Download | S13E13

General
Format : Matroska
Format version : Version 4
File size : 753 MiB
Duration : 1 h 24 min
Overall bit rate : 1 248 kb/s
Movie name : Ancient.Aliens.S13E13.720p.WEB-DL.2CH.x265.HEVC
Encoded date : UTC 2018-09-01 18:25:41
Writing application : mkvmerge v26.0.0 (‘In The Game’) 32-bit
Writing library : libebml v1.3.6 + libmatroska v1.4.9

Video
ID : 1
Format : HEVC
Format/Info : High Efficiency Video Coding
Format profile : [email protected]@Main
Codec ID : V_MPEGH/ISO/HEVC
Duration : 1 h 24 min
Bit rate : 1 148 kb/s
Width : 1 280 pixels
Height : 720 pixels
Display aspect ratio : 16:9
Frame rate mode : Constant
Frame rate : 23.976 (24000/1001) FPS
Color space : YUV
Chroma subsampling : 4:2:0
Bit depth : 8 bits
Bits/(Pixel*Frame) : 0.052
Stream size : 692 MiB (92%)
Default : Yes
Forced : No
Color range : Limited
Color primaries : BT.709
Transfer characteristics : BT.709
Matrix coefficients : BT.709

Audio
ID : 2
Format : Opus
Codec ID : A_OPUS
Duration : 1 h 24 min
Bit rate : 97.5 kb/s
Channel(s) : 2 channels
Channel layout : L R
Sampling rate : 48.0 kHz
Frame rate : 50.000 FPS (960 SPF)
Compression mode : Lossy
Stream size : 58.8 MiB (8%)
Title : Stereo
Default : Yes
Forced : No

Text
ID : 3
Format : ASS
Codec ID : S_TEXT/ASS
Codec ID/Info : Advanced Sub Station Alpha
Duration : 1 h 24 min
Bit rate : 226 b/s
Count of elements : 1622
Compression mode : Lossless
Stream size : 140 KiB (0%)
Default : Yes
Forced : Yes

Download

Direct download files get automatically deleted after a month or so. Posted on : 09/01/2018

[collapse]

Details and Download | S13E12

General
Format : Matroska
Format version : Version 4 / Version 2
File size : 406 MiB
Duration : 42 min 11 s
Overall bit rate : 1 346 kb/s
Movie name : Ancient.Aliens.S13E12.720p.WEB-DL.2CH.x265.HEVC
Encoded date : UTC 2018-08-26 08:31:51
Writing application : mkvmerge v25.0.0 (‘Prog Noir’) 32-bit
Writing library : libebml v1.3.6 + libmatroska v1.4.9

Video
ID : 1
Format : HEVC
Format/Info : High Efficiency Video Coding
Format profile : [email protected]@Main
Codec ID : V_MPEGH/ISO/HEVC
Duration : 42 min 10 s
Bit rate : 1 262 kb/s
Width : 1 280 pixels
Height : 720 pixels
Display aspect ratio : 16:9
Frame rate mode : Constant
Frame rate : 23.976 (24000/1001) FPS
Color space : YUV
Chroma subsampling : 4:2:0
Bit depth : 8 bits
Bits/(Pixel*Frame) : 0.057
Stream size : 381 MiB (94%)
Default : Yes
Forced : No
Color range : Limited
Color primaries : BT.709
Transfer characteristics : BT.709
Matrix coefficients : BT.709

Audio
ID : 2
Format : Opus
Codec ID : A_OPUS
Duration : 42 min 11 s
Bit rate : 81.2 kb/s
Channel(s) : 2 channels
Channel positions : Front: L R
Sampling rate : 48.0 kHz
Frame rate : 50.000 FPS (960 SPF)
Compression mode : Lossy
Stream size : 24.5 MiB (6%)
Title : Stereo
Default : Yes
Forced : No

Text
ID : 3
Format : ASS
Codec ID : S_TEXT/ASS
Codec ID/Info : Advanced Sub Station Alpha
Duration : 42 min 7 s
Bit rate : 211 b/s
Count of elements : 749
Compression mode : Lossless
Stream size : 65.2 KiB (0%)
Default : Yes
Forced : Yes

Download

Direct download files get automatically deleted after a month or so. Posted on : 08/26/2018

[collapse]

Details and Download | S13E11

General
Format : Matroska
Format version : Version 4 / Version 2
File size : 313 MiB
Duration : 42 min 11 s
Overall bit rate : 1 036 kb/s
Movie name : Ancient.Aliens.S13E11720p.WEB-DL.2CH.x265.HEVC
Encoded date : UTC 2018-08-18 21:06:09
Writing application : mkvmerge v25.0.0 (‘Prog Noir’) 32-bit
Writing library : libebml v1.3.6 + libmatroska v1.4.9

Video
ID : 1
Format : HEVC
Format/Info : High Efficiency Video Coding
Format profile : [email protected]@Main
Codec ID : V_MPEGH/ISO/HEVC
Duration : 42 min 11 s
Bit rate : 952 kb/s
Width : 1 280 pixels
Height : 720 pixels
Display aspect ratio : 16:9
Frame rate mode : Constant
Frame rate : 23.976 (24000/1001) FPS
Color space : YUV
Chroma subsampling : 4:2:0
Bit depth : 8 bits
Bits/(Pixel*Frame) : 0.043
Stream size : 287 MiB (92%)
Default : Yes
Forced : No
Color range : Limited
Color primaries : BT.709
Transfer characteristics : BT.709
Matrix coefficients : BT.709

Audio
ID : 2
Format : Opus
Codec ID : A_OPUS
Duration : 42 min 11 s
Bit rate : 81.4 kb/s
Channel(s) : 2 channels
Channel positions : Front: L R
Sampling rate : 48.0 kHz
Frame rate : 50.000 FPS (960 SPF)
Compression mode : Lossy
Stream size : 24.6 MiB (8%)
Title : Stereo
Default : Yes
Forced : No

Text
ID : 3
Format : ASS
Codec ID : S_TEXT/ASS
Codec ID/Info : Advanced Sub Station Alpha
Duration : 42 min 6 s
Bit rate : 220 b/s
Count of elements : 820
Compression mode : Lossless
Stream size : 68.0 KiB (0%)
Default : Yes
Forced : Yes

Download

Direct download files get automatically deleted after a month or so. Posted on : 08/19/2018

[collapse]

Details and Download | S13E10

General
Format : Matroska
Format version : Version 4 / Version 2
File size : 357 MiB
Duration : 42 min 11 s
Overall bit rate : 1 182 kb/s
Movie name : Ancient.Aliens.S13E10.720p.WEB-DL.2CH.x265.HEVC
Encoded date : UTC 2018-08-11 13:54:44
Writing application : mkvmerge v25.0.0 (‘Prog Noir’) 32-bit
Writing library : libebml v1.3.6 + libmatroska v1.4.9

Video
ID : 1
Format : HEVC
Format/Info : High Efficiency Video Coding
Format profile : [email protected]@Main
Codec ID : V_MPEGH/ISO/HEVC
Duration : 42 min 11 s
Bit rate : 1 081 kb/s
Width : 1 280 pixels
Height : 720 pixels
Display aspect ratio : 16:9
Frame rate mode : Constant
Frame rate : 23.976 (24000/1001) FPS
Color space : YUV
Chroma subsampling : 4:2:0
Bit depth : 8 bits
Bits/(Pixel*Frame) : 0.049
Stream size : 326 MiB (91%)
Default : Yes
Forced : No
Color range : Limited
Color primaries : BT.709
Transfer characteristics : BT.709
Matrix coefficients : BT.709

Audio
ID : 2
Format : Opus
Codec ID : A_OPUS
Duration : 42 min 11 s
Bit rate : 98.9 kb/s
Channel(s) : 2 channels
Channel positions : Front: L R
Sampling rate : 48.0 kHz
Frame rate : 50.000 FPS (960 SPF)
Compression mode : Lossy
Stream size : 29.8 MiB (8%)
Title : Stereo
Default : Yes
Forced : No

Text
ID : 3
Format : ASS
Codec ID : S_TEXT/ASS
Codec ID/Info : Advanced Sub Station Alpha
Duration : 42 min 6 s
Bit rate : 213 b/s
Count of elements : 789
Compression mode : Lossless
Stream size : 65.8 KiB (0%)
Default : Yes
Forced : Yes

Download

Direct download files get automatically deleted after a month or so. Posted on : 08/11/2018

[collapse]

Details and Download | S13E09

General
Format : Matroska
Format version : Version 4 / Version 2
File size : 310 MiB
Duration : 42 min 11 s
Overall bit rate : 1 027 kb/s
Movie name : Ancient.Aliens.S13E09.720p.WEBRip.2CH.x265.HEVC
Encoded date : UTC 2018-08-04 13:10:59
Writing application : mkvmerge v25.0.0 (‘Prog Noir’) 32-bit
Writing library : libebml v1.3.6 + libmatroska v1.4.9

Video
ID : 1
Format : HEVC
Format/Info : High Efficiency Video Coding
Format profile : [email protected]@Main
Codec ID : V_MPEGH/ISO/HEVC
Duration : 42 min 11 s
Bit rate : 928 kb/s
Width : 1 280 pixels
Height : 720 pixels
Display aspect ratio : 16:9
Frame rate mode : Constant
Frame rate : 23.976 (24000/1001) FPS
Color space : YUV
Chroma subsampling : 4:2:0
Bit depth : 8 bits
Bits/(Pixel*Frame) : 0.042
Stream size : 280 MiB (90%)
Default : Yes
Forced : No
Color range : Limited
Color primaries : BT.709
Transfer characteristics : BT.709
Matrix coefficients : BT.709

Audio
ID : 2
Format : Opus
Codec ID : A_OPUS
Duration : 42 min 11 s
Bit rate : 96.3 kb/s
Channel(s) : 2 channels
Channel positions : Front: L R
Sampling rate : 48.0 kHz
Frame rate : 50.000 FPS (960 SPF)
Compression mode : Lossy
Stream size : 29.1 MiB (9%)
Title : Stereo
Default : Yes
Forced : No

Text
ID : 3
Format : ASS
Codec ID : S_TEXT/ASS
Codec ID/Info : Advanced Sub Station Alpha
Duration : 42 min 6 s
Bit rate : 221 b/s
Count of elements : 794
Compression mode : Lossless
Stream size : 68.4 KiB (0%)
Default : Yes
Forced : Yes

Download

Direct download files get automatically deleted after a month or so. Posted on : 08/04/2018

[collapse]

Details and Download | S13E08

General
Format : Matroska
Format version : Version 4 / Version 2
File size : 595 MiB
Duration : 41 min 53 s
Overall bit rate : 1 985 kb/s
Movie name : Ancient.Aliens.S13E08.720p.WEBRip.2CH.x265.HEVC
Encoded date : UTC 2018-07-29 09:10:12
Writing application : mkvmerge v25.0.0 (‘Prog Noir’) 32-bit
Writing library : libebml v1.3.6 + libmatroska v1.4.9

Video
ID : 1
Format : HEVC
Format/Info : High Efficiency Video Coding
Format profile : [email protected]@Main
Codec ID : V_MPEGH/ISO/HEVC
Duration : 41 min 53 s
Bit rate : 1 887 kb/s
Width : 1 280 pixels
Height : 720 pixels
Display aspect ratio : 16:9
Frame rate mode : Constant
Frame rate : 23.976 (24000/1001) FPS
Color space : YUV
Chroma subsampling : 4:2:0
Bit depth : 8 bits
Bits/(Pixel*Frame) : 0.085
Stream size : 565 MiB (95%)
Default : Yes
Forced : No
Color range : Limited
Color primaries : BT.709
Transfer characteristics : BT.709
Matrix coefficients : BT.709

Audio
ID : 2
Format : Opus
Codec ID : A_OPUS
Duration : 41 min 53 s
Bit rate : 95.6 kb/s
Channel(s) : 2 channels
Channel positions : Front: L R
Sampling rate : 48.0 kHz
Frame rate : 50.000 FPS (960 SPF)
Compression mode : Lossy
Stream size : 28.6 MiB (5%)
Title : Stereo
Default : Yes
Forced : No

Text
ID : 3
Format : ASS
Codec ID : S_TEXT/ASS
Codec ID/Info : Advanced Sub Station Alpha
Duration : 41 min 47 s
Bit rate : 169 b/s
Count of elements : 846
Compression mode : Lossless
Stream size : 52.0 KiB (0%)
Language : English
Default : Yes
Forced : Yes

Download

Direct download files get automatically deleted after a month or so. Posted on : 07/29/2018

[collapse]

Details and Download | S13E07

General
Format : Matroska
Format version : Version 4 / Version 2
File size : 844 MiB
Duration : 1 h 23 min
Overall bit rate : 1 405 kb/s
Movie name : Ancient.Aliens.S13E07.720p.HDTV.2CH.x265.HEVC
Encoded date : UTC 2018-07-23 06:09:02
Writing application : mkvmerge v25.0.0 (‘Prog Noir’) 32-bit
Writing library : libebml v1.3.6 + libmatroska v1.4.9

Video
ID : 1
Format : HEVC
Format/Info : High Efficiency Video Coding
Format profile : [email protected]@Main
Codec ID : V_MPEGH/ISO/HEVC
Duration : 1 h 23 min
Bit rate : 1 291 kb/s
Width : 1 280 pixels
Height : 720 pixels
Display aspect ratio : 16:9
Frame rate mode : Constant
Frame rate : 23.976 (24000/1001) FPS
Color space : YUV
Chroma subsampling : 4:2:0
Bit depth : 8 bits
Bits/(Pixel*Frame) : 0.058
Stream size : 775 MiB (92%)
Default : Yes
Forced : No
Color range : Limited
Color primaries : BT.709
Transfer characteristics : BT.709
Matrix coefficients : BT.709

Audio
ID : 2
Format : AAC
Format/Info : Advanced Audio Codec
Format profile : LC
Codec ID : A_AAC-2
Duration : 1 h 23 min
Bit rate : 112 kb/s
Channel(s) : 2 channels
Channel positions : Front: L R
Sampling rate : 48.0 kHz
Frame rate : 46.875 FPS (1024 SPF)
Compression mode : Lossy
Delay relative to video : 200 ms
Stream size : 67.5 MiB (8%)
Title : Stereo
Language : English
Default : Yes
Forced : No

Text
ID : 3
Format : ASS
Codec ID : S_TEXT/ASS
Codec ID/Info : Advanced Sub Station Alpha
Duration : 1 h 23 min
Bit rate : 150 b/s
Count of elements : 1504
Compression mode : Lossless
Stream size : 92.5 KiB (0%)
Language : English
Default : Yes
Forced : Yes

Download

Direct download files get automatically deleted after a month or so. Posted on : 07/23/2018

[collapse]

Details and Download | S13E06

General
Format : Matroska
Format version : Version 4 / Version 2
File size : 398 MiB
Duration : 42 min 12 s
Overall bit rate : 1 317 kb/s
Movie name : Ancient.Aliens.S13E06.Repack.720p.WEBRip.2CH.x265.HEVC
Encoded date : UTC 2018-06-04 19:37:12
Writing application : mkvmerge v23.0.0 (‘The Bride Said No’) 32-bit
Writing library : libebml v1.3.6 + libmatroska v1.4.9

Video
ID : 1
Format : HEVC
Format/Info : High Efficiency Video Coding
Format profile : [email protected]@Main
Codec ID : V_MPEGH/ISO/HEVC
Duration : 42 min 12 s
Bit rate : 1 219 kb/s
Width : 1 280 pixels
Height : 720 pixels
Display aspect ratio : 16:9
Frame rate mode : Constant
Frame rate : 23.976 (24000/1001) FPS
Color space : YUV
Chroma subsampling : 4:2:0
Bit depth : 8 bits
Bits/(Pixel*Frame) : 0.055
Stream size : 368 MiB (93%)
Default : Yes
Forced : No
Color range : Limited
Color primaries : BT.709
Transfer characteristics : BT.709
Matrix coefficients : BT.709

Audio
ID : 2
Format : AAC
Format/Info : Advanced Audio Codec
Format profile : LC
Codec ID : A_AAC-2
Duration : 42 min 12 s
Bit rate : 96.0 kb/s
Channel(s) : 2 channels
Channel positions : Front: L R
Sampling rate : 48.0 kHz
Frame rate : 46.875 FPS (1024 SPF)
Compression mode : Lossy
Stream size : 29.0 MiB (7%)
Title : Stereo
Default : Yes
Forced : No

Text
ID : 3
Format : UTF-8
Codec ID : S_TEXT/UTF8
Codec ID/Info : UTF-8 Plain Text
Duration : 42 min 1 s
Bit rate : 99 b/s
Count of elements : 805
Stream size : 30.8 KiB (0%)
Default : Yes
Forced : No

Download

Direct download files get automatically deleted after a month or so. Posted on : 06/04/2018

[collapse]

Details and Download | S13E05

General
Format : Matroska
Format version : Version 4 / Version 2
File size : 534 MiB
Duration : 41 min 56 s
Overall bit rate : 1 781 kb/s
Movie name : Ancient.Aliens.S13E05.New.Source.720p.HDTV.2CH.x265.HEVC
Encoded date : UTC 2018-05-30 05:09:33
Writing application : mkvmerge v23.0.0 (‘The Bride Said No’) 32-bit
Writing library : libebml v1.3.6 + libmatroska v1.4.9

Video
ID : 1
Format : HEVC
Format/Info : High Efficiency Video Coding
Format profile : [email protected]@Main
Codec ID : V_MPEGH/ISO/HEVC
Duration : 41 min 56 s
Bit rate : 1 664 kb/s
Width : 1 280 pixels
Height : 720 pixels
Display aspect ratio : 16:9
Frame rate mode : Constant
Frame rate : 23.976 (24000/1001) FPS
Color space : YUV
Chroma subsampling : 4:2:0
Bit depth : 8 bits
Bits/(Pixel*Frame) : 0.075
Stream size : 499 MiB (93%)
Default : Yes
Forced : No
Color range : Limited
Color primaries : BT.709
Transfer characteristics : BT.709
Matrix coefficients : BT.709

Audio
ID : 2
Format : Opus
Codec ID : A_OPUS
Duration : 41 min 56 s
Bit rate : 114 kb/s
Channel(s) : 2 channels
Channel positions : Front: L R
Sampling rate : 48.0 kHz
Frame rate : 50.000 FPS (960 SPF)
Compression mode : Lossy
Stream size : 34.2 MiB (6%)
Title : Stereo
Language : English
Default : Yes
Forced : No

Text
ID : 3
Format : ASS
Codec ID : S_TEXT/ASS
Codec ID/Info : Advanced Sub Station Alpha
Duration : 41 min 54 s
Bit rate : 180 b/s
Count of elements : 769
Compression mode : Lossless
Stream size : 55.3 KiB (0%)
Language : English
Default : Yes
Forced : Yes

Download

Direct download files get automatically deleted after a month or so. Posted on : 05/30/2018

[collapse]

Details and Download | S13E04

General
Format : Matroska
Format version : Version 4 / Version 2
File size : 409 MiB
Duration : 41 min 58 s
Overall bit rate : 1 363 kb/s
Movie name : Ancient.Aliens.S13e04.720p.HDTV.2CH.x265.HEVC
Encoded date : UTC 2018-05-24 06:23:57
Writing application : mkvmerge v23.0.0 (‘The Bride Said No’) 32-bit
Writing library : libebml v1.3.6 + libmatroska v1.4.9

Video
ID : 1
Format : HEVC
Format/Info : High Efficiency Video Coding
Format profile : [email protected]@Main
Codec ID : V_MPEGH/ISO/HEVC
Duration : 41 min 58 s
Bit rate : 1 232 kb/s
Width : 1 280 pixels
Height : 720 pixels
Display aspect ratio : 16:9
Frame rate mode : Constant
Frame rate : 23.976 (24000/1001) FPS
Color space : YUV
Chroma subsampling : 4:2:0
Bit depth : 8 bits
Bits/(Pixel*Frame) : 0.056
Stream size : 370 MiB (90%)
Default : Yes
Forced : No
Color range : Limited
Color primaries : BT.709
Transfer characteristics : BT.709
Matrix coefficients : BT.709

Audio
ID : 2
Format : Opus
Codec ID : A_OPUS
Duration : 41 min 58 s
Bit rate : 128 kb/s
Channel(s) : 2 channels
Channel positions : Front: L R
Sampling rate : 48.0 kHz
Frame rate : 50.000 FPS (960 SPF)
Compression mode : Lossy
Stream size : 38.6 MiB (9%)
Title : Stereo
Default : Yes
Forced : No

Text
ID : 3
Format : ASS
Codec ID : S_TEXT/ASS
Codec ID/Info : Advanced Sub Station Alpha
Duration : 41 min 52 s
Bit rate : 155 b/s
Count of elements : 792
Compression mode : Lossless
Stream size : 47.7 KiB (0%)
Language : English
Default : Yes
Forced : Yes

Download

Direct download files get automatically deleted after a month or so. Posted on : 05/24/2018

[collapse]

Details and Download | S13E03

General
Format : Matroska
Format version : Version 4 / Version 2
File size : 365 MiB
Duration : 42 min 12 s
Overall bit rate : 1 211 kb/s
Movie name : Ancient.Aliens.S13E03.720p.WEB-DL.2CH.x265.HEVC
Encoded date : UTC 2018-05-12 22:49:49 / UTC 2018-05-12T19:09:31Z
Writing application : mkvmerge v23.0.0 (‘The Bride Said No’) 32-bit
Writing library : libebml v1.3.6 + libmatroska v1.4.9 / Lavf57.7.2

Video
ID : 1
Format : HEVC
Format/Info : High Efficiency Video Coding
Format profile : [email protected]@Main
Codec ID : V_MPEGH/ISO/HEVC
Duration : 42 min 12 s
Width : 1 280 pixels
Height : 720 pixels
Display aspect ratio : 16:9
Frame rate mode : Constant
Frame rate : 23.976 (24000/1001) FPS
Color space : YUV
Chroma subsampling : 4:2:0
Bit depth : 8 bits
Default : Yes
Forced : No
Color range : Limited
Color primaries : BT.709
Transfer characteristics : BT.709
Matrix coefficients : BT.709
FromStats_BitRate : 1092725
FromStats_Duration : 00:42:12.072000000
FromStats_FrameCount : 60709
FromStats_StreamSize : 345857349

Audio
ID : 2
Format : Opus
Codec ID : A_OPUS
Duration : 42 min 12 s
Channel(s) : 2 channels
Channel positions : Front: L R
Sampling rate : 48.0 kHz
Compression mode : Lossy
Title : Stereo
Default : Yes
Forced : No
FromStats_BitRate : 115624
FromStats_Duration : 00:42:12.101000000
FromStats_FrameCount : 126605
FromStats_StreamSize : 36596476

Text
ID : 3
Format : UTF-8
Codec ID : S_TEXT/UTF8
Codec ID/Info : UTF-8 Plain Text
Default : Yes
Forced : No
FromStats_BitRate : 103
FromStats_Duration : 00:42:06.649000000
FromStats_FrameCount : 821
FromStats_StreamSize : 32706

Download

Direct download files get automatically deleted after a month or so. Posted on : 05/13/2018

[collapse]

Details and Download | S13E02

General
Format : Matroska
Format version : Version 4 / Version 2
File size : 365 MiB
Duration : 41 min 58 s
Overall bit rate : 1 215 kb/s
Movie name : Ancient.Aliens.S13E02.720p.HDTV.2CH.x265.HEVC
Writing application : mkvmerge v23.0.0 (‘The Bride Said No’) 32-bit
Writing library : libebml v1.3.6 + libmatroska v1.4.9 / Lavf57.7.2

Video
ID : 1
Format : HEVC
Format/Info : High Efficiency Video Coding
Format profile : [email protected]@Main
Codec ID : V_MPEGH/ISO/HEVC
Duration : 41 min 58 s
Width : 1 280 pixels
Height : 720 pixels
Display aspect ratio : 16:9
Frame rate mode : Constant
Frame rate : 23.976 (24000/1001) FPS
Color space : YUV
Chroma subsampling : 4:2:0
Bit depth : 8 bits
Default : Yes
Forced : No
Color range : Limited
Color primaries : BT.709
Transfer characteristics : BT.709
Matrix coefficients : BT.709
FromStats_BitRate : 1097267
FromStats_Duration : 00:41:58.224000000
FromStats_FrameCount : 60377
FromStats_StreamSize : 345395533

Audio
ID : 2
Format : Opus
Codec ID : A_OPUS
Duration : 41 min 58 s
Channel(s) : 2 channels
Channel positions : Front: L R
Sampling rate : 48.0 kHz
Compression mode : Lossy
Title : Stereo
Default : Yes
Forced : No
FromStats_BitRate : 115402
FromStats_Duration : 00:41:58.261000000
FromStats_FrameCount : 125913
FromStats_StreamSize : 36326674

Text
ID : 3
Format : ASS
Codec ID : S_TEXT/ASS
Codec ID/Info : Advanced Sub Station Alpha
Compression mode : Lossless
Language : English
Default : No
Forced : No
FromStats_BitRate : 154
FromStats_Duration : 00:41:54.926000000
FromStats_FrameCount : 774
FromStats_StreamSize : 48690

Download

Direct download files get automatically deleted after a month or so. Posted on : 05/07/2018

[collapse]

Details and Download | S13E01

General
Format : Matroska
Format version : Version 4 / Version 2
File size : 671 MiB
Duration : 1 h 23 min
Overall bit rate : 1 117 kb/s
Movie name : Ancient.Aliens.S13e01.720p.HDTV.2CH.x265.HEVC
Writing application : mkvmerge v23.0.0 (‘The Bride Said No’) 32-bit
Writing library : libebml v1.3.6 + libmatroska v1.4.9 / Lavf57.7.2

Video
ID : 1
Format : HEVC
Format/Info : High Efficiency Video Coding
Format profile : [email protected]@Main
Codec ID : V_MPEGH/ISO/HEVC
Duration : 1 h 23 min
Width : 1 280 pixels
Height : 720 pixels
Display aspect ratio : 16:9
Frame rate mode : Constant
Frame rate : 23.976 (24000/1001) FPS
Color space : YUV
Chroma subsampling : 4:2:0
Bit depth : 8 bits
Default : Yes
Forced : No
Color range : Limited
Color primaries : BT.709
Transfer characteristics : BT.709
Matrix coefficients : BT.709
FromStats_BitRate : 1000302
FromStats_Duration : 01:23:56.740000000
FromStats_FrameCount : 120761
FromStats_StreamSize : 629783041

Audio
ID : 2
Format : Opus
Codec ID : A_OPUS
Duration : 1 h 23 min
Channel(s) : 2 channels
Channel positions : Front: L R
Sampling rate : 48.0 kHz
Compression mode : Lossy
Title : Stereo
Default : Yes
Forced : No
FromStats_BitRate : 114315
FromStats_Duration : 01:23:56.741000000
FromStats_FrameCount : 251837
FromStats_StreamSize : 71972224

Text
ID : 3
Format : ASS
Codec ID : S_TEXT/ASS
Codec ID/Info : Advanced Sub Station Alpha
Compression mode : Lossless
Language : English
Default : Yes
Forced : Yes
FromStats_BitRate : 165
FromStats_Duration : 01:23:44.254000000
FromStats_FrameCount : 1618
FromStats_StreamSize : 103678

Download

Direct download files get automatically deleted after a month or so. Posted on : 05/07/2018

[collapse]

You may also like...

error: nah :p~