Better Call Saul

TV-MA | 46min | Crime, Drama | TV Series (2015– )

The trials and tribulations of criminal lawyer, Jimmy McGill, in the time leading up to establishing his strip-mall law office in Albuquerque, New Mexico.

Watch trailer

Media Info and Download Links | S05E10

General
Format : Matroska
Format version : Version 4
File size : 310 MiB
Duration : 1 h 0 min
Overall bit rate : 717 kb/s
Movie name : Better.Call.Saul.S05E10.Something.Unforgivable.REPACK.720p.10bit.WEBRip.2CH.x265.HEVC

Video
ID : 1
Format : HEVC
Format/Info : High Efficiency Video Coding
Format profile : Main [email protected]@Main
Codec ID : V_MPEGH/ISO/HEVC
Duration : 1 h 0 min
Bit rate : 648 kb/s
Width : 1 280 pixels
Height : 720 pixels
Display aspect ratio : 16:9
Frame rate mode : Constant
Frame rate : 23.976 (24000/1001) FPS
Color space : YUV
Chroma subsampling : 4:2:0
Bit depth : 10 bits
Bits/(Pixel*Frame) : 0.029
Stream size : 280 MiB (90%)
Default : Yes
Forced : No

Audio
ID : 2
Format : AAC LC SBR
Commercial name : HE-AAC
Format settings : Explicit
Codec ID : A_AAC-2
Duration : 1 h 0 min
Bit rate : 66.2 kb/s
Channel(s) : 2 channels
Channel layout : L R
Sampling rate : 48.0 kHz
Frame rate : 23.438 FPS (2048 SPF)
Compression mode : Lossy
Delay relative to video : 23 ms
Stream size : 28.4 MiB (9%)
Language : English
Default : Yes
Forced : No

Text #1
ID : 3
Format : UTF-8
Codec ID : S_TEXT/UTF8
Codec ID/Info : UTF-8 Plain Text
Duration : 58 min 52 s
Bit rate : 47 b/s
Count of elements : 691
Stream size : 20.7 KiB (0%)
Title : English
Language : English
Default : Yes
Forced : No

Text #2
ID : 4
Format : UTF-8
Codec ID : S_TEXT/UTF8
Codec ID/Info : UTF-8 Plain Text
Duration : 50 min 25 s
Bit rate : 8 b/s
Count of elements : 109
Stream size : 2.97 KiB (0%)
Title : Forced
Language : English
Default : No
Forced : Yes

Text #3
ID : 5
Format : UTF-8
Codec ID : S_TEXT/UTF8
Codec ID/Info : UTF-8 Plain Text
Duration : 59 min 2 s
Bit rate : 75 b/s
Count of elements : 626
Stream size : 32.5 KiB (0%)
Title : Arabic
Language : Arabic
Default : No
Forced : No

Text #4
ID : 6
Format : UTF-8
Codec ID : S_TEXT/UTF8
Codec ID/Info : UTF-8 Plain Text
Duration : 59 min 2 s
Bit rate : 43 b/s
Count of elements : 626
Stream size : 18.9 KiB (0%)
Title : Brazilian Portuguese
Language : Portuguese
Default : No
Forced : No

Text #5
ID : 7
Format : UTF-8
Codec ID : S_TEXT/UTF8
Codec ID/Info : UTF-8 Plain Text
Duration : 59 min 2 s
Bit rate : 34 b/s
Count of elements : 482
Stream size : 14.8 KiB (0%)
Title : Castilian
Language : Spanish
Default : No
Forced : No

Text #6
ID : 8
Format : UTF-8
Codec ID : S_TEXT/UTF8
Codec ID/Info : UTF-8 Plain Text
Duration : 59 min 3 s
Bit rate : 46 b/s
Count of elements : 626
Stream size : 20.2 KiB (0%)
Title : Chinese Simplified
Language : Chinese
Default : No
Forced : No

Text #7
ID : 9
Format : UTF-8
Codec ID : S_TEXT/UTF8
Codec ID/Info : UTF-8 Plain Text
Duration : 59 min 3 s
Bit rate : 43 b/s
Count of elements : 626
Stream size : 18.8 KiB (0%)
Title : Chinese Traditional
Language : Chinese
Default : No
Forced : No

Text #8
ID : 10
Format : UTF-8
Codec ID : S_TEXT/UTF8
Codec ID/Info : UTF-8 Plain Text
Duration : 59 min 3 s
Bit rate : 39 b/s
Count of elements : 626
Stream size : 17.1 KiB (0%)
Title : Danish
Language : Danish
Default : No
Forced : No

Text #9
ID : 11
Format : UTF-8
Codec ID : S_TEXT/UTF8
Codec ID/Info : UTF-8 Plain Text
Duration : 59 min 3 s
Bit rate : 43 b/s
Count of elements : 582
Stream size : 18.7 KiB (0%)
Title : Dutch
Language : Dutch
Default : No
Forced : No

Text #10
ID : 12
Format : UTF-8
Codec ID : S_TEXT/UTF8
Codec ID/Info : UTF-8 Plain Text
Duration : 59 min 3 s
Bit rate : 43 b/s
Count of elements : 455
Stream size : 19.0 KiB (0%)
Title : Finnish
Language : Finnish
Default : No
Forced : No

Text #11
ID : 13
Format : UTF-8
Codec ID : S_TEXT/UTF8
Codec ID/Info : UTF-8 Plain Text
Duration : 59 min 3 s
Bit rate : 38 b/s
Count of elements : 625
Stream size : 16.7 KiB (0%)
Title : French
Language : French
Default : No
Forced : No

Text #12
ID : 14
Format : UTF-8
Codec ID : S_TEXT/UTF8
Codec ID/Info : UTF-8 Plain Text
Duration : 59 min 3 s
Bit rate : 46 b/s
Count of elements : 630
Stream size : 20.3 KiB (0%)
Title : German
Language : German
Default : No
Forced : No

Text #13
ID : 15
Format : UTF-8
Codec ID : S_TEXT/UTF8
Codec ID/Info : UTF-8 Plain Text
Duration : 59 min 3 s
Bit rate : 44 b/s
Count of elements : 626
Stream size : 19.3 KiB (0%)
Title : Italian
Language : Italian
Default : No
Forced : No

Text #14
ID : 16
Format : UTF-8
Codec ID : S_TEXT/UTF8
Codec ID/Info : UTF-8 Plain Text
Duration : 58 min 53 s
Bit rate : 45 b/s
Count of elements : 629
Stream size : 19.5 KiB (0%)
Title : Japanese
Language : Japanese
Default : No
Forced : No

Text #15
ID : 17
Format : UTF-8
Codec ID : S_TEXT/UTF8
Codec ID/Info : UTF-8 Plain Text
Duration : 59 min 3 s
Bit rate : 56 b/s
Count of elements : 628
Stream size : 24.6 KiB (0%)
Title : Korean
Language : Korean
Default : No
Forced : No

Text #16
ID : 18
Format : UTF-8
Codec ID : S_TEXT/UTF8
Codec ID/Info : UTF-8 Plain Text
Duration : 59 min 3 s
Bit rate : 38 b/s
Count of elements : 626
Stream size : 16.8 KiB (0%)
Title : Norwegian
Language : Norwegian
Default : No
Forced : No

Text #17
ID : 19
Format : UTF-8
Codec ID : S_TEXT/UTF8
Codec ID/Info : UTF-8 Plain Text
Duration : 59 min 2 s
Bit rate : 45 b/s
Count of elements : 626
Stream size : 19.5 KiB (0%)
Title : Portuguese
Language : Portuguese
Default : No
Forced : No

Text #18
ID : 20
Format : UTF-8
Codec ID : S_TEXT/UTF8
Codec ID/Info : UTF-8 Plain Text
Duration : 59 min 2 s
Bit rate : 36 b/s
Count of elements : 510
Stream size : 15.9 KiB (0%)
Title : Spanish
Language : Spanish
Default : No
Forced : No

Text #19
ID : 21
Format : UTF-8
Codec ID : S_TEXT/UTF8
Codec ID/Info : UTF-8 Plain Text
Duration : 59 min 3 s
Bit rate : 43 b/s
Count of elements : 617
Stream size : 18.6 KiB (0%)
Title : Swedish
Language : Swedish
Default : No
Forced : No

Download

Direct download files get automatically deleted after a month or so. Posted on : 04/22/2020

[collapse]
Media Info and Download Links | S05E09

General
Format : Matroska
Format version : Version 4
File size : 250 MiB
Duration : 59 min 13 s
Overall bit rate : 589 kb/s
Movie name : Better.Call.Saul.S05E09.Bad.Choice.Road.INTERNAL.720p.WEBRip.2CH.x265.HEVC

Video
ID : 1
Format : HEVC
Format/Info : High Efficiency Video Coding
Format profile : [email protected]@Main
Codec ID : V_MPEGH/ISO/HEVC
Duration : 59 min 13 s
Bit rate : 521 kb/s
Width : 1 280 pixels
Height : 720 pixels
Display aspect ratio : 16:9
Frame rate mode : Constant
Frame rate : 23.976 (24000/1001) FPS
Color space : YUV
Chroma subsampling : 4:2:0
Bit depth : 8 bits
Bits/(Pixel*Frame) : 0.024
Stream size : 221 MiB (88%)
Default : Yes
Forced : No

Audio
ID : 2
Format : AAC LC SBR
Commercial name : HE-AAC
Format settings : Explicit
Codec ID : A_AAC-2
Duration : 59 min 13 s
Bit rate : 66.2 kb/s
Channel(s) : 2 channels
Channel layout : L R
Sampling rate : 48.0 kHz
Frame rate : 23.438 FPS (2048 SPF)
Compression mode : Lossy
Delay relative to video : 23 ms
Stream size : 27.9 MiB (11%)
Language : English
Default : Yes
Forced : No

Text
ID : 3
Format : UTF-8
Codec ID : S_TEXT/UTF8
Codec ID/Info : UTF-8 Plain Text
Duration : 59 min 8 s
Bit rate : 60 b/s
Count of elements : 1063
Stream size : 26.4 KiB (0%)
Language : English
Default : Yes
Forced : No

Download

Direct download files get automatically deleted after a month or so. Posted on : 04/14/2020

[collapse]
Media Info and Download Links | S05E08

General
Format : Matroska
Format version : Version 4
File size : 324 MiB
Duration : 53 min 45 s
Overall bit rate : 844 kb/s
Movie name : Better.Call.Saul.S05E08.Bagman.INTERNAL.720p.WEBRip.2CH.x265.HEVC

Video
ID : 1
Format : HEVC
Format/Info : High Efficiency Video Coding
Format profile : [email protected]@Main
Codec ID : V_MPEGH/ISO/HEVC
Duration : 53 min 45 s
Bit rate : 770 kb/s
Width : 1 280 pixels
Height : 720 pixels
Display aspect ratio : 16:9
Frame rate mode : Constant
Frame rate : 23.976 (24000/1001) FPS
Color space : YUV
Chroma subsampling : 4:2:0
Bit depth : 8 bits
Bits/(Pixel*Frame) : 0.035
Stream size : 296 MiB (91%)
Default : Yes
Forced : No

Audio
ID : 2
Format : AAC LC SBR
Commercial name : HE-AAC
Format settings : Explicit
Codec ID : A_AAC-2
Duration : 53 min 45 s
Bit rate : 72.0 kb/s
Channel(s) : 2 channels
Channel layout : L R
Sampling rate : 48.0 kHz
Frame rate : 23.438 FPS (2048 SPF)
Compression mode : Lossy
Delay relative to video : 23 ms
Stream size : 27.7 MiB (9%)
Language : English
Default : Yes
Forced : No

Text
ID : 3
Format : UTF-8
Codec ID : S_TEXT/UTF8
Codec ID/Info : UTF-8 Plain Text
Duration : 53 min 36 s
Bit rate : 42 b/s
Count of elements : 808
Stream size : 16.7 KiB (0%)
Language : English
Default : Yes
Forced : No

Download

Direct download files get automatically deleted after a month or so. Posted on : 04/07/2020

[collapse]
Media Info and Download Links | S05E07

General
Format : Matroska
Format version : Version 4
File size : 217 MiB
Duration : 47 min 22 s
Overall bit rate : 641 kb/s
Movie name : Better.Call.Saul.S05E07.JMM.INTERNAL.720p.WEBRip.2CH.x265.HEVC

Video
ID : 1
Format : HEVC
Format/Info : High Efficiency Video Coding
Format profile : [email protected]@Main
Codec ID : V_MPEGH/ISO/HEVC
Duration : 47 min 22 s
Bit rate : 573 kb/s
Width : 1 280 pixels
Height : 720 pixels
Display aspect ratio : 16:9
Frame rate mode : Constant
Frame rate : 23.976 (24000/1001) FPS
Color space : YUV
Chroma subsampling : 4:2:0
Bit depth : 8 bits
Bits/(Pixel*Frame) : 0.026
Stream size : 194 MiB (89%)
Default : Yes
Forced : No

Audio
ID : 2
Format : AAC LC SBR
Commercial name : HE-AAC
Format settings : Explicit
Codec ID : A_AAC-2
Duration : 47 min 22 s
Bit rate : 66.2 kb/s
Channel(s) : 2 channels
Channel layout : L R
Sampling rate : 48.0 kHz
Frame rate : 23.438 FPS (2048 SPF)
Compression mode : Lossy
Delay relative to video : 23 ms
Stream size : 22.3 MiB (10%)
Language : English
Default : Yes
Forced : No

Text
ID : 3
Format : UTF-8
Codec ID : S_TEXT/UTF8
Codec ID/Info : UTF-8 Plain Text
Duration : 46 min 52 s
Bit rate : 56 b/s
Count of elements : 727
Stream size : 19.4 KiB (0%)
Language : English
Default : Yes
Forced : No

Download

Direct download files get automatically deleted after a month or so. Posted on : 03/31/2020

[collapse]
Media Info and Download Links | S05E06

General
Format : Matroska
Format version : Version 4
File size : 217 MiB
Duration : 51 min 51 s
Overall bit rate : 586 kb/s
Movie name : Better.Call.Saul.S05E06.Wexler.v.Goodman.720p.10bit.WEBRip.2CH.x265.HEVC

Video
ID : 1
Format : HEVC
Format/Info : High Efficiency Video Coding
Format profile : Main [email protected]@Main
Codec ID : V_MPEGH/ISO/HEVC
Duration : 51 min 51 s
Bit rate : 519 kb/s
Width : 1 280 pixels
Height : 720 pixels
Display aspect ratio : 16:9
Frame rate mode : Constant
Frame rate : 23.976 (24000/1001) FPS
Color space : YUV
Chroma subsampling : 4:2:0
Bit depth : 10 bits
Bits/(Pixel*Frame) : 0.023
Stream size : 192 MiB (89%)
Default : Yes
Forced : No

Audio
ID : 2
Format : AAC LC SBR
Commercial name : HE-AAC
Format settings : Explicit
Codec ID : A_AAC-2
Duration : 51 min 51 s
Bit rate : 63.3 kb/s
Channel(s) : 2 channels
Channel layout : L R
Sampling rate : 48.0 kHz
Frame rate : 23.438 FPS (2048 SPF)
Compression mode : Lossy
Delay relative to video : 23 ms
Stream size : 23.5 MiB (11%)
Language : English
Default : Yes
Forced : No

Text #1
ID : 3
Format : UTF-8
Codec ID : S_TEXT/UTF8
Codec ID/Info : UTF-8 Plain Text
Duration : 50 min 3 s
Bit rate : 78 b/s
Count of elements : 749
Stream size : 28.9 KiB (0%)
Title : English
Language : English
Default : Yes
Forced : No

Text #2
ID : 4
Format : UTF-8
Codec ID : S_TEXT/UTF8
Codec ID/Info : UTF-8 Plain Text
Duration : 50 min 45 s
Bit rate : 60 b/s
Count of elements : 710
Stream size : 22.6 KiB (0%)
Title : Norwegian
Language : Norwegian
Default : No
Forced : No

Text #3
ID : 5
Format : UTF-8
Codec ID : S_TEXT/UTF8
Codec ID/Info : UTF-8 Plain Text
Duration : 50 min 45 s
Bit rate : 69 b/s
Count of elements : 715
Stream size : 26.0 KiB (0%)
Title : French
Language : French
Default : No
Forced : No

Text #4
ID : 6
Format : UTF-8
Codec ID : S_TEXT/UTF8
Codec ID/Info : UTF-8 Plain Text
Duration : 50 min 45 s
Bit rate : 62 b/s
Count of elements : 712
Stream size : 23.4 KiB (0%)
Title : Danish
Language : Danish
Default : No
Forced : No

Text #5
ID : 7
Format : UTF-8
Codec ID : S_TEXT/UTF8
Codec ID/Info : UTF-8 Plain Text
Duration : 50 min 45 s
Bit rate : 68 b/s
Count of elements : 540
Stream size : 25.5 KiB (0%)
Title : Finnish
Language : Finnish
Default : No
Forced : No

Text #6
ID : 8
Format : UTF-8
Codec ID : S_TEXT/UTF8
Codec ID/Info : UTF-8 Plain Text
Duration : 50 min 20 s
Bit rate : 67 b/s
Count of elements : 699
Stream size : 24.8 KiB (0%)
Title : Swedish
Language : Swedish
Default : No
Forced : No

Text #7
ID : 9
Format : UTF-8
Codec ID : S_TEXT/UTF8
Codec ID/Info : UTF-8 Plain Text
Duration : 50 min 45 s
Bit rate : 72 b/s
Count of elements : 717
Stream size : 27.0 KiB (0%)
Title : Brazilian Portuguese
Language : Portuguese
Default : No
Forced : No

Text #8
ID : 10
Format : UTF-8
Codec ID : S_TEXT/UTF8
Codec ID/Info : UTF-8 Plain Text
Duration : 50 min 20 s
Bit rate : 74 b/s
Count of elements : 712
Stream size : 27.3 KiB (0%)
Title : German
Language : German
Default : No
Forced : No

Text #9
ID : 11
Format : UTF-8
Codec ID : S_TEXT/UTF8
Codec ID/Info : UTF-8 Plain Text
Duration : 50 min 20 s
Bit rate : 70 b/s
Count of elements : 765
Stream size : 25.9 KiB (0%)
Title : European Spanish
Language : Spanish
Default : No
Forced : No

Text #10
ID : 12
Format : UTF-8
Codec ID : S_TEXT/UTF8
Codec ID/Info : UTF-8 Plain Text
Duration : 50 min 45 s
Bit rate : 72 b/s
Count of elements : 713
Stream size : 26.9 KiB (0%)
Title : Italian
Language : Italian
Default : No
Forced : No

Text #11
ID : 13
Format : UTF-8
Codec ID : S_TEXT/UTF8
Codec ID/Info : UTF-8 Plain Text
Duration : 50 min 45 s
Bit rate : 69 b/s
Count of elements : 674
Stream size : 25.7 KiB (0%)
Title : Dutch
Language : Dutch
Default : No
Forced : No

Text #12
ID : 14
Format : UTF-8
Codec ID : S_TEXT/UTF8
Codec ID/Info : UTF-8 Plain Text
Duration : 50 min 45 s
Bit rate : 74 b/s
Count of elements : 713
Stream size : 27.5 KiB (0%)
Title : Portuguese
Language : Portuguese
Default : No
Forced : No

Text #13
ID : 15
Format : UTF-8
Codec ID : S_TEXT/UTF8
Codec ID/Info : UTF-8 Plain Text
Duration : 50 min 45 s
Bit rate : 73 b/s
Count of elements : 719
Stream size : 27.3 KiB (0%)
Title : Spanish
Language : Spanish
Default : No
Forced : No

Download

Direct download files get automatically deleted after a month or so. Posted on : 03/24/2020

[collapse]
Media Info and Download Links | S05E05

General
Format : Matroska
Format version : Version 4
File size : 246 MiB
Duration : 50 min 47 s
Overall bit rate : 676 kb/s
Movie name : Better.Call.Saul.S05E05.Dedicado.a.Max.720p.10bit.WEBRip.2CH.x265.HEVC

Video
ID : 1
Format : HEVC
Format/Info : High Efficiency Video Coding
Format profile : Main [email protected]@Main
Codec ID : V_MPEGH/ISO/HEVC
Duration : 50 min 47 s
Bit rate : 604 kb/s
Width : 1 280 pixels
Height : 720 pixels
Display aspect ratio : 16:9
Frame rate mode : Constant
Frame rate : 23.976 (24000/1001) FPS
Color space : YUV
Chroma subsampling : 4:2:0
Bit depth : 10 bits
Bits/(Pixel*Frame) : 0.027
Stream size : 219 MiB (89%)
Default : Yes
Forced : No

Audio
ID : 2
Format : AAC LC SBR
Commercial name : HE-AAC
Format settings : Explicit
Codec ID : A_AAC-2
Duration : 50 min 47 s
Bit rate : 68.0 kb/s
Channel(s) : 2 channels
Channel layout : L R
Sampling rate : 48.0 kHz
Frame rate : 23.438 FPS (2048 SPF)
Compression mode : Lossy
Delay relative to video : 23 ms
Stream size : 24.7 MiB (10%)
Language : English
Default : Yes
Forced : No

Text #1
ID : 3
Format : UTF-8
Codec ID : S_TEXT/UTF8
Codec ID/Info : UTF-8 Plain Text
Duration : 49 min 2 s
Bit rate : 55 b/s
Count of elements : 558
Stream size : 20.1 KiB (0%)
Language : English
Default : No
Forced : No

Text #2
ID : 4
Format : UTF-8
Codec ID : S_TEXT/UTF8
Codec ID/Info : UTF-8 Plain Text
Duration : 35 min 34 s
Bit rate : 1 b/s
Count of elements : 11
Stream size : 290 Bytes (0%)
Title : Forced
Language : English
Default : No
Forced : Yes

Text #3
ID : 5
Format : UTF-8
Codec ID : S_TEXT/UTF8
Codec ID/Info : UTF-8 Plain Text
Duration : 49 min 39 s
Bit rate : 58 b/s
Count of elements : 630
Stream size : 21.3 KiB (0%)
Title : SDH
Language : English
Default : Yes
Forced : No

Text #4
ID : 6
Format : UTF-8
Codec ID : S_TEXT/UTF8
Codec ID/Info : UTF-8 Plain Text
Duration : 49 min 53 s
Bit rate : 89 b/s
Count of elements : 554
Stream size : 32.8 KiB (0%)
Language : Arabic
Default : No
Forced : No

Text #5
ID : 7
Format : UTF-8
Codec ID : S_TEXT/UTF8
Codec ID/Info : UTF-8 Plain Text
Duration : 49 min 53 s
Bit rate : 46 b/s
Count of elements : 553
Stream size : 17.0 KiB (0%)
Language : Danish
Default : No
Forced : No

Text #6
ID : 8
Format : UTF-8
Codec ID : S_TEXT/UTF8
Codec ID/Info : UTF-8 Plain Text
Duration : 49 min 53 s
Bit rate : 54 b/s
Count of elements : 555
Stream size : 19.9 KiB (0%)
Language : German
Default : No
Forced : No

Text #7
ID : 9
Format : UTF-8
Codec ID : S_TEXT/UTF8
Codec ID/Info : UTF-8 Plain Text
Duration : 49 min 53 s
Bit rate : 53 b/s
Count of elements : 546
Stream size : 19.4 KiB (0%)
Language : Spanish
Default : No
Forced : No

Text #8
ID : 10
Format : UTF-8
Codec ID : S_TEXT/UTF8
Codec ID/Info : UTF-8 Plain Text
Duration : 49 min 54 s
Bit rate : 49 b/s
Count of elements : 574
Stream size : 18.1 KiB (0%)
Title : European
Language : Spanish
Default : No
Forced : No

Text #9
ID : 11
Format : UTF-8
Codec ID : S_TEXT/UTF8
Codec ID/Info : UTF-8 Plain Text
Duration : 49 min 53 s
Bit rate : 50 b/s
Count of elements : 421
Stream size : 18.4 KiB (0%)
Language : Finnish
Default : No
Forced : No

Text #10
ID : 12
Format : UTF-8
Codec ID : S_TEXT/UTF8
Codec ID/Info : UTF-8 Plain Text
Duration : 49 min 53 s
Bit rate : 46 b/s
Count of elements : 575
Stream size : 16.9 KiB (0%)
Language : French
Default : No
Forced : No

Text #11
ID : 13
Format : UTF-8
Codec ID : S_TEXT/UTF8
Codec ID/Info : UTF-8 Plain Text
Duration : 49 min 53 s
Bit rate : 54 b/s
Count of elements : 540
Stream size : 19.8 KiB (0%)
Language : Icelandic
Default : No
Forced : No

Text #12
ID : 14
Format : UTF-8
Codec ID : S_TEXT/UTF8
Codec ID/Info : UTF-8 Plain Text
Duration : 49 min 53 s
Bit rate : 54 b/s
Count of elements : 553
Stream size : 19.8 KiB (0%)
Language : Italian
Default : No
Forced : No

Text #13
ID : 15
Format : UTF-8
Codec ID : S_TEXT/UTF8
Codec ID/Info : UTF-8 Plain Text
Duration : 49 min 44 s
Bit rate : 48 b/s
Count of elements : 573
Stream size : 17.8 KiB (0%)
Language : Japanese
Default : No
Forced : No

Text #14
ID : 16
Format : UTF-8
Codec ID : S_TEXT/UTF8
Codec ID/Info : UTF-8 Plain Text
Duration : 49 min 53 s
Bit rate : 69 b/s
Count of elements : 554
Stream size : 25.5 KiB (0%)
Language : Korean
Default : No
Forced : No

Text #15
ID : 17
Format : UTF-8
Codec ID : S_TEXT/UTF8
Codec ID/Info : UTF-8 Plain Text
Duration : 49 min 53 s
Bit rate : 43 b/s
Count of elements : 549
Stream size : 16.0 KiB (0%)
Language : Norwegian Bokmal
Default : No
Forced : No

Text #16
ID : 18
Format : UTF-8
Codec ID : S_TEXT/UTF8
Codec ID/Info : UTF-8 Plain Text
Duration : 49 min 53 s
Bit rate : 50 b/s
Count of elements : 521
Stream size : 18.5 KiB (0%)
Language : Dutch
Default : No
Forced : No

Text #17
ID : 19
Format : UTF-8
Codec ID : S_TEXT/UTF8
Codec ID/Info : UTF-8 Plain Text
Duration : 49 min 53 s
Bit rate : 54 b/s
Count of elements : 553
Stream size : 19.8 KiB (0%)
Language : Portuguese
Default : No
Forced : No

Text #18
ID : 20
Format : UTF-8
Codec ID : S_TEXT/UTF8
Codec ID/Info : UTF-8 Plain Text
Duration : 49 min 53 s
Bit rate : 52 b/s
Count of elements : 554
Stream size : 19.1 KiB (0%)
Title : Brazilian
Language : Portuguese
Default : No
Forced : No

Text #19
ID : 21
Format : UTF-8
Codec ID : S_TEXT/UTF8
Codec ID/Info : UTF-8 Plain Text
Duration : 49 min 53 s
Bit rate : 48 b/s
Count of elements : 549
Stream size : 17.8 KiB (0%)
Language : Swedish
Default : No
Forced : No

Text #20
ID : 22
Format : UTF-8
Codec ID : S_TEXT/UTF8
Codec ID/Info : UTF-8 Plain Text
Duration : 49 min 53 s
Bit rate : 56 b/s
Count of elements : 554
Stream size : 20.6 KiB (0%)
Title : Simplified
Language : Chinese
Default : No
Forced : No

Text #21
ID : 23
Format : UTF-8
Codec ID : S_TEXT/UTF8
Codec ID/Info : UTF-8 Plain Text
Duration : 49 min 53 s
Bit rate : 51 b/s
Count of elements : 554
Stream size : 18.7 KiB (0%)
Title : Traditional
Language : Chinese
Default : No
Forced : No

Download

Direct download files get automatically deleted after a month or so. Posted on : 03/17/2020

[collapse]
Media Info and Download Links | S05E04

General
Format : Matroska
Format version : Version 4
File size : 190 MiB
Duration : 46 min 41 s
Overall bit rate : 570 kb/s
Movie name : Better.Call.Saul.S05E04.Namaste.720p.10bit.WEBRip.2CH.x265.HEVC

Video
ID : 1
Format : HEVC
Format/Info : High Efficiency Video Coding
Format profile : Main [email protected]@Main
Codec ID : V_MPEGH/ISO/HEVC
Duration : 46 min 41 s
Bit rate : 499 kb/s
Width : 1 280 pixels
Height : 720 pixels
Display aspect ratio : 16:9
Frame rate mode : Constant
Frame rate : 23.976 (24000/1001) FPS
Color space : YUV
Chroma subsampling : 4:2:0
Bit depth : 10 bits
Bits/(Pixel*Frame) : 0.023
Stream size : 167 MiB (88%)
Default : Yes
Forced : No

Audio
ID : 2
Format : AAC LC SBR
Commercial name : HE-AAC
Format settings : Explicit
Codec ID : A_AAC-2
Duration : 46 min 41 s
Bit rate : 66.2 kb/s
Channel(s) : 2 channels
Channel layout : L R
Sampling rate : 48.0 kHz
Frame rate : 23.438 FPS (2048 SPF)
Compression mode : Lossy
Delay relative to video : 23 ms
Stream size : 22.2 MiB (12%)
Language : English
Default : Yes
Forced : No

Text #1
ID : 3
Format : UTF-8
Codec ID : S_TEXT/UTF8
Codec ID/Info : UTF-8 Plain Text
Duration : 43 min 20 s
Bit rate : 60 b/s
Count of elements : 470
Stream size : 19.3 KiB (0%)
Language : English
Default : Yes
Forced : No

Text #2
ID : 4
Format : UTF-8
Codec ID : S_TEXT/UTF8
Codec ID/Info : UTF-8 Plain Text
Duration : 2 s 419 ms
Bit rate : 76 b/s
Count of elements : 1
Stream size : 23.0 Bytes (0%)
Title : Forced
Language : English
Default : No
Forced : Yes

Text #3
ID : 5
Format : UTF-8
Codec ID : S_TEXT/UTF8
Codec ID/Info : UTF-8 Plain Text
Duration : 45 min 7 s
Bit rate : 60 b/s
Count of elements : 519
Stream size : 20.1 KiB (0%)
Title : SDH
Language : English
Default : No
Forced : No

Text #4
ID : 6
Format : UTF-8
Codec ID : S_TEXT/UTF8
Codec ID/Info : UTF-8 Plain Text
Duration : 45 min 43 s
Bit rate : 94 b/s
Count of elements : 471
Stream size : 31.8 KiB (0%)
Language : Arabic
Default : No
Forced : No

Text #5
ID : 7
Format : UTF-8
Codec ID : S_TEXT/UTF8
Codec ID/Info : UTF-8 Plain Text
Duration : 45 min 43 s
Bit rate : 45 b/s
Count of elements : 470
Stream size : 15.4 KiB (0%)
Language : Danish
Default : No
Forced : No

Text #6
ID : 8
Format : UTF-8
Codec ID : S_TEXT/UTF8
Codec ID/Info : UTF-8 Plain Text
Duration : 45 min 43 s
Bit rate : 55 b/s
Count of elements : 471
Stream size : 18.4 KiB (0%)
Language : German
Default : No
Forced : No

Text #7
ID : 9
Format : UTF-8
Codec ID : S_TEXT/UTF8
Codec ID/Info : UTF-8 Plain Text
Duration : 45 min 43 s
Bit rate : 55 b/s
Count of elements : 474
Stream size : 18.6 KiB (0%)
Language : Spanish
Default : No
Forced : No

Text #8
ID : 10
Format : UTF-8
Codec ID : S_TEXT/UTF8
Codec ID/Info : UTF-8 Plain Text
Duration : 45 min 43 s
Bit rate : 51 b/s
Count of elements : 514
Stream size : 17.2 KiB (0%)
Title : European
Language : Spanish
Default : No
Forced : No

Text #9
ID : 11
Format : UTF-8
Codec ID : S_TEXT/UTF8
Codec ID/Info : UTF-8 Plain Text
Duration : 45 min 43 s
Bit rate : 51 b/s
Count of elements : 358
Stream size : 17.1 KiB (0%)
Language : Finnish
Default : No
Forced : No

Text #10
ID : 12
Format : UTF-8
Codec ID : S_TEXT/UTF8
Codec ID/Info : UTF-8 Plain Text
Duration : 45 min 43 s
Bit rate : 44 b/s
Count of elements : 463
Stream size : 15.0 KiB (0%)
Language : French
Default : No
Forced : No

Text #11
ID : 13
Format : UTF-8
Codec ID : S_TEXT/UTF8
Codec ID/Info : UTF-8 Plain Text
Duration : 45 min 43 s
Bit rate : 54 b/s
Count of elements : 455
Stream size : 18.1 KiB (0%)
Language : Icelandic
Default : No
Forced : No

Text #12
ID : 14
Format : UTF-8
Codec ID : S_TEXT/UTF8
Codec ID/Info : UTF-8 Plain Text
Duration : 45 min 43 s
Bit rate : 54 b/s
Count of elements : 469
Stream size : 18.2 KiB (0%)
Language : Italian
Default : No
Forced : No

Text #13
ID : 15
Format : UTF-8
Codec ID : S_TEXT/UTF8
Codec ID/Info : UTF-8 Plain Text
Duration : 45 min 34 s
Bit rate : 45 b/s
Count of elements : 472
Stream size : 15.3 KiB (0%)
Language : Japanese
Default : No
Forced : No

Text #14
ID : 16
Format : UTF-8
Codec ID : S_TEXT/UTF8
Codec ID/Info : UTF-8 Plain Text
Duration : 45 min 43 s
Bit rate : 67 b/s
Count of elements : 471
Stream size : 22.6 KiB (0%)
Language : Korean
Default : No
Forced : No

Text #15
ID : 17
Format : UTF-8
Codec ID : S_TEXT/UTF8
Codec ID/Info : UTF-8 Plain Text
Duration : 45 min 43 s
Bit rate : 45 b/s
Count of elements : 464
Stream size : 15.2 KiB (0%)
Language : Norwegian Bokmal
Default : No
Forced : No

Text #16
ID : 18
Format : UTF-8
Codec ID : S_TEXT/UTF8
Codec ID/Info : UTF-8 Plain Text
Duration : 45 min 43 s
Bit rate : 51 b/s
Count of elements : 437
Stream size : 17.2 KiB (0%)
Language : Dutch
Default : No
Forced : No

Text #17
ID : 19
Format : UTF-8
Codec ID : S_TEXT/UTF8
Codec ID/Info : UTF-8 Plain Text
Duration : 45 min 43 s
Bit rate : 53 b/s
Count of elements : 470
Stream size : 18.0 KiB (0%)
Language : Portuguese
Default : No
Forced : No

Text #18
ID : 20
Format : UTF-8
Codec ID : S_TEXT/UTF8
Codec ID/Info : UTF-8 Plain Text
Duration : 45 min 43 s
Bit rate : 53 b/s
Count of elements : 477
Stream size : 17.9 KiB (0%)
Title : Brazilian
Language : Portuguese
Default : No
Forced : No

Text #19
ID : 21
Format : UTF-8
Codec ID : S_TEXT/UTF8
Codec ID/Info : UTF-8 Plain Text
Duration : 45 min 43 s
Bit rate : 50 b/s
Count of elements : 454
Stream size : 16.9 KiB (0%)
Language : Swedish
Default : No
Forced : No

Text #20
ID : 22
Format : UTF-8
Codec ID : S_TEXT/UTF8
Codec ID/Info : UTF-8 Plain Text
Duration : 45 min 43 s
Bit rate : 58 b/s
Count of elements : 470
Stream size : 19.5 KiB (0%)
Title : Simplified
Language : Chinese
Default : No
Forced : No

Text #21
ID : 23
Format : UTF-8
Codec ID : S_TEXT/UTF8
Codec ID/Info : UTF-8 Plain Text
Duration : 45 min 43 s
Bit rate : 51 b/s
Count of elements : 471
Stream size : 17.4 KiB (0%)
Title : Traditional
Language : Chinese
Default : No
Forced : No

Download

Direct download files get automatically deleted after a month or so. Posted on : 03/10/2020

[collapse]
Media Info and Download Links | S05E03

General
Format : Matroska
Format version : Version 4
File size : 238 MiB
Duration : 54 min 43 s
Overall bit rate : 609 kb/s
Movie name : Better.Call.Saul.S05E03.The.Guy.for.This.INTERNAL.720p.10bit.WEBRip.2CH.x265.HEVC

Video
ID : 1
Format : HEVC
Format/Info : High Efficiency Video Coding
Format profile : Main [email protected]@Main
Codec ID : V_MPEGH/ISO/HEVC
Duration : 54 min 43 s
Bit rate : 539 kb/s
Width : 1 280 pixels
Height : 720 pixels
Display aspect ratio : 16:9
Frame rate mode : Constant
Frame rate : 23.976 (24000/1001) FPS
Color space : YUV
Chroma subsampling : 4:2:0
Bit depth : 10 bits
Bits/(Pixel*Frame) : 0.024
Stream size : 211 MiB (88%)
Default : Yes
Forced : No

Audio
ID : 2
Format : AAC LC SBR
Commercial name : HE-AAC
Format settings : Explicit
Codec ID : A_AAC-2
Duration : 54 min 43 s
Bit rate : 68.2 kb/s
Channel(s) : 2 channels
Channel layout : L R
Sampling rate : 48.0 kHz
Frame rate : 23.438 FPS (2048 SPF)
Compression mode : Lossy
Delay relative to video : 23 ms
Stream size : 26.7 MiB (11%)
Language : English
Default : Yes
Forced : No

Text
ID : 3
Format : UTF-8
Codec ID : S_TEXT/UTF8
Codec ID/Info : UTF-8 Plain Text
Duration : 53 min 22 s
Bit rate : 54 b/s
Count of elements : 660
Stream size : 21.5 KiB (0%)
Language : English
Default : Yes
Forced : No

Download

Direct download files get automatically deleted after a month or so. Posted on : 03/03/2020

[collapse]
Media Info and Download Links | S05E02

General
Format : Matroska
Format version : Version 4
File size : 225 MiB
Duration : 45 min 41 s
Overall bit rate : 689 kb/s
Movie name : Better.Call.Saul.S05E02.50.Off.720p.10bit.WEBRip.2CH.x265.HEVC

Video
ID : 1
Format : HEVC
Format/Info : High Efficiency Video Coding
Format profile : Main [email protected]@Main
Codec ID : V_MPEGH/ISO/HEVC
Duration : 45 min 41 s
Bit rate : 618 kb/s
Width : 1 280 pixels
Height : 720 pixels
Display aspect ratio : 16:9
Frame rate mode : Constant
Frame rate : 23.976 (24000/1001) FPS
Color space : YUV
Chroma subsampling : 4:2:0
Bit depth : 10 bits
Bits/(Pixel*Frame) : 0.028
Stream size : 202 MiB (90%)
Default : Yes
Forced : No

Audio
ID : 2
Format : AAC LC SBR
Commercial name : HE-AAC
Format settings : Explicit
Codec ID : A_AAC-2
Duration : 45 min 41 s
Bit rate : 67.9 kb/s
Channel(s) : 2 channels
Channel layout : L R
Sampling rate : 48.0 kHz
Frame rate : 23.438 FPS (2048 SPF)
Compression mode : Lossy
Delay relative to video : 23 ms
Stream size : 22.2 MiB (10%)
Language : English
Default : Yes
Forced : No

Text #1
ID : 3
Format : UTF-8
Codec ID : S_TEXT/UTF8
Codec ID/Info : UTF-8 Plain Text
Duration : 44 min 36 s
Bit rate : 54 b/s
Count of elements : 643
Stream size : 17.9 KiB (0%)
Title : English
Language : English
Default : Yes
Forced : No

Text #2
ID : 4
Format : UTF-8
Codec ID : S_TEXT/UTF8
Codec ID/Info : UTF-8 Plain Text
Duration : 20 min 28 s
Bit rate : 4 b/s
Count of elements : 31
Stream size : 683 Bytes (0%)
Title : Forced
Language : English
Default : No
Forced : Yes

Text #3
ID : 5
Format : UTF-8
Codec ID : S_TEXT/UTF8
Codec ID/Info : UTF-8 Plain Text
Duration : 45 min 13 s
Bit rate : 41 b/s
Count of elements : 568
Stream size : 13.8 KiB (0%)
Title : Norwegian
Language : Norwegian
Default : No
Forced : No

Text #4
ID : 6
Format : UTF-8
Codec ID : S_TEXT/UTF8
Codec ID/Info : UTF-8 Plain Text
Duration : 45 min 13 s
Bit rate : 40 b/s
Count of elements : 538
Stream size : 13.5 KiB (0%)
Title : French
Language : French
Default : No
Forced : No

Text #5
ID : 7
Format : UTF-8
Codec ID : S_TEXT/UTF8
Codec ID/Info : UTF-8 Plain Text
Duration : 45 min 13 s
Bit rate : 41 b/s
Count of elements : 571
Stream size : 13.7 KiB (0%)
Title : Danish
Language : Danish
Default : No
Forced : No

Text #6
ID : 8
Format : UTF-8
Codec ID : S_TEXT/UTF8
Codec ID/Info : UTF-8 Plain Text
Duration : 45 min 13 s
Bit rate : 46 b/s
Count of elements : 394
Stream size : 15.3 KiB (0%)
Title : Finnish
Language : Finnish
Default : No
Forced : No

Text #7
ID : 9
Format : UTF-8
Codec ID : S_TEXT/UTF8
Codec ID/Info : UTF-8 Plain Text
Duration : 45 min 13 s
Bit rate : 44 b/s
Count of elements : 561
Stream size : 14.7 KiB (0%)
Title : Swedish
Language : Swedish
Default : No
Forced : No

Text #8
ID : 10
Format : UTF-8
Codec ID : S_TEXT/UTF8
Codec ID/Info : UTF-8 Plain Text
Duration : 45 min 13 s
Bit rate : 47 b/s
Count of elements : 567
Stream size : 15.8 KiB (0%)
Title : Brazilian Portuguese
Language : Portuguese
Default : No
Forced : No

Text #9
ID : 11
Format : UTF-8
Codec ID : S_TEXT/UTF8
Codec ID/Info : UTF-8 Plain Text
Duration : 45 min 13 s
Bit rate : 48 b/s
Count of elements : 571
Stream size : 16.1 KiB (0%)
Title : German
Language : German
Default : No
Forced : No

Text #10
ID : 12
Format : UTF-8
Codec ID : S_TEXT/UTF8
Codec ID/Info : UTF-8 Plain Text
Duration : 45 min 13 s
Bit rate : 44 b/s
Count of elements : 518
Stream size : 14.7 KiB (0%)
Title : European Spanish
Language : Spanish
Default : No
Forced : No

Text #11
ID : 13
Format : UTF-8
Codec ID : S_TEXT/UTF8
Codec ID/Info : UTF-8 Plain Text
Duration : 45 min 13 s
Bit rate : 47 b/s
Count of elements : 572
Stream size : 15.6 KiB (0%)
Title : Italian
Language : Italian
Default : No
Forced : No

Text #12
ID : 14
Format : UTF-8
Codec ID : S_TEXT/UTF8
Codec ID/Info : UTF-8 Plain Text
Duration : 45 min 13 s
Bit rate : 45 b/s
Count of elements : 539
Stream size : 15.1 KiB (0%)
Title : Dutch
Language : Dutch
Default : No
Forced : No

Text #13
ID : 15
Format : UTF-8
Codec ID : S_TEXT/UTF8
Codec ID/Info : UTF-8 Plain Text
Duration : 45 min 13 s
Bit rate : 48 b/s
Count of elements : 571
Stream size : 16.1 KiB (0%)
Title : Portuguese
Language : Portuguese
Default : No
Forced : No

Text #14
ID : 16
Format : UTF-8
Codec ID : S_TEXT/UTF8
Codec ID/Info : UTF-8 Plain Text
Duration : 45 min 13 s
Bit rate : 48 b/s
Count of elements : 571
Stream size : 16.2 KiB (0%)
Title : Spanish
Language : Spanish
Default : No
Forced : No

Download

Direct download files get automatically deleted after a month or so. Posted on : 02/25/2020

[collapse]
Media Info and Download Links | S05E01

General
Format : Matroska
Format version : Version 4
File size : 241 MiB
Duration : 54 min 21 s
Overall bit rate : 621 kb/s
Movie name : Better.Call.Saul.S05E01.Magic.Man.720p.10bit.WEBRip.2CH.x265.HEVC

Video
ID : 1
Format : HEVC
Format/Info : High Efficiency Video Coding
Format profile : Main [email protected]@Main
Codec ID : V_MPEGH/ISO/HEVC
Duration : 54 min 21 s
Bit rate : 551 kb/s
Width : 1 280 pixels
Height : 720 pixels
Display aspect ratio : 16:9
Frame rate mode : Constant
Frame rate : 23.976 (24000/1001) FPS
Color space : YUV
Chroma subsampling : 4:2:0
Bit depth : 10 bits
Bits/(Pixel*Frame) : 0.025
Stream size : 214 MiB (89%)
Default : Yes
Forced : No
Color range : Limited
Color primaries : BT.709
Transfer characteristics : BT.709
Matrix coefficients : BT.709

Audio
ID : 2
Format : AAC LC SBR
Commercial name : HE-AAC
Format settings : Explicit
Codec ID : A_AAC-2
Duration : 54 min 21 s
Bit rate : 66.2 kb/s
Channel(s) : 2 channels
Channel layout : L R
Sampling rate : 48.0 kHz
Frame rate : 23.438 FPS (2048 SPF)
Compression mode : Lossy
Delay relative to video : 23 ms
Stream size : 26.2 MiB (11%)
Language : English
Default : Yes
Forced : No

Text
ID : 3
Format : UTF-8
Codec ID : S_TEXT/UTF8
Codec ID/Info : UTF-8 Plain Text
Duration : 53 min 19 s
Bit rate : 65 b/s
Count of elements : 917
Stream size : 25.4 KiB (0%)
Language : English
Default : Yes
Forced : No

Download

Direct download files get automatically deleted after a month or so. Posted on : 02/24/2020

[collapse]

Media Info and Download Links | S04E10

General
Format : Matroska
Format version : Version 4
File size : 315 MiB
Duration : 1 h 0 min
Overall bit rate : 726 kb/s
Movie name : Better.Call.Saul.S04E10.Winner.720p.10bit.WEBRip.2CH.x265.HEVC
Encoded date : UTC 2018-10-09 11:37:30
Writing application : mkvmerge v27.0.0 (‘Metropolis’) 32-bit
Writing library : libebml v1.3.6 + libmatroska v1.4.9

Video
ID : 1
Format : HEVC
Format/Info : High Efficiency Video Coding
Format profile : Main [email protected]@Main
Codec ID : V_MPEGH/ISO/HEVC
Duration : 1 h 0 min
Bit rate : 661 kb/s
Width : 1 280 pixels
Height : 720 pixels
Display aspect ratio : 16:9
Frame rate mode : Constant
Frame rate : 23.976 (24000/1001) FPS
Color space : YUV
Chroma subsampling : 4:2:0
Bit depth : 10 bits
Bits/(Pixel*Frame) : 0.030
Stream size : 287 MiB (91%)
Default : Yes
Forced : No

Audio
ID : 2
Format : AAC LC SBR
Commercial name : HE-AAC
Format settings : Explicit
Codec ID : A_AAC-2
Duration : 1 h 0 min
Bit rate : 63.0 kb/s
Channel(s) : 2 channels
Channel layout : L R
Sampling rate : 48.0 kHz
Frame rate : 23.438 FPS (2048 SPF)
Compression mode : Lossy
Delay relative to video : 23 ms
Stream size : 27.3 MiB (9%)
Language : English
Default : Yes
Forced : No

Text #1
ID : 3
Format : UTF-8
Codec ID : S_TEXT/UTF8
Codec ID/Info : UTF-8 Plain Text
Duration : 59 min 14 s
Bit rate : 59 b/s
Count of elements : 802
Stream size : 26.0 KiB (0%)
Title : English
Language : English
Default : Yes
Forced : No

Text #2
ID : 4
Format : UTF-8
Codec ID : S_TEXT/UTF8
Codec ID/Info : UTF-8 Plain Text
Duration : 10 min 16 s
Bit rate : 7 b/s
Count of elements : 21
Stream size : 608 Bytes (0%)
Title : Forced
Language : English
Default : No
Forced : Yes

Text #3
ID : 5
Format : UTF-8
Codec ID : S_TEXT/UTF8
Codec ID/Info : UTF-8 Plain Text
Duration : 1 h 0 min
Bit rate : 54 b/s
Count of elements : 785
Stream size : 24.2 KiB (0%)
Title : Swedish
Language : Swedish
Default : No
Forced : No

Text #4
ID : 6
Format : UTF-8
Codec ID : S_TEXT/UTF8
Codec ID/Info : UTF-8 Plain Text
Duration : 1 h 0 min
Bit rate : 50 b/s
Count of elements : 795
Stream size : 22.3 KiB (0%)
Title : Norwegian
Language : Norwegian
Default : No
Forced : No

Text #5
ID : 7
Format : UTF-8
Codec ID : S_TEXT/UTF8
Codec ID/Info : UTF-8 Plain Text
Duration : 59 min 55 s
Bit rate : 46 b/s
Count of elements : 762
Stream size : 20.5 KiB (0%)
Title : Danish
Language : Danish
Default : No
Forced : No

Text #6
ID : 8
Format : UTF-8
Codec ID : S_TEXT/UTF8
Codec ID/Info : UTF-8 Plain Text
Duration : 1 h 0 min
Bit rate : 49 b/s
Count of elements : 649
Stream size : 21.7 KiB (0%)
Title : Finnish
Language : Finnish
Default : No
Forced : No

Download

Direct download files get automatically deleted after a month or so. Posted on : 10/09/2018

[collapse]
Media Info and Download Links | S04E09

General
Format : Matroska
Format version : Version 4
File size : 222 MiB
Duration : 55 min 31 s
Overall bit rate : 560 kb/s
Movie name : Better.Call.Saul.S04E09.Wiedersehen.720p.10bit.WEBRip.2CH.x265.HEVC
Encoded date : UTC 2018-10-02 10:24:57
Writing application : mkvmerge v27.0.0 (‘Metropolis’) 32-bit
Writing library : libebml v1.3.6 + libmatroska v1.4.9

Video
ID : 1
Format : HEVC
Format/Info : High Efficiency Video Coding
Format profile : Main [email protected]@Main
Codec ID : V_MPEGH/ISO/HEVC
Duration : 55 min 31 s
Bit rate : 495 kb/s
Width : 1 280 pixels
Height : 720 pixels
Display aspect ratio : 16:9
Frame rate mode : Constant
Frame rate : 23.976 (24000/1001) FPS
Color space : YUV
Chroma subsampling : 4:2:0
Bit depth : 10 bits
Bits/(Pixel*Frame) : 0.022
Stream size : 197 MiB (88%)
Default : Yes
Forced : No

Audio
ID : 2
Format : AAC LC SBR
Commercial name : HE-AAC
Format settings : Explicit
Codec ID : A_AAC-2
Duration : 55 min 31 s
Bit rate : 62.2 kb/s
Channel(s) : 2 channels
Channel layout : L R
Sampling rate : 48.0 kHz
Frame rate : 23.438 FPS (2048 SPF)
Compression mode : Lossy
Delay relative to video : 23 ms
Stream size : 24.7 MiB (11%)
Language : English
Default : Yes
Forced : No

Text #1
ID : 3
Format : UTF-8
Codec ID : S_TEXT/UTF8
Codec ID/Info : UTF-8 Plain Text
Duration : 52 min 19 s
Bit rate : 58 b/s
Count of elements : 645
Stream size : 22.3 KiB (0%)
Title : English
Language : English
Default : Yes
Forced : No

Text #2
ID : 4
Format : UTF-8
Codec ID : S_TEXT/UTF8
Codec ID/Info : UTF-8 Plain Text
Duration : 23 min 1 s
Bit rate : 9 b/s
Count of elements : 56
Stream size : 1.62 KiB (0%)
Title : Forced
Language : English
Default : No
Forced : Yes

Text #3
ID : 5
Format : UTF-8
Codec ID : S_TEXT/UTF8
Codec ID/Info : UTF-8 Plain Text
Duration : 54 min 52 s
Bit rate : 50 b/s
Count of elements : 632
Stream size : 20.4 KiB (0%)
Title : Swedish
Language : Swedish
Default : No
Forced : No

Text #4
ID : 6
Format : UTF-8
Codec ID : S_TEXT/UTF8
Codec ID/Info : UTF-8 Plain Text
Duration : 54 min 52 s
Bit rate : 46 b/s
Count of elements : 637
Stream size : 18.7 KiB (0%)
Title : Norwegian
Language : Norwegian
Default : No
Forced : No

Text #5
ID : 7
Format : UTF-8
Codec ID : S_TEXT/UTF8
Codec ID/Info : UTF-8 Plain Text
Duration : 54 min 52 s
Bit rate : 43 b/s
Count of elements : 646
Stream size : 17.4 KiB (0%)
Title : Danish
Language : Danish
Default : No
Forced : No

Text #6
ID : 8
Format : UTF-8
Codec ID : S_TEXT/UTF8
Codec ID/Info : UTF-8 Plain Text
Duration : 54 min 52 s
Bit rate : 44 b/s
Count of elements : 530
Stream size : 18.0 KiB (0%)
Title : Finnish
Language : Finnish
Default : No
Forced : No

Download

Direct download files get automatically deleted after a month or so. Posted on : 10/02/2018

[collapse]
Media Info and Download Links | S04E08

General
Format : Matroska
Format version : Version 4
File size : 253 MiB
Duration : 53 min 1 s
Overall bit rate : 667 kb/s
Movie name : Better.Call.Saul.S04E08.Coushatta.720p.10bit.WEBRip.2CH.x265.HEVC
Encoded date : UTC 2018-09-25 13:23:37
Writing application : mkvmerge v26.0.0 (‘In The Game’) 32-bit
Writing library : libebml v1.3.6 + libmatroska v1.4.9

Video
ID : 1
Format : HEVC
Format/Info : High Efficiency Video Coding
Format profile : Main [email protected]@Main
Codec ID : V_MPEGH/ISO/HEVC
Duration : 53 min 1 s
Bit rate : 601 kb/s
Width : 1 280 pixels
Height : 720 pixels
Display aspect ratio : 16:9
Frame rate mode : Constant
Frame rate : 23.976 (24000/1001) FPS
Color space : YUV
Chroma subsampling : 4:2:0
Bit depth : 10 bits
Bits/(Pixel*Frame) : 0.027
Stream size : 228 MiB (90%)
Default : Yes
Forced : No

Audio
ID : 2
Format : AAC LC SBR
Commercial name : HE-AAC
Format settings : Explicit
Codec ID : A_AAC-2
Duration : 53 min 1 s
Bit rate : 63.7 kb/s
Channel(s) : 2 channels
Channel layout : L R
Sampling rate : 48.0 kHz
Frame rate : 23.438 FPS (2048 SPF)
Compression mode : Lossy
Delay relative to video : 23 ms
Stream size : 24.2 MiB (10%)
Language : English
Default : Yes
Forced : No

Text #1
ID : 3
Format : UTF-8
Codec ID : S_TEXT/UTF8
Codec ID/Info : UTF-8 Plain Text
Duration : 51 min 28 s
Bit rate : 53 b/s
Count of elements : 616
Stream size : 20.3 KiB (0%)
Language : English
Default : Yes
Forced : No

Text #2
ID : 4
Format : UTF-8
Codec ID : S_TEXT/UTF8
Codec ID/Info : UTF-8 Plain Text
Duration : 36 min 51 s
Bit rate : 1 b/s
Count of elements : 16
Stream size : 425 Bytes (0%)
Language : English
Default : No
Forced : Yes

Text #3
ID : 5
Format : UTF-8
Codec ID : S_TEXT/UTF8
Codec ID/Info : UTF-8 Plain Text
Duration : 51 min 28 s
Bit rate : 53 b/s
Count of elements : 616
Stream size : 20.3 KiB (0%)
Language : English
Default : No
Forced : No

Text #4
ID : 6
Format : UTF-8
Codec ID : S_TEXT/UTF8
Codec ID/Info : UTF-8 Plain Text
Duration : 52 min 24 s
Bit rate : 43 b/s
Count of elements : 624
Stream size : 16.6 KiB (0%)
Language : Danish
Default : No
Forced : No

Text #5
ID : 7
Format : UTF-8
Codec ID : S_TEXT/UTF8
Codec ID/Info : UTF-8 Plain Text
Duration : 52 min 24 s
Bit rate : 45 b/s
Count of elements : 500
Stream size : 17.4 KiB (0%)
Language : Finnish
Default : No
Forced : No

Text #6
ID : 8
Format : UTF-8
Codec ID : S_TEXT/UTF8
Codec ID/Info : UTF-8 Plain Text
Duration : 52 min 24 s
Bit rate : 45 b/s
Count of elements : 612
Stream size : 17.3 KiB (0%)
Language : Norwegian
Default : No
Forced : No

Text #7
ID : 9
Format : UTF-8
Codec ID : S_TEXT/UTF8
Codec ID/Info : UTF-8 Plain Text
Duration : 52 min 24 s
Bit rate : 48 b/s
Count of elements : 604
Stream size : 18.4 KiB (0%)
Language : Swedish
Default : No
Forced : No

Download

Direct download files get automatically deleted after a month or so. Posted on : 09/25/2018

[collapse]
Media Info and Download Links | S04E07

General
Format : Matroska
Format version : Version 4
File size : 233 MiB
Duration : 41 min 42 s
Overall bit rate : 779 kb/s
Movie name : Better.Call.Saul.S04E07.Something.Stupid.720p.10bit.WEBRip.2CH.x265.HEVC
Encoded date : UTC 2018-09-18 10:10:41
Writing application : mkvmerge v26.0.0 (‘In The Game’) 32-bit
Writing library : libebml v1.3.6 + libmatroska v1.4.9

Video
ID : 1
Format : HEVC
Format/Info : High Efficiency Video Coding
Format profile : Main [email protected]@Main
Codec ID : V_MPEGH/ISO/HEVC
Duration : 41 min 42 s
Bit rate : 713 kb/s
Width : 1 280 pixels
Height : 720 pixels
Display aspect ratio : 16:9
Frame rate mode : Constant
Frame rate : 23.976 (24000/1001) FPS
Color space : YUV
Chroma subsampling : 4:2:0
Bit depth : 10 bits
Bits/(Pixel*Frame) : 0.032
Stream size : 213 MiB (91%)
Default : Yes
Forced : No

Audio
ID : 2
Format : AAC LC SBR
Commercial name : HE-AAC
Format settings : Explicit
Codec ID : A_AAC-2
Duration : 41 min 42 s
Bit rate : 63.9 kb/s
Channel(s) : 2 channels
Channel layout : L R
Sampling rate : 48.0 kHz
Frame rate : 23.438 FPS (2048 SPF)
Compression mode : Lossy
Delay relative to video : 23 ms
Stream size : 19.1 MiB (8%)
Language : English
Default : Yes
Forced : No

Text #1
ID : 3
Format : UTF-8
Codec ID : S_TEXT/UTF8
Codec ID/Info : UTF-8 Plain Text
Duration : 39 min 40 s
Bit rate : 54 b/s
Count of elements : 457
Stream size : 15.8 KiB (0%)
Language : English
Default : Yes
Forced : No

Text #2
ID : 4
Format : UTF-8
Codec ID : S_TEXT/UTF8
Codec ID/Info : UTF-8 Plain Text
Duration : 20 min 32 s
Bit rate : 3 b/s
Count of elements : 20
Stream size : 506 Bytes (0%)
Title : Forced
Language : English
Default : No
Forced : Yes

Text #3
ID : 5
Format : UTF-8
Codec ID : S_TEXT/UTF8
Codec ID/Info : UTF-8 Plain Text
Duration : 39 min 40 s
Bit rate : 54 b/s
Count of elements : 457
Stream size : 15.8 KiB (0%)
Language : English
Default : No
Forced : No

Text #4
ID : 6
Format : UTF-8
Codec ID : S_TEXT/UTF8
Codec ID/Info : UTF-8 Plain Text
Duration : 40 min 26 s
Bit rate : 45 b/s
Count of elements : 481
Stream size : 13.4 KiB (0%)
Language : Danish
Default : No
Forced : No

Text #5
ID : 7
Format : UTF-8
Codec ID : S_TEXT/UTF8
Codec ID/Info : UTF-8 Plain Text
Duration : 40 min 26 s
Bit rate : 45 b/s
Count of elements : 396
Stream size : 13.3 KiB (0%)
Language : Finnish
Default : No
Forced : No

Text #6
ID : 8
Format : UTF-8
Codec ID : S_TEXT/UTF8
Codec ID/Info : UTF-8 Plain Text
Duration : 40 min 26 s
Bit rate : 48 b/s
Count of elements : 469
Stream size : 14.3 KiB (0%)
Language : Norwegian Bokmal
Default : No
Forced : No

Text #7
ID : 9
Format : UTF-8
Codec ID : S_TEXT/UTF8
Codec ID/Info : UTF-8 Plain Text
Duration : 40 min 26 s
Bit rate : 50 b/s
Count of elements : 470
Stream size : 14.9 KiB (0%)
Language : Swedish
Default : No
Forced : No

Download

Direct download files get automatically deleted after a month or so. Posted on : 09/18/2018

[collapse]
Media Info and Download Links | S04E06

General
Format : Matroska
Format version : Version 4
File size : 195 MiB
Duration : 47 min 43 s
Overall bit rate : 571 kb/s
Movie name : Better.Call.Saul.S04E06.Piñata.720p.10bit.WEBRip.2CH.x265.HEVC
Encoded date : UTC 2018-09-11 10:42:50
Writing application : mkvmerge v26.0.0 (‘In The Game’) 32-bit
Writing library : libebml v1.3.6 + libmatroska v1.4.9

Video
ID : 1
Format : HEVC
Format/Info : High Efficiency Video Coding
Format profile : Main [email protected]@Main
Codec ID : V_MPEGH/ISO/HEVC
Duration : 47 min 43 s
Bit rate : 507 kb/s
Width : 1 280 pixels
Height : 720 pixels
Display aspect ratio : 16:9
Frame rate mode : Constant
Frame rate : 23.976 (24000/1001) FPS
Color space : YUV
Chroma subsampling : 4:2:0
Bit depth : 10 bits
Bits/(Pixel*Frame) : 0.023
Stream size : 173 MiB (89%)
Default : Yes
Forced : No

Audio
ID : 2
Format : AAC LC SBR
Commercial name : HE-AAC
Format settings : Explicit
Codec ID : A_AAC-2
Duration : 47 min 43 s
Bit rate : 61.7 kb/s
Channel(s) : 2 channels
Channel layout : L R
Sampling rate : 48.0 kHz
Frame rate : 23.438 FPS (2048 SPF)
Compression mode : Lossy
Delay relative to video : 23 ms
Stream size : 21.1 MiB (11%)
Language : English
Default : Yes
Forced : No

Text #1
ID : 3
Format : UTF-8
Codec ID : S_TEXT/UTF8
Codec ID/Info : UTF-8 Plain Text
Duration : 46 min 12 s
Bit rate : 57 b/s
Count of elements : 590
Stream size : 19.6 KiB (0%)
Language : English
Default : Yes
Forced : No

Text #2
ID : 4
Format : UTF-8
Codec ID : S_TEXT/UTF8
Codec ID/Info : UTF-8 Plain Text
Duration : 47 min 4 s
Bit rate : 51 b/s
Count of elements : 572
Stream size : 17.8 KiB (0%)
Language : Italian
Default : No
Forced : No

Text #3
ID : 5
Format : UTF-8
Codec ID : S_TEXT/UTF8
Codec ID/Info : UTF-8 Plain Text
Duration : 47 min 4 s
Bit rate : 49 b/s
Count of elements : 590
Stream size : 17.1 KiB (0%)
Language : Norwegian
Default : No
Forced : No

Text #4
ID : 6
Format : UTF-8
Codec ID : S_TEXT/UTF8
Codec ID/Info : UTF-8 Plain Text
Duration : 47 min 4 s
Bit rate : 47 b/s
Count of elements : 595
Stream size : 16.4 KiB (0%)
Language : Danish
Default : No
Forced : No

Text #5
ID : 7
Format : UTF-8
Codec ID : S_TEXT/UTF8
Codec ID/Info : UTF-8 Plain Text
Duration : 47 min 4 s
Bit rate : 48 b/s
Count of elements : 490
Stream size : 16.6 KiB (0%)
Language : Finnish
Default : No
Forced : No

Download

Direct download files get automatically deleted after a month or so. Posted on : 09/11/2018

[collapse]
Media Info and Download Links | S04E05

General
Format : Matroska
Format version : Version 4
File size : 256 MiB
Duration : 52 min 55 s
Overall bit rate : 677 kb/s
Movie name : Better.Call.Saul.S04E05.Quite.a.Ride.720p.10bit.WEBRip.2CH.x265.HEVC
Encoded date : UTC 2018-09-04 09:55:18
Writing application : mkvmerge v26.0.0 (‘In The Game’) 32-bit
Writing library : libebml v1.3.6 + libmatroska v1.4.9

Video
ID : 1
Format : HEVC
Format/Info : High Efficiency Video Coding
Format profile : Main [email protected]@Main
Codec ID : V_MPEGH/ISO/HEVC
Duration : 52 min 55 s
Bit rate : 614 kb/s
Width : 1 280 pixels
Height : 720 pixels
Display aspect ratio : 16:9
Frame rate mode : Constant
Frame rate : 23.976 (24000/1001) FPS
Color space : YUV
Chroma subsampling : 4:2:0
Bit depth : 10 bits
Bits/(Pixel*Frame) : 0.028
Stream size : 232 MiB (91%)
Default : Yes
Forced : No

Audio
ID : 2
Format : AAC LC SBR
Commercial name : HE-AAC
Format settings : Explicit
Codec ID : A_AAC-2
Duration : 52 min 55 s
Bit rate : 61.6 kb/s
Channel(s) : 2 channels
Channel layout : L R
Sampling rate : 48.0 kHz
Frame rate : 23.438 FPS (2048 SPF)
Compression mode : Lossy
Delay relative to video : 23 ms
Stream size : 23.3 MiB (9%)
Language : English
Default : Yes
Forced : No

Text #1
ID : 3
Format : UTF-8
Codec ID : S_TEXT/UTF8
Codec ID/Info : UTF-8 Plain Text
Duration : 51 min 20 s
Bit rate : 40 b/s
Count of elements : 502
Stream size : 15.0 KiB (0%)
Title : English
Language : English
Default : Yes
Forced : No

Text #2
ID : 4
Format : UTF-8
Codec ID : S_TEXT/UTF8
Codec ID/Info : UTF-8 Plain Text
Duration : 1 s 877 ms
Bit rate : 161 b/s
Count of elements : 1
Stream size : 38.0 Bytes (0%)
Title : Forced
Language : English
Default : No
Forced : Yes

Text #3
ID : 5
Format : UTF-8
Codec ID : S_TEXT/UTF8
Codec ID/Info : UTF-8 Plain Text
Duration : 52 min 8 s
Bit rate : 36 b/s
Count of elements : 500
Stream size : 13.9 KiB (0%)
Title : Swedish
Language : Swedish
Default : No
Forced : No

Text #4
ID : 6
Format : UTF-8
Codec ID : S_TEXT/UTF8
Codec ID/Info : UTF-8 Plain Text
Duration : 52 min 8 s
Bit rate : 35 b/s
Count of elements : 502
Stream size : 13.4 KiB (0%)
Title : Norwegian
Language : Norwegian
Default : No
Forced : No

Text #5
ID : 7
Format : UTF-8
Codec ID : S_TEXT/UTF8
Codec ID/Info : UTF-8 Plain Text
Duration : 52 min 11 s
Bit rate : 34 b/s
Count of elements : 512
Stream size : 13.0 KiB (0%)
Title : Danish
Language : Danish
Default : No
Forced : No

Text #6
ID : 8
Format : UTF-8
Codec ID : S_TEXT/UTF8
Codec ID/Info : UTF-8 Plain Text
Duration : 52 min 8 s
Bit rate : 33 b/s
Count of elements : 437
Stream size : 13.0 KiB (0%)
Title : Finnish
Language : Finnish
Default : No
Forced : No

Download

Direct download files get automatically deleted after a month or so. Posted on : 09/04/2018

[collapse]
Media Info and Download Links | S04E04

General
Format : Matroska
Format version : Version 4 / Version 2
File size : 228 MiB
Duration : 45 min 55 s
Overall bit rate : 694 kb/s
Movie name : Better.Call.Saul.S04E04.720p.HDTV.2CH.x265.HEVC
Encoded date : UTC 2018-08-28 08:56:32
Writing application : mkvmerge v26.0.0 (‘In The Game’) 32-bit
Writing library : libebml v1.3.6 + libmatroska v1.4.9

Video
ID : 1
Format : HEVC
Format/Info : High Efficiency Video Coding
Format profile : [email protected]@Main
Codec ID : V_MPEGH/ISO/HEVC
Duration : 45 min 55 s
Bit rate : 628 kb/s
Width : 1 280 pixels
Height : 720 pixels
Display aspect ratio : 16:9
Frame rate mode : Constant
Frame rate : 23.976 (24000/1001) FPS
Color space : YUV
Chroma subsampling : 4:2:0
Bit depth : 8 bits
Bits/(Pixel*Frame) : 0.028
Stream size : 206 MiB (90%)
Default : Yes
Forced : No

Audio
ID : 2
Format : AAC
Format/Info : Advanced Audio Codec
Format profile : HE-AAC / LC
Format settings : Explicit
Codec ID : A_AAC-2
Duration : 45 min 55 s
Bit rate : 64.1 kb/s
Channel(s) : 2 channels
Channel positions : Front: L R
Sampling rate : 48.0 kHz / 24.0 kHz
Frame rate : 23.438 FPS (1024 SPF)
Compression mode : Lossy
Delay relative to video : 23 ms
Stream size : 21.1 MiB (9%)
Language : English
Default : Yes
Forced : No

Text
ID : 3
Format : UTF-8
Codec ID : S_TEXT/UTF8
Codec ID/Info : UTF-8 Plain Text
Duration : 45 min 47 s
Bit rate : 40 b/s
Count of elements : 487
Stream size : 13.6 KiB (0%)
Default : Yes
Forced : No

Download

Direct download files get automatically deleted after a month or so. Posted on : 08/28/2018

[collapse]
Media Info and Download Links | S04E03

General
Format : Matroska
Format version : Version 4 / Version 2
File size : 228 MiB
Duration : 40 min 49 s
Overall bit rate : 782 kb/s
Movie name : Better.Call.Saul.S04E03.720p.HDTV.2CH.x265.HEVC
Encoded date : UTC 2018-08-21 08:59:36
Writing application : mkvmerge v25.0.0 (‘Prog Noir’) 32-bit
Writing library : libebml v1.3.6 + libmatroska v1.4.9

Video
ID : 1
Format : HEVC
Format/Info : High Efficiency Video Coding
Format profile : [email protected]@Main
Codec ID : V_MPEGH/ISO/HEVC
Duration : 40 min 49 s
Bit rate : 717 kb/s
Width : 1 280 pixels
Height : 720 pixels
Display aspect ratio : 16:9
Frame rate mode : Constant
Frame rate : 23.976 (24000/1001) FPS
Color space : YUV
Chroma subsampling : 4:2:0
Bit depth : 8 bits
Bits/(Pixel*Frame) : 0.032
Stream size : 209 MiB (92%)
Default : Yes
Forced : No

Audio
ID : 2
Format : AAC
Format/Info : Advanced Audio Codec
Format profile : HE-AAC / LC
Format settings : Explicit
Codec ID : A_AAC-2
Duration : 40 min 49 s
Bit rate : 63.1 kb/s
Channel(s) : 2 channels
Channel positions : Front: L R
Sampling rate : 48.0 kHz / 24.0 kHz
Frame rate : 23.438 FPS (1024 SPF)
Compression mode : Lossy
Delay relative to video : 23 ms
Stream size : 18.4 MiB (8%)
Language : English
Default : Yes
Forced : No

Text
ID : 3
Format : UTF-8
Codec ID : S_TEXT/UTF8
Codec ID/Info : UTF-8 Plain Text
Duration : 34 min 46 s
Bit rate : 61 b/s
Count of elements : 431
Stream size : 15.8 KiB (0%)
Default : Yes
Forced : No

Download

Direct download files get automatically deleted after a month or so. Posted on : 08/21/2018

[collapse]
Media Info and Download Links | S04E02

General
Format : Matroska
Format version : Version 4 / Version 2
File size : 203 MiB
Duration : 45 min 38 s
Overall bit rate : 622 kb/s
Movie name : Better.Call.Saul.S04E02.720p.HDTV.2CH.x265.HEVC
Encoded date : UTC 2018-08-14 09:41:08
Writing application : mkvmerge v25.0.0 (‘Prog Noir’) 32-bit
Writing library : libebml v1.3.6 + libmatroska v1.4.9

Video
ID : 1
Format : HEVC
Format/Info : High Efficiency Video Coding
Format profile : [email protected]@Main
Codec ID : V_MPEGH/ISO/HEVC
Duration : 45 min 38 s
Bit rate : 560 kb/s
Width : 1 280 pixels
Height : 720 pixels
Display aspect ratio : 16:9
Frame rate mode : Constant
Frame rate : 23.976 (24000/1001) FPS
Color space : YUV
Chroma subsampling : 4:2:0
Bit depth : 8 bits
Bits/(Pixel*Frame) : 0.025
Stream size : 183 MiB (90%)
Default : Yes
Forced : No

Audio
ID : 2
Format : AAC
Format/Info : Advanced Audio Codec
Format profile : HE-AAC / LC
Format settings : Explicit
Codec ID : A_AAC-2
Duration : 45 min 38 s
Bit rate : 60.3 kb/s
Channel(s) : 2 channels
Channel positions : Front: L R
Sampling rate : 48.0 kHz / 24.0 kHz
Frame rate : 23.438 FPS (1024 SPF)
Compression mode : Lossy
Delay relative to video : 23 ms
Stream size : 19.7 MiB (10%)
Language : English
Default : Yes
Forced : No

Text
ID : 3
Format : UTF-8
Codec ID : S_TEXT/UTF8
Codec ID/Info : UTF-8 Plain Text
Duration : 45 min 27 s
Bit rate : 67 b/s
Count of elements : 856
Stream size : 22.4 KiB (0%)
Language : English
Default : Yes
Forced : No

Download

Direct download files get automatically deleted after a month or so. Posted on : 08/14/2018

[collapse]
Media Info and Download Links | S04E01

General
Format : Matroska
Format version : Version 4 / Version 2
File size : 218 MiB
Duration : 48 min 47 s
Overall bit rate : 625 kb/s
Movie name : Better.Call.Saul.S04E01.Smoke.720p.10bit.WEBRip.2CH.x265.HEVC
Encoded date : UTC 2018-08-07 11:58:30
Writing application : mkvmerge v25.0.0 (‘Prog Noir’) 32-bit
Writing library : libebml v1.3.6 + libmatroska v1.4.9

Video
ID : 1
Format : HEVC
Format/Info : High Efficiency Video Coding
Format profile : Main [email protected]@Main
Codec ID : V_MPEGH/ISO/HEVC
Duration : 48 min 47 s
Bit rate : 556 kb/s
Width : 1 280 pixels
Height : 720 pixels
Display aspect ratio : 16:9
Frame rate mode : Constant
Frame rate : 23.976 (24000/1001) FPS
Color space : YUV
Chroma subsampling : 4:2:0
Bit depth : 10 bits
Bits/(Pixel*Frame) : 0.025
Stream size : 194 MiB (89%)
Default : Yes
Forced : No

Audio
ID : 2
Format : AAC
Format/Info : Advanced Audio Codec
Format profile : HE-AAC / LC
Format settings : Explicit
Codec ID : A_AAC-2
Duration : 48 min 47 s
Bit rate : 66.2 kb/s
Channel(s) : 2 channels
Channel positions : Front: L R
Sampling rate : 48.0 kHz / 24.0 kHz
Frame rate : 23.438 FPS (1024 SPF)
Compression mode : Lossy
Delay relative to video : 23 ms
Stream size : 23.3 MiB (11%)
Language : English
Default : Yes
Forced : No

Text #1
ID : 3
Format : UTF-8
Codec ID : S_TEXT/UTF8
Codec ID/Info : UTF-8 Plain Text
Duration : 46 min 43 s
Bit rate : 35 b/s
Count of elements : 378
Stream size : 12.1 KiB (0%)
Title : ENG
Language : English
Default : Yes
Forced : No

Text #2
ID : 4
Format : UTF-8
Codec ID : S_TEXT/UTF8
Codec ID/Info : UTF-8 Plain Text
Duration : 47 min 44 s
Bit rate : 39 b/s
Count of elements : 448
Stream size : 13.8 KiB (0%)
Title : SDH
Language : English
Default : No
Forced : No

Text #3
ID : 5
Format : UTF-8
Codec ID : S_TEXT/UTF8
Codec ID/Info : UTF-8 Plain Text
Duration : 1 min 57 s
Bit rate : 46 b/s
Count of elements : 30
Stream size : 684 Bytes (0%)
Language : English
Default : No
Forced : Yes

Text #4
ID : 6
Format : UTF-8
Codec ID : S_TEXT/UTF8
Codec ID/Info : UTF-8 Plain Text
Duration : 47 min 30 s
Bit rate : 31 b/s
Count of elements : 378
Stream size : 10.8 KiB (0%)
Language : Dutch
Default : No
Forced : No

Text #5
ID : 7
Format : UTF-8
Codec ID : S_TEXT/UTF8
Codec ID/Info : UTF-8 Plain Text
Duration : 47 min 30 s
Bit rate : 30 b/s
Count of elements : 350
Stream size : 10.5 KiB (0%)
Language : French
Default : No
Forced : No

Text #6
ID : 8
Format : UTF-8
Codec ID : S_TEXT/UTF8
Codec ID/Info : UTF-8 Plain Text
Duration : 47 min 30 s
Bit rate : 34 b/s
Count of elements : 390
Stream size : 12.0 KiB (0%)
Language : German
Default : No
Forced : No

Download

Direct download files get automatically deleted after a month or so. Posted on : 08/07/2018

[collapse]

Season03 Magnet

Magnet

Better.Call.Saul.S03.720p.BluRay.X264-REWARD-22.09 GB

[collapse]
Season02 Magnet

Magnet

Better.Call.Saul.S02.720p.BluRay.X264-REWARD- 21.83 GB

[collapse]
Season01 Magnet

Magnet

Better.Call.Saul.S01.720p.BluRay.X264-REWARD- 21.88 GB

[collapse]

You may also like...

error: nah :p~