Criminal: Spain

Crime, Drama | TV Series (2019– )

Psychological games abound between detectives and suspects in a tense interrogation room, where the search for answers sometimes comes at a moral cost.

Watch trailer

Media Info and Download Links | S01E03

General
Format : Matroska
Format version : Version 4
File size : 167 MiB
Duration : 41 min 16 s
Overall bit rate : 567 kb/s
Movie name : Criminal.Spain.S01E03.Carmelo.SPANISH.720p.WEBRip.2CH.x265.HEVC
Encoded date : UTC 2019-09-22 15:49:16
Writing application : mkvmerge v37.0.0 (‘Leave It’) 32-bit
Writing library : libebml v1.3.9 + libmatroska v1.5.2 / Lavf57.83.100

Video
ID : 1
Format : HEVC
Format/Info : High Efficiency Video Coding
Format profile : [email protected]@Main
Codec ID : V_MPEGH/ISO/HEVC
Duration : 41 min 16 s
Bit rate : 498 kb/s
Width : 1 280 pixels
Height : 720 pixels
Display aspect ratio : 16:9
Frame rate mode : Constant
Frame rate : 25.000 FPS
Color space : YUV
Chroma subsampling : 4:2:0
Bit depth : 8 bits
Bits/(Pixel*Frame) : 0.022
Stream size : 147 MiB (88%)
Default : Yes
Forced : No

Audio
ID : 2
Format : AAC LC SBR
Commercial name : HE-AAC
Format settings : Explicit
Codec ID : A_AAC-2
Duration : 41 min 16 s
Bit rate : 64.0 kb/s
Channel(s) : 2 channels
Channel layout : L R
Sampling rate : 48.0 kHz
Frame rate : 23.438 FPS (2048 SPF)
Compression mode : Lossy
Delay relative to video : 23 ms
Stream size : 18.9 MiB (11%)
Language : Spanish
Default : Yes
Forced : No

Text #1
ID : 3
Format : UTF-8
Codec ID : S_TEXT/UTF8
Codec ID/Info : UTF-8 Plain Text
Duration : 40 min 41 s
Bit rate : 82 b/s
Count of elements : 665
Stream size : 24.6 KiB (0%)
Title : English
Language : English
Default : Yes
Forced : No

Text #2
ID : 4
Format : UTF-8
Codec ID : S_TEXT/UTF8
Codec ID/Info : UTF-8 Plain Text
Duration : 40 min 40 s
Bit rate : 136 b/s
Count of elements : 669
Stream size : 40.8 KiB (0%)
Title : Russian
Language : English
Default : No
Forced : No

Text #3
ID : 5
Format : UTF-8
Codec ID : S_TEXT/UTF8
Codec ID/Info : UTF-8 Plain Text
Duration : 40 min 42 s
Bit rate : 79 b/s
Count of elements : 654
Stream size : 23.8 KiB (0%)
Title : German
Language : German
Default : No
Forced : No

Text #4
ID : 6
Format : UTF-8
Codec ID : S_TEXT/UTF8
Codec ID/Info : UTF-8 Plain Text
Duration : 40 min 40 s
Bit rate : 78 b/s
Count of elements : 542
Stream size : 23.4 KiB (0%)
Title : Dutch
Language : Dutch
Default : No
Forced : No

Text #5
ID : 7
Format : UTF-8
Codec ID : S_TEXT/UTF8
Codec ID/Info : UTF-8 Plain Text
Duration : 40 min 40 s
Bit rate : 79 b/s
Count of elements : 668
Stream size : 23.8 KiB (0%)
Title : Italian
Language : Italian
Default : No
Forced : No

Text #6
ID : 8
Format : UTF-8
Codec ID : S_TEXT/UTF8
Codec ID/Info : UTF-8 Plain Text
Duration : 40 min 40 s
Bit rate : 74 b/s
Count of elements : 601
Stream size : 22.2 KiB (0%)
Title : Finnish
Language : Finnish
Default : No
Forced : No

Text #7
ID : 9
Format : UTF-8
Codec ID : S_TEXT/UTF8
Codec ID/Info : UTF-8 Plain Text
Duration : 40 min 40 s
Bit rate : 70 b/s
Count of elements : 666
Stream size : 20.9 KiB (0%)
Title : Hungarian
Language : English
Default : No
Forced : No

Text #8
ID : 10
Format : UTF-8
Codec ID : S_TEXT/UTF8
Codec ID/Info : UTF-8 Plain Text
Duration : 39 min 29 s
Bit rate : 148 b/s
Count of elements : 660
Stream size : 42.9 KiB (0%)
Title : Greek
Language : English
Default : No
Forced : No

Text #9
ID : 11
Format : UTF-8
Codec ID : S_TEXT/UTF8
Codec ID/Info : UTF-8 Plain Text
Duration : 40 min 40 s
Bit rate : 77 b/s
Count of elements : 666
Stream size : 23.2 KiB (0%)
Title : Czech
Language : Czech
Default : No
Forced : No

Text #10
ID : 12
Format : UTF-8
Codec ID : S_TEXT/UTF8
Codec ID/Info : UTF-8 Plain Text
Duration : 40 min 40 s
Bit rate : 70 b/s
Count of elements : 666
Stream size : 21.1 KiB (0%)
Title : Brazilian Portuguese
Language : Portuguese
Default : No
Forced : No

Text #11
ID : 13
Format : UTF-8
Codec ID : S_TEXT/UTF8
Codec ID/Info : UTF-8 Plain Text
Duration : 39 min 26 s
Bit rate : 84 b/s
Count of elements : 657
Stream size : 24.3 KiB (0%)
Title : Turkish
Language : Turkish
Default : No
Forced : No

Text #12
ID : 14
Format : UTF-8
Codec ID : S_TEXT/UTF8
Codec ID/Info : UTF-8 Plain Text
Duration : 40 min 40 s
Bit rate : 79 b/s
Count of elements : 666
Stream size : 23.6 KiB (0%)
Title : Portuguese
Language : Portuguese
Default : No
Forced : No

Text #13
ID : 15
Format : UTF-8
Codec ID : S_TEXT/UTF8
Codec ID/Info : UTF-8 Plain Text
Duration : 40 min 40 s
Bit rate : 80 b/s
Count of elements : 601
Stream size : 23.9 KiB (0%)
Title : Swedish
Language : Swedish
Default : No
Forced : No

Text #14
ID : 16
Format : UTF-8
Codec ID : S_TEXT/UTF8
Codec ID/Info : UTF-8 Plain Text
Duration : 40 min 40 s
Bit rate : 65 b/s
Count of elements : 666
Stream size : 19.4 KiB (0%)
Title : Polish
Language : Polish
Default : No
Forced : No

Text #15
ID : 17
Format : UTF-8
Codec ID : S_TEXT/UTF8
Codec ID/Info : UTF-8 Plain Text
Duration : 40 min 40 s
Bit rate : 80 b/s
Count of elements : 601
Stream size : 23.9 KiB (0%)
Title : Norwegian
Language : Norwegian
Default : No
Forced : No

Text #16
ID : 18
Format : UTF-8
Codec ID : S_TEXT/UTF8
Codec ID/Info : UTF-8 Plain Text
Duration : 40 min 40 s
Bit rate : 74 b/s
Count of elements : 690
Stream size : 22.1 KiB (0%)
Title : French
Language : French
Default : No
Forced : No

Text #17
ID : 19
Format : UTF-8
Codec ID : S_TEXT/UTF8
Codec ID/Info : UTF-8 Plain Text
Duration : 40 min 40 s
Bit rate : 77 b/s
Count of elements : 666
Stream size : 23.2 KiB (0%)
Title : Indonesian
Language : English
Default : No
Forced : No

Text #18
ID : 20
Format : UTF-8
Codec ID : S_TEXT/UTF8
Codec ID/Info : UTF-8 Plain Text
Duration : 40 min 40 s
Bit rate : 77 b/s
Count of elements : 600
Stream size : 23.1 KiB (0%)
Title : Danish
Language : Danish
Default : No
Forced : No

Text #19
ID : 21
Format : UTF-8
Codec ID : S_TEXT/UTF8
Codec ID/Info : UTF-8 Plain Text
Duration : 39 min 27 s
Bit rate : 90 b/s
Count of elements : 714
Stream size : 26.1 KiB (0%)
Title : European Spanish
Language : Spanish
Default : No
Forced : No

Download

Direct download files get automatically deleted after a month or so. Posted on : 09/22/2019

[collapse]
Media Info and Download Links | S01E02

General
Format : Matroska
Format version : Version 4
File size : 166 MiB
Duration : 39 min 0 s
Overall bit rate : 594 kb/s
Movie name : Criminal.Spain.S01E02.Carmen.SPANISH.720p.WEBRip.2CH.x265.HEVC
Encoded date : UTC 2019-09-22 15:47:53
Writing application : mkvmerge v37.0.0 (‘Leave It’) 32-bit
Writing library : libebml v1.3.9 + libmatroska v1.5.2 / Lavf57.83.100

Video
ID : 1
Format : HEVC
Format/Info : High Efficiency Video Coding
Format profile : [email protected]@Main
Codec ID : V_MPEGH/ISO/HEVC
Duration : 38 min 59 s
Bit rate : 526 kb/s
Width : 1 280 pixels
Height : 720 pixels
Display aspect ratio : 16:9
Frame rate mode : Constant
Frame rate : 25.000 FPS
Color space : YUV
Chroma subsampling : 4:2:0
Bit depth : 8 bits
Bits/(Pixel*Frame) : 0.023
Stream size : 147 MiB (89%)
Default : Yes
Forced : No

Audio
ID : 2
Format : AAC LC SBR
Commercial name : HE-AAC
Format settings : Explicit
Codec ID : A_AAC-2
Duration : 39 min 0 s
Bit rate : 63.2 kb/s
Channel(s) : 2 channels
Channel layout : L R
Sampling rate : 48.0 kHz
Frame rate : 23.438 FPS (2048 SPF)
Compression mode : Lossy
Delay relative to video : 23 ms
Stream size : 17.6 MiB (11%)
Language : Spanish
Default : Yes
Forced : No

Text #1
ID : 3
Format : UTF-8
Codec ID : S_TEXT/UTF8
Codec ID/Info : UTF-8 Plain Text
Duration : 38 min 15 s
Bit rate : 79 b/s
Count of elements : 606
Stream size : 22.4 KiB (0%)
Title : English
Language : English
Default : Yes
Forced : No

Text #2
ID : 4
Format : UTF-8
Codec ID : S_TEXT/UTF8
Codec ID/Info : UTF-8 Plain Text
Duration : 37 min 5 s
Bit rate : 90 b/s
Count of elements : 662
Stream size : 24.7 KiB (0%)
Title : English
Language : English
Default : No
Forced : No

Text #3
ID : 5
Format : UTF-8
Codec ID : S_TEXT/UTF8
Codec ID/Info : UTF-8 Plain Text
Duration : 38 min 20 s
Bit rate : 129 b/s
Count of elements : 605
Stream size : 36.3 KiB (0%)
Title : Russian
Language : English
Default : No
Forced : No

Text #4
ID : 6
Format : UTF-8
Codec ID : S_TEXT/UTF8
Codec ID/Info : UTF-8 Plain Text
Duration : 38 min 23 s
Bit rate : 78 b/s
Count of elements : 606
Stream size : 22.0 KiB (0%)
Title : German
Language : German
Default : No
Forced : No

Text #5
ID : 7
Format : UTF-8
Codec ID : S_TEXT/UTF8
Codec ID/Info : UTF-8 Plain Text
Duration : 38 min 20 s
Bit rate : 75 b/s
Count of elements : 510
Stream size : 21.2 KiB (0%)
Title : Dutch
Language : Dutch
Default : No
Forced : No

Text #6
ID : 8
Format : UTF-8
Codec ID : S_TEXT/UTF8
Codec ID/Info : UTF-8 Plain Text
Duration : 38 min 20 s
Bit rate : 74 b/s
Count of elements : 571
Stream size : 20.9 KiB (0%)
Title : Finnish
Language : Finnish
Default : No
Forced : No

Text #7
ID : 9
Format : UTF-8
Codec ID : S_TEXT/UTF8
Codec ID/Info : UTF-8 Plain Text
Duration : 38 min 20 s
Bit rate : 77 b/s
Count of elements : 599
Stream size : 21.9 KiB (0%)
Title : Italian
Language : Italian
Default : No
Forced : No

Text #8
ID : 10
Format : UTF-8
Codec ID : S_TEXT/UTF8
Codec ID/Info : UTF-8 Plain Text
Duration : 38 min 20 s
Bit rate : 64 b/s
Count of elements : 606
Stream size : 18.2 KiB (0%)
Title : Hungarian
Language : English
Default : No
Forced : No

Text #9
ID : 11
Format : UTF-8
Codec ID : S_TEXT/UTF8
Codec ID/Info : UTF-8 Plain Text
Duration : 37 min 10 s
Bit rate : 143 b/s
Count of elements : 601
Stream size : 39.1 KiB (0%)
Title : Greek
Language : English
Default : No
Forced : No

Text #10
ID : 12
Format : UTF-8
Codec ID : S_TEXT/UTF8
Codec ID/Info : UTF-8 Plain Text
Duration : 38 min 20 s
Bit rate : 75 b/s
Count of elements : 606
Stream size : 21.2 KiB (0%)
Title : Czech
Language : Czech
Default : No
Forced : No

Text #11
ID : 13
Format : UTF-8
Codec ID : S_TEXT/UTF8
Codec ID/Info : UTF-8 Plain Text
Duration : 38 min 20 s
Bit rate : 72 b/s
Count of elements : 604
Stream size : 20.4 KiB (0%)
Title : Brazilian Portuguese
Language : Portuguese
Default : No
Forced : No

Text #12
ID : 14
Format : UTF-8
Codec ID : S_TEXT/UTF8
Codec ID/Info : UTF-8 Plain Text
Duration : 37 min 7 s
Bit rate : 81 b/s
Count of elements : 604
Stream size : 22.3 KiB (0%)
Title : Turkish
Language : Turkish
Default : No
Forced : No

Text #13
ID : 15
Format : UTF-8
Codec ID : S_TEXT/UTF8
Codec ID/Info : UTF-8 Plain Text
Duration : 38 min 20 s
Bit rate : 78 b/s
Count of elements : 606
Stream size : 22.1 KiB (0%)
Title : Portuguese
Language : Portuguese
Default : No
Forced : No

Text #14
ID : 16
Format : UTF-8
Codec ID : S_TEXT/UTF8
Codec ID/Info : UTF-8 Plain Text
Duration : 38 min 20 s
Bit rate : 80 b/s
Count of elements : 571
Stream size : 22.5 KiB (0%)
Title : Swedish
Language : Swedish
Default : No
Forced : No

Text #15
ID : 17
Format : UTF-8
Codec ID : S_TEXT/UTF8
Codec ID/Info : UTF-8 Plain Text
Duration : 38 min 20 s
Bit rate : 65 b/s
Count of elements : 606
Stream size : 18.5 KiB (0%)
Title : Polish
Language : Polish
Default : No
Forced : No

Text #16
ID : 18
Format : UTF-8
Codec ID : S_TEXT/UTF8
Codec ID/Info : UTF-8 Plain Text
Duration : 38 min 20 s
Bit rate : 78 b/s
Count of elements : 571
Stream size : 21.9 KiB (0%)
Title : Norwegian
Language : Norwegian
Default : No
Forced : No

Text #17
ID : 19
Format : UTF-8
Codec ID : S_TEXT/UTF8
Codec ID/Info : UTF-8 Plain Text
Duration : 38 min 20 s
Bit rate : 69 b/s
Count of elements : 606
Stream size : 19.6 KiB (0%)
Title : French
Language : French
Default : No
Forced : No

Text #18
ID : 20
Format : UTF-8
Codec ID : S_TEXT/UTF8
Codec ID/Info : UTF-8 Plain Text
Duration : 38 min 20 s
Bit rate : 73 b/s
Count of elements : 606
Stream size : 20.6 KiB (0%)
Title : Indonesian
Language : English
Default : No
Forced : No

Text #19
ID : 21
Format : UTF-8
Codec ID : S_TEXT/UTF8
Codec ID/Info : UTF-8 Plain Text
Duration : 38 min 20 s
Bit rate : 77 b/s
Count of elements : 571
Stream size : 21.7 KiB (0%)
Title : Danish
Language : Danish
Default : No
Forced : No

Text #20
ID : 22
Format : UTF-8
Codec ID : S_TEXT/UTF8
Codec ID/Info : UTF-8 Plain Text
Duration : 37 min 7 s
Bit rate : 89 b/s
Count of elements : 652
Stream size : 24.2 KiB (0%)
Title : European Spanish
Language : Spanish
Default : No
Forced : No

Download

Direct download files get automatically deleted after a month or so. Posted on : 09/22/2019

[collapse]
Media Info and Download Links | S01E01

General
Format : Matroska
Format version : Version 4
File size : 198 MiB
Duration : 40 min 2 s
Overall bit rate : 693 kb/s
Movie name : Criminal.Spain.S01E01.Isabel.SPANISH.720p.WEBRip.2CH.x265.HEVC
Encoded date : UTC 2019-09-22 15:46:28
Writing application : mkvmerge v37.0.0 (‘Leave It’) 32-bit
Writing library : libebml v1.3.9 + libmatroska v1.5.2 / Lavf57.83.100

Video
ID : 1
Format : HEVC
Format/Info : High Efficiency Video Coding
Format profile : [email protected]@Main
Codec ID : V_MPEGH/ISO/HEVC
Duration : 40 min 2 s
Bit rate : 623 kb/s
Width : 1 280 pixels
Height : 720 pixels
Display aspect ratio : 16:9
Frame rate mode : Constant
Frame rate : 25.000 FPS
Color space : YUV
Chroma subsampling : 4:2:0
Bit depth : 8 bits
Bits/(Pixel*Frame) : 0.027
Stream size : 179 MiB (90%)
Default : Yes
Forced : No

Audio
ID : 2
Format : AAC LC SBR
Commercial name : HE-AAC
Format settings : Explicit
Codec ID : A_AAC-2
Duration : 40 min 2 s
Bit rate : 64.4 kb/s
Channel(s) : 2 channels
Channel layout : L R
Sampling rate : 48.0 kHz
Frame rate : 23.438 FPS (2048 SPF)
Compression mode : Lossy
Delay relative to video : 23 ms
Stream size : 18.4 MiB (9%)
Language : Spanish
Default : Yes
Forced : No

Text #1
ID : 3
Format : UTF-8
Codec ID : S_TEXT/UTF8
Codec ID/Info : UTF-8 Plain Text
Duration : 39 min 28 s
Bit rate : 77 b/s
Count of elements : 612
Stream size : 22.3 KiB (0%)
Title : English
Language : English
Default : Yes
Forced : No

Text #2
ID : 4
Format : UTF-8
Codec ID : S_TEXT/UTF8
Codec ID/Info : UTF-8 Plain Text
Duration : 38 min 8 s
Bit rate : 91 b/s
Count of elements : 708
Stream size : 25.5 KiB (0%)
Title : English
Language : English
Default : No
Forced : No

Text #3
ID : 5
Format : UTF-8
Codec ID : S_TEXT/UTF8
Codec ID/Info : UTF-8 Plain Text
Duration : 39 min 31 s
Bit rate : 130 b/s
Count of elements : 614
Stream size : 37.7 KiB (0%)
Title : Russian
Language : English
Default : No
Forced : No

Text #4
ID : 6
Format : UTF-8
Codec ID : S_TEXT/UTF8
Codec ID/Info : UTF-8 Plain Text
Duration : 39 min 24 s
Bit rate : 76 b/s
Count of elements : 606
Stream size : 22.2 KiB (0%)
Title : German
Language : German
Default : No
Forced : No

Text #5
ID : 7
Format : UTF-8
Codec ID : S_TEXT/UTF8
Codec ID/Info : UTF-8 Plain Text
Duration : 39 min 31 s
Bit rate : 73 b/s
Count of elements : 499
Stream size : 21.2 KiB (0%)
Title : Dutch
Language : Dutch
Default : No
Forced : No

Text #6
ID : 8
Format : UTF-8
Codec ID : S_TEXT/UTF8
Codec ID/Info : UTF-8 Plain Text
Duration : 39 min 22 s
Bit rate : 71 b/s
Count of elements : 570
Stream size : 20.6 KiB (0%)
Title : Finnish
Language : Finnish
Default : No
Forced : No

Text #7
ID : 9
Format : UTF-8
Codec ID : S_TEXT/UTF8
Codec ID/Info : UTF-8 Plain Text
Duration : 39 min 31 s
Bit rate : 75 b/s
Count of elements : 609
Stream size : 21.8 KiB (0%)
Title : Italian
Language : Italian
Default : No
Forced : No

Text #8
ID : 10
Format : UTF-8
Codec ID : S_TEXT/UTF8
Codec ID/Info : UTF-8 Plain Text
Duration : 39 min 31 s
Bit rate : 66 b/s
Count of elements : 613
Stream size : 19.2 KiB (0%)
Title : Hungarian
Language : English
Default : No
Forced : No

Text #9
ID : 11
Format : UTF-8
Codec ID : S_TEXT/UTF8
Codec ID/Info : UTF-8 Plain Text
Duration : 38 min 11 s
Bit rate : 139 b/s
Count of elements : 604
Stream size : 39.1 KiB (0%)
Title : Greek
Language : English
Default : No
Forced : No

Text #10
ID : 12
Format : UTF-8
Codec ID : S_TEXT/UTF8
Codec ID/Info : UTF-8 Plain Text
Duration : 39 min 31 s
Bit rate : 74 b/s
Count of elements : 613
Stream size : 21.7 KiB (0%)
Title : Czech
Language : Czech
Default : No
Forced : No

Text #11
ID : 13
Format : UTF-8
Codec ID : S_TEXT/UTF8
Codec ID/Info : UTF-8 Plain Text
Duration : 39 min 31 s
Bit rate : 68 b/s
Count of elements : 619
Stream size : 19.9 KiB (0%)
Title : Brazilian Portuguese
Language : Portuguese
Default : No
Forced : No

Text #12
ID : 14
Format : UTF-8
Codec ID : S_TEXT/UTF8
Codec ID/Info : UTF-8 Plain Text
Duration : 38 min 9 s
Bit rate : 81 b/s
Count of elements : 609
Stream size : 22.9 KiB (0%)
Title : Turkish
Language : Turkish
Default : No
Forced : No

Text #13
ID : 15
Format : UTF-8
Codec ID : S_TEXT/UTF8
Codec ID/Info : UTF-8 Plain Text
Duration : 39 min 31 s
Bit rate : 76 b/s
Count of elements : 612
Stream size : 22.2 KiB (0%)
Title : Portuguese
Language : Portuguese
Default : No
Forced : No

Text #14
ID : 16
Format : UTF-8
Codec ID : S_TEXT/UTF8
Codec ID/Info : UTF-8 Plain Text
Duration : 39 min 22 s
Bit rate : 77 b/s
Count of elements : 570
Stream size : 22.4 KiB (0%)
Title : Swedish
Language : Swedish
Default : No
Forced : No

Text #15
ID : 17
Format : UTF-8
Codec ID : S_TEXT/UTF8
Codec ID/Info : UTF-8 Plain Text
Duration : 39 min 31 s
Bit rate : 68 b/s
Count of elements : 613
Stream size : 19.7 KiB (0%)
Title : Polish
Language : Polish
Default : No
Forced : No

Text #16
ID : 18
Format : UTF-8
Codec ID : S_TEXT/UTF8
Codec ID/Info : UTF-8 Plain Text
Duration : 39 min 22 s
Bit rate : 77 b/s
Count of elements : 570
Stream size : 22.3 KiB (0%)
Title : Norwegian
Language : Norwegian
Default : No
Forced : No

Text #17
ID : 19
Format : UTF-8
Codec ID : S_TEXT/UTF8
Codec ID/Info : UTF-8 Plain Text
Duration : 39 min 31 s
Bit rate : 74 b/s
Count of elements : 625
Stream size : 21.4 KiB (0%)
Title : French
Language : French
Default : No
Forced : No

Text #18
ID : 20
Format : UTF-8
Codec ID : S_TEXT/UTF8
Codec ID/Info : UTF-8 Plain Text
Duration : 39 min 31 s
Bit rate : 73 b/s
Count of elements : 613
Stream size : 21.4 KiB (0%)
Title : Indonesian
Language : English
Default : No
Forced : No

Text #19
ID : 21
Format : UTF-8
Codec ID : S_TEXT/UTF8
Codec ID/Info : UTF-8 Plain Text
Duration : 39 min 21 s
Bit rate : 74 b/s
Count of elements : 568
Stream size : 21.3 KiB (0%)
Title : Danish
Language : Danish
Default : No
Forced : No

Text #20
ID : 22
Format : UTF-8
Codec ID : S_TEXT/UTF8
Codec ID/Info : UTF-8 Plain Text
Duration : 38 min 8 s
Bit rate : 88 b/s
Count of elements : 696
Stream size : 24.8 KiB (0%)
Title : European Spanish
Language : Spanish
Default : No
Forced : No

Download

Direct download files get automatically deleted after a month or so. Posted on : 09/22/2019

[collapse]

You may also like...

error: nah :p~