Game of Thrones

TV-MA | 57min | Action, Adventure, Drama | TV Series (2011– )

Nine noble families fight for control over the mythical lands of Westeros, while an ancient enemy returns after being dormant for thousands of years.

Watch trailer

Media Info and Download Links | S08E02-1080p.10bit.WEBRip.6CH.x265.HEVC

General
Format : Matroska
Format version : Version 4
File size : 533 MiB
Duration : 1 h 6 min
Overall bit rate : 1 122 kb/s
Movie name : Game.of.Thrones.S08E02.A.Knight.of.the.Seven.Kingdoms.1080p.10bit.WEBRip.6CH.x265.HEVC
Encoded date : UTC 2019-04-22 06:11:15
Writing application : mkvmerge v33.1.0 (‘Primrose’) 32-bit
Writing library : libebml v1.3.7 + libmatroska v1.5.0

Video
ID : 1
Format : HEVC
Format/Info : High Efficiency Video Coding
Format profile : Main [email protected]@Main
Codec ID : V_MPEGH/ISO/HEVC
Duration : 1 h 6 min
Bit rate : 935 kb/s
Width : 1 920 pixels
Height : 1 080 pixels
Display aspect ratio : 16:9
Frame rate mode : Constant
Frame rate : 23.976 (24000/1001) FPS
Color space : YUV
Chroma subsampling : 4:2:0
Bit depth : 10 bits
Bits/(Pixel*Frame) : 0.019
Stream size : 444 MiB (83%)
Default : Yes
Forced : No
Color range : Limited
Color primaries : BT.709
Transfer characteristics : BT.709
Matrix coefficients : BT.709

Audio
ID : 2
Format : AAC LC SBR
Commercial name : HE-AAC
Format settings : Explicit
Codec ID : A_AAC-2
Duration : 1 h 6 min
Bit rate : 185 kb/s
Channel(s) : 6 channels
Channel layout : C L R Ls Rs LFE
Sampling rate : 48.0 kHz
Frame rate : 23.438 FPS (2048 SPF)
Compression mode : Lossy
Delay relative to video : 23 ms
Stream size : 88.0 MiB (17%)
Language : English
Default : Yes
Forced : No

Text
ID : 3
Format : UTF-8
Codec ID : S_TEXT/UTF8
Codec ID/Info : UTF-8 Plain Text
Duration : 1 h 6 min
Bit rate : 62 b/s
Count of elements : 1026
Stream size : 30.2 KiB (0%)
Language : English
Default : Yes
Forced : No

Download

Direct download files get automatically deleted after a month or so. Posted on : 04/22/2019

[collapse]
Media Info and Download Links | S08E02-720p.10bit.WEBRip.6CH.x265.HEVC

General
Format : Matroska
Format version : Version 4
File size : 336 MiB
Duration : 1 h 6 min
Overall bit rate : 707 kb/s
Movie name : Game.of.Thrones.S08E02.A.Knight.of.the.Seven.Kingdoms.720p.10bit.WEBRip.6CH.x265.HEVC
Encoded date : UTC 2019-04-22 05:58:01
Writing application : mkvmerge v33.1.0 (‘Primrose’) 32-bit
Writing library : libebml v1.3.7 + libmatroska v1.5.0

Video
ID : 1
Format : HEVC
Format/Info : High Efficiency Video Coding
Format profile : Main [email protected]@Main
Codec ID : V_MPEGH/ISO/HEVC
Duration : 1 h 6 min
Bit rate : 520 kb/s
Width : 1 280 pixels
Height : 720 pixels
Display aspect ratio : 16:9
Frame rate mode : Constant
Frame rate : 23.976 (24000/1001) FPS
Color space : YUV
Chroma subsampling : 4:2:0
Bit depth : 10 bits
Bits/(Pixel*Frame) : 0.024
Stream size : 247 MiB (74%)
Default : Yes
Forced : No
Color range : Limited
Color primaries : BT.709
Transfer characteristics : BT.709
Matrix coefficients : BT.709

Audio
ID : 2
Format : AAC LC SBR
Commercial name : HE-AAC
Format settings : Explicit
Codec ID : A_AAC-2
Duration : 1 h 6 min
Bit rate : 185 kb/s
Channel(s) : 6 channels
Channel layout : C L R Ls Rs LFE
Sampling rate : 48.0 kHz
Frame rate : 23.438 FPS (2048 SPF)
Compression mode : Lossy
Delay relative to video : 23 ms
Stream size : 88.0 MiB (26%)
Language : English
Default : Yes
Forced : No

Text
ID : 3
Format : UTF-8
Codec ID : S_TEXT/UTF8
Codec ID/Info : UTF-8 Plain Text
Duration : 1 h 6 min
Bit rate : 62 b/s
Count of elements : 1026
Stream size : 30.2 KiB (0%)
Language : English
Default : Yes
Forced : No

Download

Direct download files get automatically deleted after a month or so. Posted on : 04/22/2019

[collapse]

Media Info and Download Links | S08E01-1080p.10bit.WEBRip.6CH.x265.HEVC

General
Format : Matroska
Format version : Version 4
File size : 591 MiB
Duration : 1 h 2 min
Overall bit rate : 1 330 kb/s
Movie name : Game.of.Thrones.S08E01.Winterfell.1080p.10bit.WEBRip.6CH.x265.HEVC
Encoded date : UTC 2019-04-15 08:20:57
Writing application : mkvmerge v33.0.0 (‘A Little Bit of Madness’) 32-bit
Writing library : libebml v1.3.7 + libmatroska v1.5.0

Video
ID : 1
Format : HEVC
Format/Info : High Efficiency Video Coding
Format profile : Main [email protected]@Main
Codec ID : V_MPEGH/ISO/HEVC
Duration : 1 h 2 min
Bit rate : 1 146 kb/s
Width : 1 920 pixels
Height : 1 080 pixels
Display aspect ratio : 16:9
Frame rate mode : Constant
Frame rate : 23.976 (24000/1001) FPS
Color space : YUV
Chroma subsampling : 4:2:0
Bit depth : 10 bits
Bits/(Pixel*Frame) : 0.023
Stream size : 510 MiB (86%)
Default : Yes
Forced : No
Color range : Limited
Color primaries : BT.709
Transfer characteristics : BT.709
Matrix coefficients : BT.709

Audio
ID : 2
Format : AAC LC SBR
Commercial name : HE-AAC
Format settings : Explicit
Codec ID : A_AAC-2
Duration : 1 h 2 min
Bit rate : 182 kb/s
Channel(s) : 6 channels
Channel layout : C L R Ls Rs LFE
Sampling rate : 48.0 kHz
Frame rate : 23.438 FPS (2048 SPF)
Compression mode : Lossy
Delay relative to video : 23 ms
Stream size : 80.8 MiB (14%)
Language : English
Default : Yes
Forced : No

Text
ID : 3
Format : UTF-8
Codec ID : S_TEXT/UTF8
Codec ID/Info : UTF-8 Plain Text
Duration : 1 h 2 min
Bit rate : 53 b/s
Count of elements : 821
Stream size : 24.4 KiB (0%)
Language : English
Default : Yes
Forced : No

Download

Direct download files get automatically deleted after a month or so. Posted on : 04/15/2019

[collapse]
Media Info and Download Links | S08E01-720p.10bit.WEBRip.6CH.x265.HEVC

General
Format : Matroska
Format version : Version 4
File size : 378 MiB
Duration : 1 h 2 min
Overall bit rate : 851 kb/s
Movie name : Game.of.Thrones.S08E01.Winterfell.720p.10bit.WEBRip.6CH.x265.HEVC
Encoded date : UTC 2019-04-15 06:39:20
Writing application : mkvmerge v33.0.0 (‘A Little Bit of Madness’) 32-bit
Writing library : libebml v1.3.7 + libmatroska v1.5.0

Video
ID : 1
Format : HEVC
Format/Info : High Efficiency Video Coding
Format profile : Main [email protected]@Main
Codec ID : V_MPEGH/ISO/HEVC
Duration : 1 h 2 min
Bit rate : 667 kb/s
Width : 1 280 pixels
Height : 720 pixels
Display aspect ratio : 16:9
Frame rate mode : Constant
Frame rate : 23.976 (24000/1001) FPS
Color space : YUV
Chroma subsampling : 4:2:0
Bit depth : 10 bits
Bits/(Pixel*Frame) : 0.030
Stream size : 297 MiB (78%)
Default : Yes
Forced : No
Color range : Limited
Color primaries : BT.709
Transfer characteristics : BT.709
Matrix coefficients : BT.709

Audio
ID : 2
Format : AAC LC SBR
Commercial name : HE-AAC
Format settings : Explicit
Codec ID : A_AAC-2
Duration : 1 h 2 min
Bit rate : 182 kb/s
Channel(s) : 6 channels
Channel layout : C L R Ls Rs LFE
Sampling rate : 48.0 kHz
Frame rate : 23.438 FPS (2048 SPF)
Compression mode : Lossy
Delay relative to video : 23 ms
Stream size : 80.8 MiB (21%)
Language : English
Default : Yes
Forced : No

Text
ID : 3
Format : UTF-8
Codec ID : S_TEXT/UTF8
Codec ID/Info : UTF-8 Plain Text
Duration : 1 h 2 min
Bit rate : 53 b/s
Count of elements : 821
Stream size : 24.4 KiB (0%)
Language : English
Default : Yes
Forced : No

Download

Direct download files get automatically deleted after a month or so. Posted on : 04/15/2019

[collapse]

Season07 Magnet Link

Magnet

Game.of.Thrones.S07.720p.BluRay.x264-DEMAND-16.39 GB

[collapse]
Season06 Magnet Link

Magnet

Game.of.Thrones.S06.720p.BluRay.x264-DEMAND-22.30 GB

[collapse]
Season05 Magnet Link

Magnet

Game.of.Thrones.S05.720p.BluRay.x264-DEMAND-22.34 GB

[collapse]
Season04 Magnet Link

Magnet

Game.of.Thrones.S04.720p.BluRay.x264-DEMAND-25.72 GB

[collapse]
Season03 Magnet Link

Magnet

Game.of.Thrones.S03.720p.BluRay.x264-DEMAND-24.19 GB

[collapse]
Season02 Magnet Link

Magnet

Game.of.Thrones.S02.720p.BluRay.X264-MIXED-22.94 GB

[collapse]
Season01 Magnet Link

Magnet

Game.of.Thrones.S01.720p.BluRay.X264-REWARD-23.96 GB

[collapse]

You may also like...

error: nah :p~