How to Get Away with Murder

TV-14 | 43min | Crime, Drama, Mystery | TV Series (2014– )

A group of ambitious law students and their brilliant criminal defense professor become involved in a twisted murder plot that promises to change the course of their lives.

Watch trailer

Details and Download | S05E03

General
Format : Matroska
Format version : Version 4
File size : 211 MiB
Duration : 41 min 20 s
Overall bit rate : 712 kb/s
Movie name : How.to.Get.Away.with.Murder.S05E03.720p.HDTV.2CH.x265.HEVC
Encoded date : UTC 2018-10-12 16:21:23
Writing application : mkvmerge v27.0.0 (‘Metropolis’) 32-bit
Writing library : libebml v1.3.6 + libmatroska v1.4.9

Video
ID : 1
Format : HEVC
Format/Info : High Efficiency Video Coding
Format profile : [email protected]@Main
Codec ID : V_MPEGH/ISO/HEVC
Duration : 41 min 20 s
Bit rate : 648 kb/s
Width : 1 280 pixels
Height : 720 pixels
Display aspect ratio : 16:9
Frame rate mode : Constant
Frame rate : 23.976 (24000/1001) FPS
Color space : YUV
Chroma subsampling : 4:2:0
Bit depth : 8 bits
Bits/(Pixel*Frame) : 0.029
Stream size : 192 MiB (91%)
Default : Yes
Forced : No

Audio
ID : 2
Format : AAC LC SBR
Commercial name : HE-AAC
Format settings : Explicit
Codec ID : A_AAC-2
Duration : 41 min 20 s
Bit rate : 62.2 kb/s
Channel(s) : 2 channels
Channel layout : L R
Sampling rate : 48.0 kHz
Frame rate : 23.438 FPS (2048 SPF)
Compression mode : Lossy
Delay relative to video : 23 ms
Stream size : 18.4 MiB (9%)
Language : English
Default : Yes
Forced : No

Text
ID : 3
Format : UTF-8
Codec ID : S_TEXT/UTF8
Codec ID/Info : UTF-8 Plain Text
Duration : 41 min 20 s
Bit rate : 104 b/s
Count of elements : 981
Stream size : 31.6 KiB (0%)
Language : English
Default : Yes
Forced : No

Download

Direct download files get automatically deleted after a month or so. Posted on : 10/12/2018

[collapse]
Details and Download | S05E02

General
Format : Matroska
Format version : Version 4
File size : 199 MiB
Duration : 41 min 21 s
Overall bit rate : 673 kb/s
Movie name : How.to.Get.Away.with.Murder.S05E02.720p.HDTV.2CH.x265.HEVC
Encoded date : UTC 2018-10-05 15:53:48
Writing application : mkvmerge v27.0.0 (‘Metropolis’) 32-bit
Writing library : libebml v1.3.6 + libmatroska v1.4.9

Video
ID : 1
Format : HEVC
Format/Info : High Efficiency Video Coding
Format profile : [email protected]@Main
Codec ID : V_MPEGH/ISO/HEVC
Duration : 41 min 21 s
Bit rate : 608 kb/s
Width : 1 280 pixels
Height : 720 pixels
Display aspect ratio : 16:9
Frame rate mode : Constant
Frame rate : 23.976 (24000/1001) FPS
Color space : YUV
Chroma subsampling : 4:2:0
Bit depth : 8 bits
Bits/(Pixel*Frame) : 0.028
Stream size : 180 MiB (90%)
Default : Yes
Forced : No

Audio
ID : 2
Format : AAC LC SBR
Commercial name : HE-AAC
Format settings : Explicit
Codec ID : A_AAC-2
Duration : 41 min 21 s
Bit rate : 62.7 kb/s
Channel(s) : 2 channels
Channel layout : L R
Sampling rate : 48.0 kHz
Frame rate : 23.438 FPS (2048 SPF)
Compression mode : Lossy
Delay relative to video : 23 ms
Stream size : 18.6 MiB (9%)
Language : English
Default : Yes
Forced : No

Text
ID : 3
Format : UTF-8
Codec ID : S_TEXT/UTF8
Codec ID/Info : UTF-8 Plain Text
Duration : 41 min 21 s
Bit rate : 97 b/s
Count of elements : 884
Stream size : 29.5 KiB (0%)
Language : English
Default : Yes
Forced : No

Download

Direct download files get automatically deleted after a month or so. Posted on : 10/05/2018

[collapse]
Details and Download | S05E01

General
Format : Matroska
Format version : Version 4
File size : 202 MiB
Duration : 43 min 0 s
Overall bit rate : 657 kb/s
Movie name : How.to.Get.Away.with.Murder.S05E01.Your.Funeral.720p.WEBRip.2CH.x265.HEVC
Encoded date : UTC 2018-09-29 11:25:04
Writing application : mkvmerge v27.0.0 (‘Metropolis’) 32-bit
Writing library : libebml v1.3.6 + libmatroska v1.4.9

Video
ID : 1
Format : HEVC
Format/Info : High Efficiency Video Coding
Format profile : [email protected]@Main
Codec ID : V_MPEGH/ISO/HEVC
Duration : 43 min 0 s
Bit rate : 588 kb/s
Width : 1 280 pixels
Height : 720 pixels
Display aspect ratio : 16:9
Frame rate mode : Constant
Frame rate : 23.976 (24000/1001) FPS
Color space : YUV
Chroma subsampling : 4:2:0
Bit depth : 8 bits
Bits/(Pixel*Frame) : 0.027
Stream size : 181 MiB (90%)
Default : Yes
Forced : No

Audio
ID : 2
Format : AAC LC SBR
Commercial name : HE-AAC
Format settings : Explicit
Codec ID : A_AAC-2
Duration : 43 min 0 s
Bit rate : 66.2 kb/s
Channel(s) : 2 channels
Channel layout : L R
Sampling rate : 48.0 kHz
Frame rate : 23.438 FPS (2048 SPF)
Compression mode : Lossy
Delay relative to video : 23 ms
Stream size : 20.5 MiB (10%)
Language : English
Default : Yes
Forced : No

Text
ID : 3
Format : UTF-8
Codec ID : S_TEXT/UTF8
Codec ID/Info : UTF-8 Plain Text
Duration : 42 min 49 s
Bit rate : 104 b/s
Count of elements : 1026
Stream size : 32.7 KiB (0%)
Language : English
Default : Yes
Forced : No

Download

Direct download files get automatically deleted after a month or so. Posted on : 09/29/2018

[collapse]

Details and Download | S04E15

General
Format : Matroska
Format version : Version 4 / Version 2
File size : 193 MiB
Duration : 43 min 3 s
Overall bit rate : 628 kb/s
Movie name : How.to.Get.Away.with.Murder.S04E15.Nobody.Else.Is.Dying.720p.WEBRip.2CH.x265.HEVC
Encoded date : UTC 2018-03-16 17:26:11
Writing application : mkvmerge v21.0.0 (‘Tardigrades Will Inherit The Earth’) 32-bit
Writing library : libebml v1.3.5 + libmatroska v1.4.8

Video
ID : 1
Format : HEVC
Format/Info : High Efficiency Video Coding
Format profile : [email protected]@Main
Codec ID : V_MPEGH/ISO/HEVC
Duration : 43 min 3 s
Bit rate : 559 kb/s
Width : 1 280 pixels
Height : 720 pixels
Display aspect ratio : 16:9
Frame rate mode : Constant
Frame rate : 23.976 (24000/1001) FPS
Color space : YUV
Chroma subsampling : 4:2:0
Bit depth : 8 bits
Bits/(Pixel*Frame) : 0.025
Stream size : 172 MiB (89%)
Default : Yes
Forced : No

Audio
ID : 2
Format : AAC
Format/Info : Advanced Audio Codec
Format profile : HE-AAC / LC
Format settings : Explicit
Codec ID : A_AAC-2
Duration : 43 min 2 s
Bit rate : 66.2 kb/s
Channel(s) : 2 channels
Channel positions : Front: L R
Sampling rate : 48.0 kHz / 24.0 kHz
Frame rate : 23.438 FPS (1024 SPF)
Compression mode : Lossy
Delay relative to video : 23 ms
Stream size : 20.5 MiB (11%)
Default : Yes
Forced : No

Text
ID : 3
Format : UTF-8
Codec ID : S_TEXT/UTF8
Codec ID/Info : UTF-8 Plain Text
Duration : 42 min 49 s
Bit rate : 101 b/s
Count of elements : 1089
Stream size : 31.8 KiB (0%)
Default : Yes
Forced : No

Download

Direct download files get automatically deleted after a month or so. Posted on : 03/16/2018

[collapse]
Details and Download | S04E14

General
Format : Matroska
Format version : Version 4 / Version 2
File size : 189 MiB
Duration : 43 min 1 s
Overall bit rate : 613 kb/s
Movie name : How.to.Get.Away.with.Murder.S04E14.The.Day.Before.He.Died.720p.WEBRip.2CH.x265.HEVC
Encoded date : UTC 2018-03-09 22:37:08
Writing application : mkvmerge v21.0.0 (‘Tardigrades Will Inherit The Earth’) 32-bit
Writing library : libebml v1.3.5 + libmatroska v1.4.8

Video
ID : 1
Format : HEVC
Format/Info : High Efficiency Video Coding
Format profile : [email protected]@Main
Codec ID : V_MPEGH/ISO/HEVC
Duration : 43 min 1 s
Bit rate : 547 kb/s
Width : 1 280 pixels
Height : 720 pixels
Display aspect ratio : 16:9
Frame rate mode : Constant
Frame rate : 23.976 (24000/1001) FPS
Color space : YUV
Chroma subsampling : 4:2:0
Bit depth : 8 bits
Bits/(Pixel*Frame) : 0.025
Stream size : 168 MiB (89%)
Default : Yes
Forced : No

Audio
ID : 2
Format : AAC
Format/Info : Advanced Audio Codec
Format profile : HE-AAC / LC
Format settings : Explicit
Codec ID : A_AAC-2
Duration : 43 min 1 s
Bit rate : 64.7 kb/s
Channel(s) : 2 channels
Channel positions : Front: L R
Sampling rate : 48.0 kHz / 24.0 kHz
Frame rate : 23.438 FPS (1024 SPF)
Compression mode : Lossy
Delay relative to video : 23 ms
Stream size : 19.9 MiB (11%)
Default : Yes
Forced : No

Text
ID : 3
Format : UTF-8
Codec ID : S_TEXT/UTF8
Codec ID/Info : UTF-8 Plain Text
Duration : 42 min 47 s
Bit rate : 90 b/s
Count of elements : 994
Stream size : 28.4 KiB (0%)
Default : Yes
Forced : No

Download

Direct download files get automatically deleted after a month or so. Posted on : 03/10/2018

[collapse]
Details and Download | S04E13

General
Format : Matroska
Format version : Version 4 / Version 2
File size : 197 MiB
Duration : 42 min 8 s
Overall bit rate : 652 kb/s
Movie name : How.to.Get.Away.with.Murder.S04E13.720p.HDTV.2CH.x265.HEVC
Encoded date : UTC 2018-03-02 09:19:31
Writing application : mkvmerge v21.0.0 (‘Tardigrades Will Inherit The Earth’) 32-bit
Writing library : libebml v1.3.5 + libmatroska v1.4.8

Video
ID : 1
Format : HEVC
Format/Info : High Efficiency Video Coding
Format profile : [email protected]@Main
Codec ID : V_MPEGH/ISO/HEVC
Duration : 42 min 8 s
Bit rate : 585 kb/s
Width : 1 280 pixels
Height : 716 pixels
Display aspect ratio : 16:9
Frame rate mode : Constant
Frame rate : 23.976 (24000/1001) FPS
Color space : YUV
Chroma subsampling : 4:2:0
Bit depth : 8 bits
Bits/(Pixel*Frame) : 0.027
Stream size : 176 MiB (90%)
Default : Yes
Forced : No
Color range : Limited
Color primaries : BT.709
Transfer characteristics : BT.709
Matrix coefficients : BT.709

Audio
ID : 2
Format : AAC
Format/Info : Advanced Audio Codec
Format profile : HE-AAC / LC
Format settings : Explicit
Codec ID : A_AAC-2
Duration : 42 min 8 s
Bit rate : 64.6 kb/s
Channel(s) : 2 channels
Channel positions : Front: L R
Sampling rate : 48.0 kHz / 24.0 kHz
Frame rate : 23.438 FPS (1024 SPF)
Compression mode : Lossy
Delay relative to video : 23 ms
Stream size : 19.5 MiB (10%)
Default : Yes
Forced : No

Text
ID : 3
Format : UTF-8
Codec ID : S_TEXT/UTF8
Codec ID/Info : UTF-8 Plain Text
Duration : 42 min 4 s
Bit rate : 95 b/s
Count of elements : 853
Stream size : 29.5 KiB (0%)
Default : Yes
Forced : No

Download

Direct download files get automatically deleted after a month or so. Posted on : 03/02/2018

[collapse]
Details and Download | S04E12

General
Format : Matroska
Format version : Version 4 / Version 2
File size : 207 MiB
Duration : 42 min 26 s
Overall bit rate : 682 kb/s
Movie name : How.to.Get.Away.with.Murder.S04E12.720p.HDTV.2CH.x265.HEVC
Encoded date : UTC 2018-02-09 09:40:35
Writing application : mkvmerge v20.0.0 (‘I Am The Sun’) 32-bit
Writing library : libebml v1.3.5 + libmatroska v1.4.8

Video
ID : 1
Format : HEVC
Format/Info : High Efficiency Video Coding
Format profile : [email protected]@Main
Codec ID : V_MPEGH/ISO/HEVC
Duration : 42 min 26 s
Bit rate : 613 kb/s
Width : 1 280 pixels
Height : 716 pixels
Display aspect ratio : 16:9
Frame rate mode : Constant
Frame rate : 23.976 (24000/1001) FPS
Color space : YUV
Chroma subsampling : 4:2:0
Bit depth : 8 bits
Bits/(Pixel*Frame) : 0.028
Stream size : 186 MiB (90%)
Default : Yes
Forced : No
Color range : Limited
Color primaries : BT.709
Transfer characteristics : BT.709
Matrix coefficients : BT.709

Audio
ID : 2
Format : AAC
Format/Info : Advanced Audio Codec
Format profile : HE-AAC / LC
Format settings : Explicit
Codec ID : A_AAC-2
Duration : 42 min 26 s
Bit rate : 66.2 kb/s
Channel(s) : 2 channels
Channel positions : Front: L R
Sampling rate : 48.0 kHz / 24.0 kHz
Frame rate : 23.438 FPS (1024 SPF)
Compression mode : Lossy
Delay relative to video : 23 ms
Stream size : 20.3 MiB (10%)
Default : Yes
Forced : No

Text #1
ID : 3
Format : UTF-8
Codec ID : S_TEXT/UTF8
Codec ID/Info : UTF-8 Plain Text
Duration : 5 s 0 ms
Bit rate : 65 b/s
Count of elements : 1
Stream size : 41.0 Bytes (0%)
Default : Yes
Forced : No

Text #2
ID : 4
Format : UTF-8
Codec ID : S_TEXT/UTF8
Codec ID/Info : UTF-8 Plain Text
Duration : 42 min 22 s
Bit rate : 87 b/s
Count of elements : 820
Stream size : 27.2 KiB (0%)
Default : No
Forced : No

Download

Direct download files get automatically deleted after a month or so. Posted on : 02/09/2018

[collapse]
Details and Download | S04E11

General
Format : Matroska
Format version : Version 4 / Version 2
File size : 210 MiB
Duration : 43 min 1 s
Overall bit rate : 684 kb/s
Movie name : How.to.Get.Away.with.Murder.S04E11.Hes.a.Bad.Father.720p.WEBRip.2CH.x265.HEVC
Encoded date : UTC 2018-02-09 14:18:56
Writing application : mkvmerge v20.0.0 (‘I Am The Sun’) 32-bit
Writing library : libebml v1.3.5 + libmatroska v1.4.8

Video
ID : 1
Format : HEVC
Format/Info : High Efficiency Video Coding
Format profile : [email protected]@Main
Codec ID : V_MPEGH/ISO/HEVC
Duration : 43 min 1 s
Bit rate : 616 kb/s
Width : 1 280 pixels
Height : 720 pixels
Display aspect ratio : 16:9
Frame rate mode : Constant
Frame rate : 23.976 (24000/1001) FPS
Color space : YUV
Chroma subsampling : 4:2:0
Bit depth : 8 bits
Bits/(Pixel*Frame) : 0.028
Stream size : 190 MiB (90%)
Default : Yes
Forced : No

Audio
ID : 2
Format : AAC
Format/Info : Advanced Audio Codec
Format profile : HE-AAC / LC
Format settings : Explicit
Codec ID : A_AAC-2
Duration : 43 min 0 s
Bit rate : 66.2 kb/s
Channel(s) : 2 channels
Channel positions : Front: L R
Sampling rate : 48.0 kHz / 24.0 kHz
Frame rate : 23.438 FPS (1024 SPF)
Compression mode : Lossy
Delay relative to video : 23 ms
Stream size : 20.1 MiB (10%)
Default : Yes
Forced : No

Text
ID : 3
Format : UTF-8
Codec ID : S_TEXT/UTF8
Codec ID/Info : UTF-8 Plain Text
Duration : 42 min 48 s
Bit rate : 94 b/s
Count of elements : 925
Stream size : 29.5 KiB (0%)
Default : Yes
Forced : No

Download

Direct download files get automatically deleted after a month or so. Posted on : 02/09/2018

[collapse]
Details and Download | S04E10

General
Format : Matroska
Format version : Version 4 / Version 2
File size : 206 MiB
Duration : 42 min 20 s
Overall bit rate : 682 kb/s
Movie name : How.to.Get.Away.with.Murder.S04E10.720p.HDTV.2CH.x265.HEVC
Encoded date : UTC 2018-01-26 08:12:21
Writing application : mkvmerge v20.0.0 (‘I Am The Sun’) 32-bit
Writing library : libebml v1.3.5 + libmatroska v1.4.8

Video
ID : 1
Format : HEVC
Format/Info : High Efficiency Video Coding
Format profile : [email protected]@Main
Codec ID : V_MPEGH/ISO/HEVC
Duration : 42 min 20 s
Bit rate : 614 kb/s
Width : 1 280 pixels
Height : 716 pixels
Display aspect ratio : 16:9
Frame rate mode : Constant
Frame rate : 23.976 (24000/1001) FPS
Color space : YUV
Chroma subsampling : 4:2:0
Bit depth : 8 bits
Bits/(Pixel*Frame) : 0.028
Stream size : 186 MiB (90%)
Default : Yes
Forced : No
Color range : Limited
Color primaries : BT.709
Transfer characteristics : BT.709
Matrix coefficients : BT.709

Audio
ID : 2
Format : AAC
Format/Info : Advanced Audio Codec
Format profile : HE-AAC / LC
Format settings : Explicit
Codec ID : A_AAC-2
Duration : 42 min 20 s
Bit rate : 66.2 kb/s
Channel(s) : 2 channels
Channel positions : Front: L R
Sampling rate : 48.0 kHz / 24.0 kHz
Frame rate : 23.438 FPS (1024 SPF)
Compression mode : Lossy
Delay relative to video : 23 ms
Stream size : 19.8 MiB (10%)
Default : Yes
Forced : No

Text
ID : 3
Format : UTF-8
Codec ID : S_TEXT/UTF8
Codec ID/Info : UTF-8 Plain Text
Duration : 42 min 15 s
Bit rate : 97 b/s
Count of elements : 975
Stream size : 30.1 KiB (0%)
Default : Yes
Forced : No

Download

Direct download files get automatically deleted after a month or so. Posted on : 01/26/2018

[collapse]
Details and Download | S04E09

General
Format : Matroska
Format version : Version 4 / Version 2
File size : 216 MiB
Duration : 41 min 25 s
Overall bit rate : 728 kb/s
Movie name : How.to.Get.Away.with.Murder.S04E09.720p.HDTV.2CH.x265.HEVC
Encoded date : UTC 2018-01-19 13:56:48
Writing application : mkvmerge v20.0.0 (‘I Am The Sun’) 32-bit
Writing library : libebml v1.3.5 + libmatroska v1.4.8

Video
ID : 1
Format : HEVC
Format/Info : High Efficiency Video Coding
Format profile : [email protected]@Main
Codec ID : V_MPEGH/ISO/HEVC
Duration : 41 min 25 s
Bit rate : 661 kb/s
Width : 1 280 pixels
Height : 720 pixels
Display aspect ratio : 16:9
Frame rate mode : Constant
Frame rate : 23.976 (24000/1001) FPS
Color space : YUV
Chroma subsampling : 4:2:0
Bit depth : 8 bits
Bits/(Pixel*Frame) : 0.030
Stream size : 196 MiB (91%)
Default : Yes
Forced : No
Color range : Limited
Color primaries : BT.709
Transfer characteristics : BT.709
Matrix coefficients : BT.709

Audio
ID : 2
Format : AAC
Format/Info : Advanced Audio Codec
Format profile : HE-AAC / LC
Format settings : Explicit
Codec ID : A_AAC-2
Duration : 41 min 25 s
Bit rate : 66.2 kb/s
Channel(s) : 2 channels
Channel positions : Front: L R
Sampling rate : 48.0 kHz / 24.0 kHz
Frame rate : 23.438 FPS (1024 SPF)
Compression mode : Lossy
Delay relative to video : 23 ms
Stream size : 19.3 MiB (9%)
Default : Yes
Forced : No

Text
ID : 3
Format : UTF-8
Codec ID : S_TEXT/UTF8
Codec ID/Info : UTF-8 Plain Text
Duration : 41 min 23 s
Bit rate : 98 b/s
Count of elements : 956
Stream size : 29.8 KiB (0%)
Default : Yes
Forced : No

Download

Direct download files get automatically deleted after a month or so. Posted on : 01/19/2018

[collapse]
Details and Download | S04E08

General
Format : Matroska
Format version : Version 4 / Version 2
File size : 221 MiB
Duration : 41 min 51 s
Overall bit rate : 738 kb/s
Movie name : How.to.Get.Away.with.Murder.S04E08.720p.HDTV.2CH.x265.HEVC
Encoded date : UTC 2017-11-17 15:51:58
Writing application : mkvmerge v17.0.0 (‘Be Ur Friend’) 32-bit
Writing library : libebml v1.3.5 + libmatroska v1.4.8

Video
ID : 1
Format : HEVC
Format/Info : High Efficiency Video Coding
Format profile : [email protected]@Main
Codec ID : V_MPEGH/ISO/HEVC
Duration : 41 min 51 s
Bit rate : 672 kb/s
Width : 1 280 pixels
Height : 716 pixels
Display aspect ratio : 16:9
Frame rate mode : Constant
Frame rate : 23.976 (24000/1001) FPS
Color space : YUV
Chroma subsampling : 4:2:0
Bit depth : 8 bits
Bits/(Pixel*Frame) : 0.031
Stream size : 201 MiB (91%)
Default : Yes
Forced : No
Color range : Limited
Color primaries : BT.709
Transfer characteristics : BT.709
Matrix coefficients : BT.709

Audio
ID : 2
Format : AAC
Format/Info : Advanced Audio Codec
Format profile : HE-AAC / LC
Format settings : Explicit
Codec ID : A_AAC-2
Duration : 41 min 51 s
Bit rate : 64.3 kb/s
Channel(s) : 2 channels
Channel positions : Front: L R
Sampling rate : 48.0 kHz / 24.0 kHz
Frame rate : 23.438 FPS (1024 SPF)
Compression mode : Lossy
Delay relative to video : 23 ms
Stream size : 19.2 MiB (9%)
Default : Yes
Forced : No

Text
ID : 3
Format : UTF-8
Codec ID : S_TEXT/UTF8
Codec ID/Info : UTF-8 Plain Text
Duration : 41 min 47 s
Bit rate : 85 b/s
Count of elements : 955
Stream size : 26.3 KiB (0%)
Default : Yes
Forced : No

Download

[collapse]
Details and Download | S04E07

General
Format : Matroska
Format version : Version 4 / Version 2
File size : 184 MiB
Duration : 42 min 22 s
Overall bit rate : 607 kb/s
Movie name : How.to.Get.Away.with.Murder.S04E07.720p.HDTV.2CH.x265.HEVC
Encoded date : UTC 2017-11-11 15:22:18
Writing application : mkvmerge v17.0.0 (‘Be Ur Friend’) 32-bit
Writing library : libebml v1.3.5 + libmatroska v1.4.8

Video
ID : 1
Format : HEVC
Format/Info : High Efficiency Video Coding
Format profile : [email protected]@Main
Codec ID : V_MPEGH/ISO/HEVC
Duration : 42 min 22 s
Bit rate : 539 kb/s
Width : 1 280 pixels
Height : 716 pixels
Display aspect ratio : 16:9
Frame rate mode : Constant
Frame rate : 23.976 (24000/1001) FPS
Color space : YUV
Chroma subsampling : 4:2:0
Bit depth : 8 bits
Bits/(Pixel*Frame) : 0.025
Stream size : 163 MiB (89%)
Default : Yes
Forced : No
Color range : Limited
Color primaries : BT.709
Transfer characteristics : BT.709
Matrix coefficients : BT.709

Audio
ID : 2
Format : AAC
Format/Info : Advanced Audio Codec
Format profile : HE-AAC / LC
Format settings : Explicit
Codec ID : A_AAC-2
Duration : 42 min 22 s
Bit rate : 66.2 kb/s
Channel(s) : 2 channels
Channel positions : Front: L R
Sampling rate : 48.0 kHz / 24.0 kHz
Frame rate : 23.438 FPS (1024 SPF)
Compression mode : Lossy
Delay relative to video : 23 ms
Stream size : 20.0 MiB (11%)
Default : Yes
Forced : No

Text
ID : 3
Format : UTF-8
Codec ID : S_TEXT/UTF8
Codec ID/Info : UTF-8 Plain Text
Duration : 42 min 17 s
Bit rate : 100 b/s
Count of elements : 970
Stream size : 31.2 KiB (0%)
Default : Yes
Forced : No

Download

[collapse]
Details and Download | S04E06

General
Format : Matroska
Format version : Version 4 / Version 2
File size : 183 MiB
Duration : 42 min 26 s
Overall bit rate : 602 kb/s
Movie name : How.to.Get.Away.with.Murder.S04E06.720p.HDTV.2CH.x265.HEVC
Encoded date : UTC 2017-11-03 09:18:35
Writing application : mkvmerge v17.0.0 (‘Be Ur Friend’) 32-bit
Writing library : libebml v1.3.5 + libmatroska v1.4.8

Video
ID : 1
Format : HEVC
Format/Info : High Efficiency Video Coding
Format profile : [email protected]@Main
Codec ID : V_MPEGH/ISO/HEVC
Duration : 42 min 26 s
Bit rate : 536 kb/s
Width : 1 280 pixels
Height : 716 pixels
Display aspect ratio : 16:9
Frame rate mode : Constant
Frame rate : 23.976 (24000/1001) FPS
Color space : YUV
Chroma subsampling : 4:2:0
Bit depth : 8 bits
Bits/(Pixel*Frame) : 0.024
Stream size : 163 MiB (89%)
Default : Yes
Forced : No
Color range : Limited
Color primaries : BT.709
Transfer characteristics : BT.709
Matrix coefficients : BT.709

Audio
ID : 2
Format : AAC
Format/Info : Advanced Audio Codec
Format profile : HE-AAC / LC
Format settings : Explicit
Codec ID : A_AAC-2
Duration : 42 min 26 s
Bit rate : 64.2 kb/s
Channel(s) : 2 channels
Channel positions : Front: L R
Sampling rate : 48.0 kHz / 24.0 kHz
Frame rate : 23.438 FPS (1024 SPF)
Compression mode : Lossy
Delay relative to video : 23 ms
Stream size : 19.5 MiB (11%)
Default : Yes
Forced : No

Text
ID : 3
Format : UTF-8
Codec ID : S_TEXT/UTF8
Codec ID/Info : UTF-8 Plain Text
Duration : 42 min 22 s
Bit rate : 107 b/s
Count of elements : 1017
Stream size : 33.4 KiB (0%)
Default : Yes
Forced : No

Download

[collapse]
Details and Download | S04E05

General
Format : Matroska
Format version : Version 4 / Version 2
File size : 204 MiB
Duration : 42 min 59 s
Overall bit rate : 663 kb/s
Movie name : How.to.Get.Away.with.Murder.S04E05.720p.HDTV.2CH.x265.HEVC
Encoded date : UTC 2017-10-28 15:30:36
Writing application : mkvmerge v17.0.0 (‘Be Ur Friend’) 32-bit
Writing library : libebml v1.3.5 + libmatroska v1.4.8

Video
ID : 1
Format : HEVC
Format/Info : High Efficiency Video Coding
Format profile : [email protected]@Main
Codec ID : V_MPEGH/ISO/HEVC
Duration : 42 min 59 s
Bit rate : 594 kb/s
Width : 1 280 pixels
Height : 716 pixels
Display aspect ratio : 16:9
Frame rate mode : Constant
Frame rate : 23.976 (24000/1001) FPS
Color space : YUV
Chroma subsampling : 4:2:0
Bit depth : 8 bits
Bits/(Pixel*Frame) : 0.027
Stream size : 183 MiB (90%)
Default : Yes
Forced : No
Color range : Limited
Color primaries : BT.709
Transfer characteristics : BT.709
Matrix coefficients : BT.709

Audio
ID : 2
Format : AAC
Format/Info : Advanced Audio Codec
Format profile : HE-AAC / LC
Format settings : Explicit
Codec ID : A_AAC-2
Duration : 42 min 59 s
Bit rate : 66.2 kb/s
Channel(s) : 2 channels
Channel positions : Front: L R
Sampling rate : 48.0 kHz / 24.0 kHz
Frame rate : 23.438 FPS (1024 SPF)
Compression mode : Lossy
Delay relative to video : 23 ms
Stream size : 20.7 MiB (10%)
Default : Yes
Forced : No

Text
ID : 3
Format : UTF-8
Codec ID : S_TEXT/UTF8
Codec ID/Info : UTF-8 Plain Text
Duration : 42 min 21 s
Bit rate : 92 b/s
Count of elements : 921
Stream size : 28.6 KiB (0%)
Default : Yes
Forced : No

Download

[collapse]
Details and Download | S04E04

General
Format : Matroska
Format version : Version 4 / Version 2
File size : 220 MiB
Duration : 43 min 3 s
Overall bit rate : 714 kb/s
Movie name : How.to.Get.Away.with.Murder.S04E04.Was.She.Ever.Good.at.Her.Job.720p.WEBRip.2CH.x265.HEVC
Encoded date : UTC 2017-10-28 15:29:00
Writing application : mkvmerge v17.0.0 (‘Be Ur Friend’) 32-bit
Writing library : libebml v1.3.5 + libmatroska v1.4.8

Video
ID : 1
Format : HEVC
Format/Info : High Efficiency Video Coding
Format profile : [email protected]@Main
Codec ID : V_MPEGH/ISO/HEVC
Duration : 43 min 3 s
Bit rate : 647 kb/s
Width : 1 280 pixels
Height : 720 pixels
Display aspect ratio : 16:9
Frame rate mode : Constant
Frame rate : 23.976 (24000/1001) FPS
Color space : YUV
Chroma subsampling : 4:2:0
Bit depth : 8 bits
Bits/(Pixel*Frame) : 0.029
Stream size : 199 MiB (91%)
Default : Yes
Forced : No

Audio
ID : 2
Format : AAC
Format/Info : Advanced Audio Codec
Format profile : HE-AAC / LC
Format settings : Explicit
Codec ID : A_AAC-2
Duration : 43 min 2 s
Bit rate : 64.7 kb/s
Channel(s) : 2 channels
Channel positions : Front: L R
Sampling rate : 48.0 kHz / 24.0 kHz
Frame rate : 23.438 FPS (1024 SPF)
Compression mode : Lossy
Delay relative to video : 23 ms
Stream size : 19.9 MiB (9%)
Default : Yes
Forced : No

Text
ID : 3
Format : UTF-8
Codec ID : S_TEXT/UTF8
Codec ID/Info : UTF-8 Plain Text
Duration : 42 min 42 s
Bit rate : 93 b/s
Count of elements : 1005
Stream size : 29.4 KiB (0%)
Default : Yes
Forced : No

Download

[collapse]
Details and Download | S04E03

General
Format : Matroska
Format version : Version 4 / Version 2
File size : 197 MiB
Duration : 42 min 58 s
Overall bit rate : 642 kb/s
Movie name : How.to.Get.Away.with.Murder.S04E03.It’s.for.the.Greater.Good.720p.WEBRip.2CH.x265.HEVC
Encoded date : UTC 2017-10-28 15:28:37
Writing application : mkvmerge v17.0.0 (‘Be Ur Friend’) 32-bit
Writing library : libebml v1.3.5 + libmatroska v1.4.8

Video
ID : 1
Format : HEVC
Format/Info : High Efficiency Video Coding
Format profile : [email protected]@Main
Codec ID : V_MPEGH/ISO/HEVC
Duration : 42 min 58 s
Bit rate : 574 kb/s
Width : 1 280 pixels
Height : 720 pixels
Display aspect ratio : 16:9
Frame rate mode : Constant
Frame rate : 23.976 (24000/1001) FPS
Color space : YUV
Chroma subsampling : 4:2:0
Bit depth : 8 bits
Bits/(Pixel*Frame) : 0.026
Stream size : 176 MiB (89%)
Default : Yes
Forced : No

Audio
ID : 2
Format : AAC
Format/Info : Advanced Audio Codec
Format profile : HE-AAC / LC
Format settings : Explicit
Codec ID : A_AAC-2
Duration : 42 min 58 s
Bit rate : 66.2 kb/s
Channel(s) : 2 channels
Channel positions : Front: L R
Sampling rate : 48.0 kHz / 24.0 kHz
Frame rate : 23.438 FPS (1024 SPF)
Compression mode : Lossy
Delay relative to video : 23 ms
Stream size : 20.4 MiB (10%)
Default : Yes
Forced : No

Text
ID : 3
Format : UTF-8
Codec ID : S_TEXT/UTF8
Codec ID/Info : UTF-8 Plain Text
Duration : 42 min 38 s
Bit rate : 95 b/s
Count of elements : 1011
Stream size : 29.8 KiB (0%)
Default : Yes
Forced : No

Download

[collapse]
Details and Download | S04E02

General
Format : Matroska
Format version : Version 4 / Version 2
File size : 195 MiB
Duration : 42 min 53 s
Overall bit rate : 635 kb/s
Movie name : How.to.Get.Away.with.Murder.S04E02.Im.Not.Her.720p.WEBRip.2CH.x265.HEVC
Encoded date : UTC 2017-10-28 15:28:11
Writing application : mkvmerge v17.0.0 (‘Be Ur Friend’) 32-bit
Writing library : libebml v1.3.5 + libmatroska v1.4.8

Video
ID : 1
Format : HEVC
Format/Info : High Efficiency Video Coding
Format profile : [email protected]@Main
Codec ID : V_MPEGH/ISO/HEVC
Duration : 42 min 53 s
Bit rate : 567 kb/s
Width : 1 280 pixels
Height : 720 pixels
Display aspect ratio : 16:9
Frame rate mode : Constant
Frame rate : 23.976 (24000/1001) FPS
Color space : YUV
Chroma subsampling : 4:2:0
Bit depth : 8 bits
Bits/(Pixel*Frame) : 0.026
Stream size : 174 MiB (89%)
Default : Yes
Forced : No

Audio
ID : 2
Format : AAC
Format/Info : Advanced Audio Codec
Format profile : HE-AAC / LC
Format settings : Explicit
Codec ID : A_AAC-2
Duration : 42 min 53 s
Bit rate : 66.2 kb/s
Channel(s) : 2 channels
Channel positions : Front: L R
Sampling rate : 48.0 kHz / 24.0 kHz
Frame rate : 23.438 FPS (1024 SPF)
Compression mode : Lossy
Delay relative to video : 23 ms
Stream size : 20.2 MiB (10%)
Default : Yes
Forced : No

Text
ID : 3
Format : UTF-8
Codec ID : S_TEXT/UTF8
Codec ID/Info : UTF-8 Plain Text
Duration : 42 min 43 s
Bit rate : 100 b/s
Count of elements : 989
Stream size : 31.3 KiB (0%)
Default : Yes
Forced : No

Download

[collapse]
Details and Download | S04E01

General
Format : Matroska
Format version : Version 4 / Version 2
File size : 213 MiB
Duration : 43 min 2 s
Overall bit rate : 692 kb/s
Movie name : How.to.Get.Away.with.Murder.S04E01.I’m.Going.Away.720p.WEBRip.2CH.x265.HEVC
Encoded date : UTC 2017-10-28 15:27:49
Writing application : mkvmerge v17.0.0 (‘Be Ur Friend’) 32-bit
Writing library : libebml v1.3.5 + libmatroska v1.4.8

Video
ID : 1
Format : HEVC
Format/Info : High Efficiency Video Coding
Format profile : [email protected]@Main
Codec ID : V_MPEGH/ISO/HEVC
Duration : 43 min 2 s
Bit rate : 626 kb/s
Width : 1 280 pixels
Height : 720 pixels
Display aspect ratio : 16:9
Frame rate mode : Constant
Frame rate : 23.976 (24000/1001) FPS
Color space : YUV
Chroma subsampling : 4:2:0
Bit depth : 8 bits
Bits/(Pixel*Frame) : 0.028
Stream size : 193 MiB (90%)
Default : Yes
Forced : No

Audio
ID : 2
Format : AAC
Format/Info : Advanced Audio Codec
Format profile : HE-AAC / LC
Format settings : Explicit
Codec ID : A_AAC-2
Duration : 43 min 2 s
Bit rate : 63.8 kb/s
Channel(s) : 2 channels
Channel positions : Front: L R
Sampling rate : 48.0 kHz / 24.0 kHz
Frame rate : 23.438 FPS (1024 SPF)
Compression mode : Lossy
Delay relative to video : 23 ms
Stream size : 19.6 MiB (9%)
Default : Yes
Forced : No

Text
ID : 3
Format : UTF-8
Codec ID : S_TEXT/UTF8
Codec ID/Info : UTF-8 Plain Text
Duration : 42 min 44 s
Bit rate : 79 b/s
Count of elements : 842
Stream size : 25.0 KiB (0%)
Default : Yes
Forced : No

Download

[collapse]

You may also like...

error: nah :p~