In Search of…

Documentary | TV Series (2018– )

Documentary series hosted by Zachary Quinto based on the 1970s series that examined unexplained phenomena from all over the world.

Watch trailer

Details and Download | S01E04

General
Format : Matroska
Format version : Version 4 / Version 2
File size : 352 MiB
Duration : 41 min 39 s
Overall bit rate : 1 183 kb/s
Movie name : In.Search.Of.2018.S01E04.720p.WEBRip.2CH.x265.HEVC
Encoded date : UTC 2018-08-11 18:57:58
Writing application : mkvmerge v25.0.0 (‘Prog Noir’) 32-bit
Writing library : libebml v1.3.6 + libmatroska v1.4.9

Video
ID : 1
Format : HEVC
Format/Info : High Efficiency Video Coding
Format profile : [email protected]@Main
Codec ID : V_MPEGH/ISO/HEVC
Duration : 41 min 38 s
Bit rate : 1 083 kb/s
Width : 1 280 pixels
Height : 720 pixels
Display aspect ratio : 16:9
Frame rate mode : Constant
Frame rate : 23.976 (24000/1001) FPS
Color space : YUV
Chroma subsampling : 4:2:0
Bit depth : 8 bits
Bits/(Pixel*Frame) : 0.049
Stream size : 323 MiB (92%)
Default : Yes
Forced : No
Color range : Limited
Color primaries : BT.709
Transfer characteristics : BT.709
Matrix coefficients : BT.709

Audio
ID : 2
Format : Opus
Codec ID : A_OPUS
Duration : 41 min 39 s
Bit rate : 97.4 kb/s
Channel(s) : 2 channels
Channel positions : Front: L R
Sampling rate : 48.0 kHz
Frame rate : 50.000 FPS (960 SPF)
Compression mode : Lossy
Stream size : 29.0 MiB (8%)
Title : Stereo
Default : Yes
Forced : No

Text
ID : 3
Format : ASS
Codec ID : S_TEXT/ASS
Codec ID/Info : Advanced Sub Station Alpha
Duration : 41 min 25 s
Bit rate : 203 b/s
Count of elements : 689
Compression mode : Lossless
Stream size : 61.8 KiB (0%)
Language : English
Default : Yes
Forced : Yes

Download

Direct download files get automatically deleted after a month or so. Posted on : 08/11/2018

[collapse]
Details and Download | S01E03

General
Format : Matroska
Format version : Version 4 / Version 2
File size : 585 MiB
Duration : 41 min 40 s
Overall bit rate : 1 963 kb/s
Movie name : In.Search.Of.2018.S01E03.720p.WEB-DL.2CH.x265.HEVC
Encoded date : UTC 2018-08-04 17:05:03
Writing application : mkvmerge v25.0.0 (‘Prog Noir’) 32-bit
Writing library : libebml v1.3.6 + libmatroska v1.4.9

Video
ID : 1
Format : HEVC
Format/Info : High Efficiency Video Coding
Format profile : [email protected]@Main
Codec ID : V_MPEGH/ISO/HEVC
Duration : 41 min 40 s
Bit rate : 1 867 kb/s
Width : 1 280 pixels
Height : 720 pixels
Display aspect ratio : 16:9
Frame rate mode : Constant
Frame rate : 23.976 (24000/1001) FPS
Color space : YUV
Chroma subsampling : 4:2:0
Bit depth : 8 bits
Bits/(Pixel*Frame) : 0.084
Stream size : 556 MiB (95%)
Default : Yes
Forced : No
Color range : Limited
Color primaries : BT.709
Transfer characteristics : BT.709
Matrix coefficients : BT.709

Audio
ID : 2
Format : Opus
Codec ID : A_OPUS
Duration : 41 min 40 s
Bit rate : 93.7 kb/s
Channel(s) : 2 channels
Channel positions : Front: L R
Sampling rate : 48.0 kHz
Frame rate : 50.000 FPS (960 SPF)
Compression mode : Lossy
Stream size : 27.9 MiB (5%)
Title : Stereo
Default : Yes
Forced : No

Text
ID : 3
Format : ASS
Codec ID : S_TEXT/ASS
Codec ID/Info : Advanced Sub Station Alpha
Duration : 41 min 27 s
Bit rate : 237 b/s
Count of elements : 789
Compression mode : Lossless
Stream size : 72.2 KiB (0%)
Default : Yes
Forced : Yes

Download

Direct download files get automatically deleted after a month or so. Posted on : 08/04/2018

[collapse]
Details and Download | S01E02

General
Format : Matroska
Format version : Version 4 / Version 2
File size : 538 MiB
Duration : 41 min 39 s
Overall bit rate : 1 805 kb/s
Movie name : In.Search.Of.2018.S01E02.720p.WEBRip.2CH.x265.HEVC
Encoded date : UTC 2018-07-30 06:55:04
Writing application : mkvmerge v25.0.0 (‘Prog Noir’) 32-bit
Writing library : libebml v1.3.6 + libmatroska v1.4.9

Video
ID : 1
Format : HEVC
Format/Info : High Efficiency Video Coding
Format profile : [email protected]@Main
Codec ID : V_MPEGH/ISO/HEVC
Duration : 41 min 38 s
Bit rate : 1 705 kb/s
Width : 1 280 pixels
Height : 720 pixels
Display aspect ratio : 16:9
Frame rate mode : Constant
Frame rate : 23.976 (24000/1001) FPS
Color space : YUV
Chroma subsampling : 4:2:0
Bit depth : 8 bits
Bits/(Pixel*Frame) : 0.077
Stream size : 508 MiB (94%)
Default : Yes
Forced : No
Color range : Limited
Color primaries : BT.709
Transfer characteristics : BT.709
Matrix coefficients : BT.709

Audio
ID : 2
Format : Opus
Codec ID : A_OPUS
Duration : 41 min 39 s
Bit rate : 97.9 kb/s
Channel(s) : 2 channels
Channel positions : Front: L R
Sampling rate : 48.0 kHz
Frame rate : 50.000 FPS (960 SPF)
Compression mode : Lossy
Stream size : 29.2 MiB (5%)
Title : Stereo
Default : Yes
Forced : No

Text
ID : 3
Format : ASS
Codec ID : S_TEXT/ASS
Codec ID/Info : Advanced Sub Station Alpha
Duration : 41 min 27 s
Bit rate : 230 b/s
Count of elements : 781
Compression mode : Lossless
Stream size : 70.0 KiB (0%)
Default : Yes
Forced : Yes

Download

Direct download files get automatically deleted after a month or so. Posted on : 07/30/2018

[collapse]
Details and Download | S01E01

General
Format : Matroska
Format version : Version 4 / Version 2
File size : 318 MiB
Duration : 41 min 57 s
Overall bit rate : 1 061 kb/s
Movie name : In.Search.Of.S01E01.Aliens.720p.WEB-DL.2CH.x265.HEVC
Encoded date : UTC 2018-07-21 21:36:51
Writing application : mkvmerge v25.0.0 (‘Prog Noir’) 32-bit
Writing library : libebml v1.3.6 + libmatroska v1.4.9

Video
ID : 1
Format : HEVC
Format/Info : High Efficiency Video Coding
Format profile : [email protected]@Main
Codec ID : V_MPEGH/ISO/HEVC
Duration : 41 min 57 s
Bit rate : 962 kb/s
Width : 1 280 pixels
Height : 720 pixels
Display aspect ratio : 16:9
Frame rate mode : Constant
Frame rate : 23.976 (24000/1001) FPS
Color space : YUV
Chroma subsampling : 4:2:0
Bit depth : 8 bits
Bits/(Pixel*Frame) : 0.044
Stream size : 289 MiB (91%)
Default : Yes
Forced : No
Color range : Limited
Color primaries : BT.709
Transfer characteristics : BT.709
Matrix coefficients : BT.709

Audio
ID : 2
Format : AAC
Format/Info : Advanced Audio Codec
Format profile : LC
Codec ID : A_AAC-2
Duration : 41 min 57 s
Bit rate : 96.0 kb/s
Channel(s) : 2 channels
Channel positions : Front: L R
Sampling rate : 48.0 kHz
Frame rate : 46.875 FPS (1024 SPF)
Compression mode : Lossy
Stream size : 28.8 MiB (9%)
Title : Stereo
Language : English
Default : Yes
Forced : No

Text
ID : 3
Format : ASS
Codec ID : S_TEXT/ASS
Codec ID/Info : Advanced Sub Station Alpha
Duration : 41 min 44 s
Bit rate : 170 b/s
Count of elements : 777
Compression mode : Lossless
Stream size : 52.0 KiB (0%)
Language : English
Default : Yes
Forced : Yes

Download

Direct download files get automatically deleted after a month or so. Posted on : 07/22/2018

[collapse]

You may also like...

error: nah :p~