Instinct

TV-14 | 1h | Drama, Thriller | TV Series (2017– )

A former CIA operative (Cumming), who has since built a “normal” life as a gifted professor and writer, is pulled back into his old life when the NYPD needs his help to stop a serial killer on the loose.

Watch trailer

Media Info and Download Links | S02E11

General
Format : Matroska
Format version : Version 4
File size : 200 MiB
Duration : 43 min 12 s
Overall bit rate : 646 kb/s
Movie name : Instinct.S02E11.Grey.Matter.720p.WEBRip.2CH.x265.HEVC
Encoded date : UTC 2019-08-26 09:55:29
Writing application : mkvmerge v37.0.0 (‘Leave It’) 32-bit
Writing library : libebml v1.3.9 + libmatroska v1.5.2

Video
ID : 1
Format : HEVC
Format/Info : High Efficiency Video Coding
Format profile : [email protected]@Main
Codec ID : V_MPEGH/ISO/HEVC
Duration : 43 min 12 s
Bit rate : 573 kb/s
Width : 1 280 pixels
Height : 720 pixels
Display aspect ratio : 16:9
Frame rate mode : Constant
Frame rate : 24.000 FPS
Color space : YUV
Chroma subsampling : 4:2:0
Bit depth : 8 bits
Bits/(Pixel*Frame) : 0.026
Stream size : 177 MiB (89%)
Default : Yes
Forced : No

Audio
ID : 2
Format : AAC LC SBR
Commercial name : HE-AAC
Format settings : Explicit
Codec ID : A_AAC-2
Duration : 43 min 12 s
Bit rate : 72.0 kb/s
Channel(s) : 2 channels
Channel layout : L R
Sampling rate : 48.0 kHz
Frame rate : 23.438 FPS (2048 SPF)
Compression mode : Lossy
Delay relative to video : 23 ms
Stream size : 21.9 MiB (11%)
Language : English
Default : Yes
Forced : No

Text
ID : 3
Format : UTF-8
Codec ID : S_TEXT/UTF8
Codec ID/Info : UTF-8 Plain Text
Duration : 42 min 52 s
Bit rate : 92 b/s
Count of elements : 922
Stream size : 29.1 KiB (0%)
Language : English
Default : Yes
Forced : No

Download

Direct download files get automatically deleted after a month or so. Posted on : 08/26/2019

[collapse]
Media Info and Download Links | S02E10

General
Format : Matroska
Format version : Version 4
File size : 187 MiB
Duration : 42 min 44 s
Overall bit rate : 613 kb/s
Movie name : Instinct.S02E10.Trust.Issues.720p.WEBRip.2CH.x265.HEVC
Encoded date : UTC 2019-08-26 13:32:37
Writing application : mkvmerge v37.0.0 (‘Leave It’) 32-bit
Writing library : libebml v1.3.9 + libmatroska v1.5.2

Video
ID : 1
Format : HEVC
Format/Info : High Efficiency Video Coding
Format profile : [email protected]@Main
Codec ID : V_MPEGH/ISO/HEVC
Duration : 42 min 44 s
Bit rate : 544 kb/s
Width : 1 280 pixels
Height : 720 pixels
Display aspect ratio : 16:9
Frame rate mode : Constant
Frame rate : 24.000 FPS
Color space : YUV
Chroma subsampling : 4:2:0
Bit depth : 8 bits
Bits/(Pixel*Frame) : 0.025
Stream size : 166 MiB (89%)
Default : Yes
Forced : No

Audio
ID : 2
Format : AAC LC SBR
Commercial name : HE-AAC
Format settings : Explicit
Codec ID : A_AAC-2
Duration : 42 min 44 s
Bit rate : 66.2 kb/s
Channel(s) : 2 channels
Channel layout : L R
Sampling rate : 48.0 kHz
Frame rate : 23.438 FPS (2048 SPF)
Compression mode : Lossy
Delay relative to video : 23 ms
Stream size : 20.5 MiB (11%)
Language : English
Default : Yes
Forced : No

Text
ID : 3
Format : UTF-8
Codec ID : S_TEXT/UTF8
Codec ID/Info : UTF-8 Plain Text
Duration : 42 min 7 s
Bit rate : 106 b/s
Count of elements : 1021
Stream size : 32.8 KiB (0%)
Language : English
Default : Yes
Forced : No

Download

Direct download files get automatically deleted after a month or so. Posted on : 08/26/2019

[collapse]
Media Info and Download Links | S02E09

General
Format : Matroska
Format version : Version 4
File size : 193 MiB
Duration : 43 min 14 s
Overall bit rate : 623 kb/s
Movie name : Instinct.S02E09.Manhunt.720p.WEBRip.2CH.x265.HEVC
Encoded date : UTC 2019-08-19 09:52:33
Writing application : mkvmerge v36.0.0 (‘Is That Jazz?’) 32-bit
Writing library : libebml v1.3.9 + libmatroska v1.5.2

Video
ID : 1
Format : HEVC
Format/Info : High Efficiency Video Coding
Format profile : [email protected]@Main
Codec ID : V_MPEGH/ISO/HEVC
Duration : 43 min 14 s
Bit rate : 550 kb/s
Width : 1 280 pixels
Height : 720 pixels
Display aspect ratio : 16:9
Frame rate mode : Constant
Frame rate : 24.000 FPS
Color space : YUV
Chroma subsampling : 4:2:0
Bit depth : 8 bits
Bits/(Pixel*Frame) : 0.025
Stream size : 170 MiB (88%)
Default : Yes
Forced : No

Audio
ID : 2
Format : AAC LC SBR
Commercial name : HE-AAC
Format settings : Explicit
Codec ID : A_AAC-2
Duration : 43 min 14 s
Bit rate : 72.0 kb/s
Channel(s) : 2 channels
Channel layout : L R
Sampling rate : 48.0 kHz
Frame rate : 23.438 FPS (2048 SPF)
Compression mode : Lossy
Delay relative to video : 23 ms
Stream size : 21.8 MiB (11%)
Language : English
Default : Yes
Forced : No

Text
ID : 3
Format : UTF-8
Codec ID : S_TEXT/UTF8
Codec ID/Info : UTF-8 Plain Text
Duration : 42 min 35 s
Bit rate : 83 b/s
Count of elements : 868
Stream size : 26.2 KiB (0%)
Language : English
Default : Yes
Forced : No

Download

Direct download files get automatically deleted after a month or so. Posted on : 08/19/2019

[collapse]
Media Info and Download Links | S02E08

General
Format : Matroska
Format version : Version 4
File size : 202 MiB
Duration : 43 min 20 s
Overall bit rate : 652 kb/s
Movie name : Instinct.S02E08.Go.Figure.720p.WEBRip.2CH.x265.HEVC
Encoded date : UTC 2019-08-13 19:48:30
Writing application : mkvmerge v36.0.0 (‘Is That Jazz?’) 32-bit
Writing library : libebml v1.3.9 + libmatroska v1.5.2

Video
ID : 1
Format : HEVC
Format/Info : High Efficiency Video Coding
Format profile : [email protected]@Main
Codec ID : V_MPEGH/ISO/HEVC
Duration : 43 min 20 s
Bit rate : 584 kb/s
Width : 1 280 pixels
Height : 720 pixels
Display aspect ratio : 16:9
Frame rate mode : Constant
Frame rate : 24.000 FPS
Color space : YUV
Chroma subsampling : 4:2:0
Bit depth : 8 bits
Bits/(Pixel*Frame) : 0.026
Stream size : 181 MiB (90%)
Default : Yes
Forced : No

Audio
ID : 2
Format : AAC LC SBR
Commercial name : HE-AAC
Format settings : Explicit
Codec ID : A_AAC-2
Duration : 43 min 20 s
Bit rate : 66.2 kb/s
Channel(s) : 2 channels
Channel layout : L R
Sampling rate : 48.0 kHz
Frame rate : 23.438 FPS (2048 SPF)
Compression mode : Lossy
Delay relative to video : 23 ms
Stream size : 20.5 MiB (10%)
Language : English
Default : Yes
Forced : No

Text
ID : 3
Format : UTF-8
Codec ID : S_TEXT/UTF8
Codec ID/Info : UTF-8 Plain Text
Duration : 42 min 57 s
Bit rate : 103 b/s
Count of elements : 1054
Stream size : 32.4 KiB (0%)
Language : English
Default : Yes
Forced : No

Download

Direct download files get automatically deleted after a month or so. Posted on : 08/14/2019

[collapse]
Media Info and Download Links | S02E07

General
Format : Matroska
Format version : Version 4
File size : 193 MiB
Duration : 43 min 22 s
Overall bit rate : 623 kb/s
Movie name : Instinct.S02E07.After.Hours.720p.WEBRip.2CH.x265.HEVC
Encoded date : UTC 2019-08-13 19:47:24
Writing application : mkvmerge v36.0.0 (‘Is That Jazz?’) 32-bit
Writing library : libebml v1.3.9 + libmatroska v1.5.2

Video
ID : 1
Format : HEVC
Format/Info : High Efficiency Video Coding
Format profile : [email protected]@Main
Codec ID : V_MPEGH/ISO/HEVC
Duration : 43 min 22 s
Bit rate : 552 kb/s
Width : 1 280 pixels
Height : 720 pixels
Display aspect ratio : 16:9
Frame rate mode : Constant
Frame rate : 23.976 (24000/1001) FPS
Color space : YUV
Chroma subsampling : 4:2:0
Bit depth : 8 bits
Bits/(Pixel*Frame) : 0.025
Stream size : 171 MiB (89%)
Default : Yes
Forced : No

Audio
ID : 2
Format : AAC LC SBR
Commercial name : HE-AAC
Format settings : Explicit
Codec ID : A_AAC-2
Duration : 43 min 22 s
Bit rate : 68.6 kb/s
Channel(s) : 2 channels
Channel layout : L R
Sampling rate : 48.0 kHz
Frame rate : 23.438 FPS (2048 SPF)
Compression mode : Lossy
Delay relative to video : 23 ms
Stream size : 21.3 MiB (11%)
Language : English
Default : Yes
Forced : No

Text
ID : 3
Format : UTF-8
Codec ID : S_TEXT/UTF8
Codec ID/Info : UTF-8 Plain Text
Duration : 43 min 0 s
Bit rate : 105 b/s
Count of elements : 1028
Stream size : 33.3 KiB (0%)
Language : English
Default : Yes
Forced : No

Download

Direct download files get automatically deleted after a month or so. Posted on : 08/14/2019

[collapse]
Media Info and Download Links | S02E06

General
Format : Matroska
Format version : Version 4
File size : 197 MiB
Duration : 42 min 43 s
Overall bit rate : 644 kb/s
Movie name : Instinct.S02E06.One-of-a-Kind.INTERNAL.720p.WEBRip.2CH.x265.HEVC
Encoded date : UTC 2019-08-07 10:53:19
Writing application : mkvmerge v35.0.0 (‘All The Love In The World’) 32-bit
Writing library : libebml v1.3.9 + libmatroska v1.5.2

Video
ID : 1
Format : HEVC
Format/Info : High Efficiency Video Coding
Format profile : [email protected]@Main
Codec ID : V_MPEGH/ISO/HEVC
Duration : 42 min 43 s
Bit rate : 576 kb/s
Width : 1 280 pixels
Height : 720 pixels
Display aspect ratio : 16:9
Frame rate mode : Constant
Frame rate : 24.000 FPS
Color space : YUV
Chroma subsampling : 4:2:0
Bit depth : 8 bits
Bits/(Pixel*Frame) : 0.026
Stream size : 176 MiB (89%)
Default : Yes
Forced : No

Audio
ID : 2
Format : AAC LC SBR
Commercial name : HE-AAC
Format settings : Explicit
Codec ID : A_AAC-2
Duration : 42 min 43 s
Bit rate : 66.2 kb/s
Channel(s) : 2 channels
Channel layout : L R
Sampling rate : 48.0 kHz
Frame rate : 23.438 FPS (2048 SPF)
Compression mode : Lossy
Delay relative to video : 23 ms
Stream size : 20.1 MiB (10%)
Language : English
Default : Yes
Forced : No

Text
ID : 3
Format : UTF-8
Codec ID : S_TEXT/UTF8
Codec ID/Info : UTF-8 Plain Text
Duration : 42 min 19 s
Bit rate : 99 b/s
Count of elements : 982
Stream size : 30.9 KiB (0%)
Language : English
Default : Yes
Forced : No

Download

Direct download files get automatically deleted after a month or so. Posted on : 07/29/2019

[collapse]
Media Info and Download Links | S02E05

General
Format : Matroska
Format version : Version 4
File size : 215 MiB
Duration : 43 min 23 s
Overall bit rate : 691 kb/s
Movie name : Instinct.S02E05.Ancient.History.720p.WEBRip.2CH.x265.HEVC
Encoded date : UTC 2019-07-29 11:17:22
Writing application : mkvmerge v35.0.0 (‘All The Love In The World’) 32-bit
Writing library : libebml v1.3.9 + libmatroska v1.5.2

Video
ID : 1
Format : HEVC
Format/Info : High Efficiency Video Coding
Format profile : [email protected]@Main
Codec ID : V_MPEGH/ISO/HEVC
Duration : 43 min 23 s
Bit rate : 623 kb/s
Width : 1 280 pixels
Height : 720 pixels
Display aspect ratio : 16:9
Frame rate mode : Constant
Frame rate : 24.000 FPS
Color space : YUV
Chroma subsampling : 4:2:0
Bit depth : 8 bits
Bits/(Pixel*Frame) : 0.028
Stream size : 193 MiB (90%)
Default : Yes
Forced : No

Audio
ID : 2
Format : AAC LC SBR
Commercial name : HE-AAC
Format settings : Explicit
Codec ID : A_AAC-2
Duration : 43 min 23 s
Bit rate : 66.2 kb/s
Channel(s) : 2 channels
Channel layout : L R
Sampling rate : 48.0 kHz
Frame rate : 23.438 FPS (2048 SPF)
Compression mode : Lossy
Delay relative to video : 23 ms
Stream size : 20.6 MiB (10%)
Language : English
Default : Yes
Forced : No

Text
ID : 3
Format : UTF-8
Codec ID : S_TEXT/UTF8
Codec ID/Info : UTF-8 Plain Text
Duration : 42 min 46 s
Bit rate : 103 b/s
Count of elements : 1012
Stream size : 32.3 KiB (0%)
Language : English
Default : Yes
Forced : No

Download

Direct download files get automatically deleted after a month or so. Posted on : 07/29/2019

[collapse]
Media Info and Download Links | S02E04

General
Format : Matroska
Format version : Version 4
File size : 223 MiB
Duration : 40 min 53 s
Overall bit rate : 761 kb/s
Movie name : Instinct.S02E04.Big.Splash.720p.WEBRip.2CH.x265.HEVC
Encoded date : UTC 2019-07-22 19:37:29
Writing application : mkvmerge v35.0.0 (‘All The Love In The World’) 32-bit
Writing library : libebml v1.3.9 + libmatroska v1.5.2

Video
ID : 1
Format : HEVC
Format/Info : High Efficiency Video Coding
Format profile : [email protected]@Main
Codec ID : V_MPEGH/ISO/HEVC
Duration : 40 min 53 s
Bit rate : 693 kb/s
Width : 1 280 pixels
Height : 720 pixels
Display aspect ratio : 16:9
Frame rate mode : Constant
Frame rate : 24.000 FPS
Color space : YUV
Chroma subsampling : 4:2:0
Bit depth : 8 bits
Bits/(Pixel*Frame) : 0.031
Stream size : 203 MiB (91%)
Default : Yes
Forced : No

Audio
ID : 2
Format : AAC LC SBR
Commercial name : HE-AAC
Format settings : Explicit
Codec ID : A_AAC-2
Duration : 40 min 53 s
Bit rate : 66.2 kb/s
Channel(s) : 2 channels
Channel layout : L R
Sampling rate : 48.0 kHz
Frame rate : 23.438 FPS (2048 SPF)
Compression mode : Lossy
Delay relative to video : 23 ms
Stream size : 19.2 MiB (9%)
Language : English
Default : Yes
Forced : No

Text
ID : 3
Format : UTF-8
Codec ID : S_TEXT/UTF8
Codec ID/Info : UTF-8 Plain Text
Duration : 40 min 48 s
Bit rate : 107 b/s
Count of elements : 977
Stream size : 32.1 KiB (0%)
Language : English
Default : Yes
Forced : No

Download

Direct download files get automatically deleted after a month or so. Posted on : 07/22/2019

[collapse]
Media Info and Download Links | S02E03

General
Format : Matroska
Format version : Version 4
File size : 212 MiB
Duration : 41 min 26 s
Overall bit rate : 715 kb/s
Movie name : Instinct.S02E03.Finders.Keepers.720p.WEBRip.2CH.x265.HEVC
Encoded date : UTC 2019-07-15 11:05:37
Writing application : mkvmerge v35.0.0 (‘All The Love In The World’) 32-bit
Writing library : libebml v1.3.9 + libmatroska v1.5.2

Video
ID : 1
Format : HEVC
Format/Info : High Efficiency Video Coding
Format profile : [email protected]@Main
Codec ID : V_MPEGH/ISO/HEVC
Duration : 41 min 26 s
Bit rate : 645 kb/s
Width : 1 280 pixels
Height : 720 pixels
Display aspect ratio : 16:9
Frame rate mode : Constant
Frame rate : 24.000 FPS
Color space : YUV
Chroma subsampling : 4:2:0
Bit depth : 8 bits
Bits/(Pixel*Frame) : 0.029
Stream size : 191 MiB (90%)
Default : Yes
Forced : No

Audio
ID : 2
Format : AAC LC SBR
Commercial name : HE-AAC
Format settings : Explicit
Codec ID : A_AAC-2
Duration : 41 min 26 s
Bit rate : 68.0 kb/s
Channel(s) : 2 channels
Channel layout : L R
Sampling rate : 48.0 kHz
Frame rate : 23.438 FPS (2048 SPF)
Compression mode : Lossy
Delay relative to video : 23 ms
Stream size : 20.1 MiB (10%)
Language : English
Default : Yes
Forced : No

Text
ID : 3
Format : UTF-8
Codec ID : S_TEXT/UTF8
Codec ID/Info : UTF-8 Plain Text
Duration : 41 min 2 s
Bit rate : 102 b/s
Count of elements : 914
Stream size : 30.9 KiB (0%)
Language : English
Default : Yes
Forced : No

Download

Direct download files get automatically deleted after a month or so. Posted on : 07/15/2019

[collapse]
Media Info and Download Links | S02E02

General
Format : Matroska
Format version : Version 4
File size : 196 MiB
Duration : 43 min 20 s
Overall bit rate : 631 kb/s
Movie name : Instinct.S02E02.Broken.Record.720p.WEBRip.2CH.x265.HEVC
Encoded date : UTC 2019-07-08 09:50:34
Writing application : mkvmerge v35.0.0 (‘All The Love In The World’) 32-bit
Writing library : libebml v1.3.9 + libmatroska v1.5.2

Video
ID : 1
Format : HEVC
Format/Info : High Efficiency Video Coding
Format profile : [email protected]@Main
Codec ID : V_MPEGH/ISO/HEVC
Duration : 43 min 20 s
Bit rate : 563 kb/s
Width : 1 280 pixels
Height : 720 pixels
Display aspect ratio : 16:9
Frame rate mode : Constant
Frame rate : 24.000 FPS
Color space : YUV
Chroma subsampling : 4:2:0
Bit depth : 8 bits
Bits/(Pixel*Frame) : 0.025
Stream size : 174 MiB (89%)
Default : Yes
Forced : No

Audio
ID : 2
Format : AAC LC SBR
Commercial name : HE-AAC
Format settings : Explicit
Codec ID : A_AAC-2
Duration : 43 min 20 s
Bit rate : 66.2 kb/s
Channel(s) : 2 channels
Channel layout : L R
Sampling rate : 48.0 kHz
Frame rate : 23.438 FPS (2048 SPF)
Compression mode : Lossy
Delay relative to video : 23 ms
Stream size : 20.7 MiB (11%)
Language : English
Default : Yes
Forced : No

Text
ID : 3
Format : UTF-8
Codec ID : S_TEXT/UTF8
Codec ID/Info : UTF-8 Plain Text
Duration : 42 min 43 s
Bit rate : 103 b/s
Count of elements : 988
Stream size : 32.4 KiB (0%)
Language : English
Default : Yes
Forced : No

Download

Direct download files get automatically deleted after a month or so. Posted on : 07/08/2019

[collapse]
Media Info and Download Links | S02E01

General
Format : Matroska
Format version : Version 4
File size : 203 MiB
Duration : 43 min 22 s
Overall bit rate : 656 kb/s
Movie name : Instinct.2018.S02E01.Stay.Gold.720p.WEBRip.2CH.x265.HEVC
Encoded date : UTC 2019-07-03 08:36:16
Writing application : mkvmerge v35.0.0 (‘All The Love In The World’) 32-bit
Writing library : libebml v1.3.9 + libmatroska v1.5.2

Video
ID : 1
Format : HEVC
Format/Info : High Efficiency Video Coding
Format profile : [email protected]@Main
Codec ID : V_MPEGH/ISO/HEVC
Duration : 43 min 22 s
Bit rate : 585 kb/s
Width : 1 280 pixels
Height : 720 pixels
Display aspect ratio : 16:9
Frame rate mode : Constant
Frame rate : 24.000 FPS
Color space : YUV
Chroma subsampling : 4:2:0
Bit depth : 8 bits
Bits/(Pixel*Frame) : 0.026
Stream size : 182 MiB (89%)
Default : Yes
Forced : No

Audio
ID : 2
Format : AAC LC SBR
Commercial name : HE-AAC
Format settings : Explicit
Codec ID : A_AAC-2
Duration : 43 min 22 s
Bit rate : 68.1 kb/s
Channel(s) : 2 channels
Channel layout : L R
Sampling rate : 48.0 kHz
Frame rate : 23.438 FPS (2048 SPF)
Compression mode : Lossy
Delay relative to video : 23 ms
Stream size : 21.1 MiB (10%)
Language : English
Default : Yes
Forced : No

Text
ID : 3
Format : UTF-8
Codec ID : S_TEXT/UTF8
Codec ID/Info : UTF-8 Plain Text
Duration : 42 min 45 s
Bit rate : 104 b/s
Count of elements : 997
Stream size : 32.9 KiB (0%)
Language : English
Default : Yes
Forced : No

Download

Direct download files get automatically deleted after a month or so. Posted on : 07/03/2019

[collapse]

Media Info and Download Links | S01E13

General
Format : Matroska
Format version : Version 4 / Version 2
File size : 222 MiB
Duration : 43 min 16 s
Overall bit rate : 717 kb/s
Movie name : Instinct.S01E13.720p.WEBRip.2CH.x265.HEVC
Encoded date : UTC 2018-07-02 17:53:26
Writing application : mkvmerge v24.0.0 (‘Beyond The Pale’) 32-bit
Writing library : libebml v1.3.6 + libmatroska v1.4.9

Video
ID : 1
Format : HEVC
Format/Info : High Efficiency Video Coding
Format profile : [email protected]@Main
Codec ID : V_MPEGH/ISO/HEVC
Duration : 43 min 16 s
Bit rate : 651 kb/s
Width : 1 280 pixels
Height : 720 pixels
Display aspect ratio : 16:9
Frame rate mode : Constant
Frame rate : 23.976 (24000/1001) FPS
Color space : YUV
Chroma subsampling : 4:2:0
Bit depth : 8 bits
Bits/(Pixel*Frame) : 0.029
Stream size : 202 MiB (91%)
Default : Yes
Forced : No
Color range : Limited
Color primaries : BT.709
Transfer characteristics : BT.709
Matrix coefficients : BT.709

Audio
ID : 2
Format : AAC
Format/Info : Advanced Audio Codec
Format profile : HE-AAC / LC
Format settings : Explicit
Codec ID : A_AAC-2
Duration : 43 min 16 s
Bit rate : 64.0 kb/s
Channel(s) : 2 channels
Channel positions : Front: L R
Sampling rate : 48.0 kHz / 24.0 kHz
Frame rate : 23.438 FPS (1024 SPF)
Compression mode : Lossy
Delay relative to video : -4 ms
Stream size : 19.8 MiB (9%)
Default : Yes
Forced : No

Text
ID : 3
Format : UTF-8
Codec ID : S_TEXT/UTF8
Codec ID/Info : UTF-8 Plain Text
Duration : 42 min 48 s
Bit rate : 95 b/s
Count of elements : 994
Stream size : 29.8 KiB (0%)
Default : Yes
Forced : No

Download

Direct download files get automatically deleted after a month or so. Posted on : 07/02/2018

[collapse]
Media Info and Download Links | S01E12

General
Format : Matroska
Format version : Version 4 / Version 2
File size : 214 MiB
Duration : 41 min 44 s
Overall bit rate : 717 kb/s
Movie name : Instinct.S01E12.720p.HDTV.2CH.x265.HEVC
Encoded date : UTC 2018-06-25 16:23:03
Writing application : mkvmerge v24.0.0 (‘Beyond The Pale’) 32-bit
Writing library : libebml v1.3.6 + libmatroska v1.4.9

Video
ID : 1
Format : HEVC
Format/Info : High Efficiency Video Coding
Format profile : [email protected]@Main
Codec ID : V_MPEGH/ISO/HEVC
Duration : 41 min 44 s
Bit rate : 651 kb/s
Width : 1 280 pixels
Height : 720 pixels
Display aspect ratio : 16:9
Frame rate mode : Constant
Frame rate : 23.976 (24000/1001) FPS
Color space : YUV
Chroma subsampling : 4:2:0
Bit depth : 8 bits
Bits/(Pixel*Frame) : 0.029
Stream size : 194 MiB (91%)
Default : Yes
Forced : No
Color range : Limited
Color primaries : BT.709
Transfer characteristics : BT.709
Matrix coefficients : BT.709

Audio
ID : 2
Format : AAC
Format/Info : Advanced Audio Codec
Format profile : HE-AAC / LC
Format settings : Explicit
Codec ID : A_AAC-2
Duration : 41 min 44 s
Bit rate : 64.0 kb/s
Channel(s) : 2 channels
Channel positions : Front: L R
Sampling rate : 48.0 kHz / 24.0 kHz
Frame rate : 23.438 FPS (1024 SPF)
Compression mode : Lossy
Delay relative to video : -4 ms
Stream size : 19.1 MiB (9%)
Default : Yes
Forced : No

Text
ID : 3
Format : UTF-8
Codec ID : S_TEXT/UTF8
Codec ID/Info : UTF-8 Plain Text
Duration : 41 min 42 s
Bit rate : 131 b/s
Count of elements : 985
Stream size : 40.1 KiB (0%)
Default : Yes
Forced : No

Download

Direct download files get automatically deleted after a month or so. Posted on : 06/25/2018

[collapse]
Media Info and Download Links | S01E11

General
Format : Matroska
Format version : Version 4 / Version 2
File size : 195 MiB
Duration : 41 min 55 s
Overall bit rate : 651 kb/s
Movie name : Instinct.S01E11.720p.HDTV.2CH.x265.HEVC
Encoded date : UTC 2018-06-18 14:46:51
Writing application : mkvmerge v24.0.0 (‘Beyond The Pale’) 32-bit
Writing library : libebml v1.3.6 + libmatroska v1.4.9

Video
ID : 1
Format : HEVC
Format/Info : High Efficiency Video Coding
Format profile : [email protected]@Main
Codec ID : V_MPEGH/ISO/HEVC
Duration : 41 min 55 s
Bit rate : 582 kb/s
Width : 1 280 pixels
Height : 720 pixels
Display aspect ratio : 16:9
Frame rate mode : Constant
Frame rate : 23.976 (24000/1001) FPS
Color space : YUV
Chroma subsampling : 4:2:0
Bit depth : 8 bits
Bits/(Pixel*Frame) : 0.026
Stream size : 174 MiB (89%)
Default : Yes
Forced : No

Audio
ID : 2
Format : AAC
Format/Info : Advanced Audio Codec
Format profile : HE-AAC / LC
Format settings : Explicit
Codec ID : A_AAC-2
Duration : 41 min 54 s
Bit rate : 66.2 kb/s
Channel(s) : 2 channels
Channel positions : Front: L R
Sampling rate : 48.0 kHz / 24.0 kHz
Frame rate : 23.438 FPS (1024 SPF)
Compression mode : Lossy
Delay relative to video : 23 ms
Stream size : 20.2 MiB (10%)
Language : English
Default : Yes
Forced : No

Text
ID : 3
Format : UTF-8
Codec ID : S_TEXT/UTF8
Codec ID/Info : UTF-8 Plain Text
Duration : 41 min 24 s
Bit rate : 93 b/s
Count of elements : 897
Stream size : 28.3 KiB (0%)
Default : Yes
Forced : No

Download

Direct download files get automatically deleted after a month or so. Posted on : 06/18/2018

[collapse]
Media Info and Download Links | S01E10

General
Format : Matroska
Format version : Version 4 / Version 2
File size : 225 MiB
Duration : 43 min 23 s
Overall bit rate : 724 kb/s
Movie name : Instinct.S01E10.720p.HDTV.2CH.x265.HEVC
Encoded date : UTC 2018-06-04 16:08:34
Writing application : mkvmerge v23.0.0 (‘The Bride Said No’) 32-bit
Writing library : libebml v1.3.6 + libmatroska v1.4.9

Video
ID : 1
Format : HEVC
Format/Info : High Efficiency Video Coding
Format profile : [email protected]@Main
Codec ID : V_MPEGH/ISO/HEVC
Duration : 43 min 23 s
Bit rate : 655 kb/s
Width : 1 280 pixels
Height : 720 pixels
Display aspect ratio : 16:9
Frame rate mode : Constant
Frame rate : 23.976 (24000/1001) FPS
Color space : YUV
Chroma subsampling : 4:2:0
Bit depth : 8 bits
Bits/(Pixel*Frame) : 0.030
Stream size : 203 MiB (91%)
Default : Yes
Forced : No

Audio
ID : 2
Format : AAC
Format/Info : Advanced Audio Codec
Format profile : HE-AAC / LC
Format settings : Explicit
Codec ID : A_AAC-2
Duration : 43 min 22 s
Bit rate : 66.2 kb/s
Channel(s) : 2 channels
Channel positions : Front: L R
Sampling rate : 48.0 kHz / 24.0 kHz
Frame rate : 23.438 FPS (1024 SPF)
Compression mode : Lossy
Delay relative to video : 23 ms
Stream size : 20.6 MiB (9%)
Language : English
Default : Yes
Forced : No

Text
ID : 3
Format : UTF-8
Codec ID : S_TEXT/UTF8
Codec ID/Info : UTF-8 Plain Text
Duration : 42 min 57 s
Bit rate : 93 b/s
Count of elements : 991
Stream size : 29.5 KiB (0%)
Default : Yes
Forced : No

Download

Direct download files get automatically deleted after a month or so. Posted on : 06/04/2018

[collapse]
Media Info and Download Links | S01E09

General
Format : Matroska
Format version : Version 4 / Version 2
File size : 216 MiB
Duration : 40 min 2 s
Overall bit rate : 756 kb/s
Movie name : Instinct.S01E09.720p.HDTV.2CH.x265.HEVC
Encoded date : UTC 2018-05-28 12:24:09
Writing application : mkvmerge v23.0.0 (‘The Bride Said No’) 32-bit
Writing library : libebml v1.3.6 + libmatroska v1.4.9

Video
ID : 1
Format : HEVC
Format/Info : High Efficiency Video Coding
Format profile : [email protected]@Main
Codec ID : V_MPEGH/ISO/HEVC
Duration : 40 min 2 s
Bit rate : 687 kb/s
Width : 1 280 pixels
Height : 720 pixels
Display aspect ratio : 16:9
Frame rate mode : Constant
Frame rate : 23.976 (24000/1001) FPS
Color space : YUV
Chroma subsampling : 4:2:0
Bit depth : 8 bits
Bits/(Pixel*Frame) : 0.031
Stream size : 197 MiB (91%)
Default : Yes
Forced : No

Audio
ID : 2
Format : AAC
Format/Info : Advanced Audio Codec
Format profile : HE-AAC / LC
Format settings : Explicit
Codec ID : A_AAC-2
Duration : 40 min 2 s
Bit rate : 66.2 kb/s
Channel(s) : 2 channels
Channel positions : Front: L R
Sampling rate : 48.0 kHz / 24.0 kHz
Frame rate : 23.438 FPS (1024 SPF)
Compression mode : Lossy
Delay relative to video : 23 ms
Stream size : 19.0 MiB (9%)
Language : English
Default : Yes
Forced : No

Text
ID : 3
Format : UTF-8
Codec ID : S_TEXT/UTF8
Codec ID/Info : UTF-8 Plain Text
Duration : 39 min 36 s
Bit rate : 95 b/s
Count of elements : 899
Stream size : 27.8 KiB (0%)
Default : Yes
Forced : No

Download

Direct download files get automatically deleted after a month or so. Posted on : 05/28/2018

[collapse]
Media Info and Download Links | S01E08

General
Format : Matroska
Format version : Version 4 / Version 2
File size : 211 MiB
Duration : 41 min 12 s
Overall bit rate : 715 kb/s
Movie name : Instinct.S01E08.720p.HDTV.2CH.x265.HEVC
Encoded date : UTC 2018-05-28 12:39:59
Writing application : mkvmerge v23.0.0 (‘The Bride Said No’) 32-bit
Writing library : libebml v1.3.6 + libmatroska v1.4.9

Video
ID : 1
Format : HEVC
Format/Info : High Efficiency Video Coding
Format profile : [email protected]@Main
Codec ID : V_MPEGH/ISO/HEVC
Duration : 41 min 12 s
Bit rate : 649 kb/s
Width : 1 280 pixels
Height : 720 pixels
Display aspect ratio : 16:9
Frame rate mode : Constant
Frame rate : 23.976 (24000/1001) FPS
Color space : YUV
Chroma subsampling : 4:2:0
Bit depth : 8 bits
Bits/(Pixel*Frame) : 0.029
Stream size : 191 MiB (91%)
Default : Yes
Forced : No

Audio
ID : 2
Format : AAC
Format/Info : Advanced Audio Codec
Format profile : HE-AAC / LC
Format settings : Explicit
Codec ID : A_AAC-2
Duration : 41 min 11 s
Bit rate : 64.3 kb/s
Channel(s) : 2 channels
Channel positions : Front: L R
Sampling rate : 48.0 kHz / 24.0 kHz
Frame rate : 23.438 FPS (1024 SPF)
Compression mode : Lossy
Delay relative to video : 23 ms
Stream size : 18.9 MiB (9%)
Language : English
Default : Yes
Forced : No

Text
ID : 3
Format : UTF-8
Codec ID : S_TEXT/UTF8
Codec ID/Info : UTF-8 Plain Text
Duration : 40 min 46 s
Bit rate : 111 b/s
Count of elements : 1021
Stream size : 33.2 KiB (0%)
Default : Yes
Forced : No

Download

Direct download files get automatically deleted after a month or so. Posted on : 05/28/2018

[collapse]
Media Info and Download Links | S01E07

General
Format : Matroska
Format version : Version 4 / Version 2
File size : 217 MiB
Duration : 43 min 20 s
Overall bit rate : 699 kb/s
Movie name : Instinct.S01E07.Owned.720p.WEBRip.2CH.x265.HEVC
Encoded date : UTC 2018-05-07 11:25:58
Writing application : mkvmerge v23.0.0 (‘The Bride Said No’) 32-bit
Writing library : libebml v1.3.6 + libmatroska v1.4.9

Video
ID : 1
Format : HEVC
Format/Info : High Efficiency Video Coding
Format profile : [email protected]@Main
Codec ID : V_MPEGH/ISO/HEVC
Duration : 43 min 20 s
Bit rate : 631 kb/s
Width : 1 280 pixels
Height : 720 pixels
Display aspect ratio : 16:9
Frame rate mode : Constant
Frame rate : 23.976 (24000/1001) FPS
Color space : YUV
Chroma subsampling : 4:2:0
Bit depth : 8 bits
Bits/(Pixel*Frame) : 0.029
Stream size : 196 MiB (90%)
Default : Yes
Forced : No

Audio
ID : 2
Format : AAC
Format/Info : Advanced Audio Codec
Format profile : HE-AAC / LC
Format settings : Explicit
Codec ID : A_AAC-2
Duration : 43 min 20 s
Bit rate : 66.2 kb/s
Channel(s) : 2 channels
Channel positions : Front: L R
Sampling rate : 48.0 kHz / 24.0 kHz
Frame rate : 23.438 FPS (1024 SPF)
Compression mode : Lossy
Delay relative to video : 23 ms
Stream size : 20.3 MiB (9%)
Language : English
Default : Yes
Forced : No

Text
ID : 3
Format : UTF-8
Codec ID : S_TEXT/UTF8
Codec ID/Info : UTF-8 Plain Text
Duration : 42 min 52 s
Bit rate : 115 b/s
Count of elements : 1134
Stream size : 36.1 KiB (0%)
Language : English
Default : Yes
Forced : No

Download

Direct download files get automatically deleted after a month or so. Posted on : 05/07/2018

[collapse]
Media Info and Download Links | S01E06

General
Format : Matroska
Format version : Version 4 / Version 2
File size : 217 MiB
Duration : 40 min 42 s
Overall bit rate : 745 kb/s
Movie name : Instinct.S01E06.720p.HDTV.2CH.x265.HEVC
Encoded date : UTC 2018-04-30 13:29:25
Writing application : mkvmerge v22.0.0 (‘At The End Of The World’) 32-bit
Writing library : libebml v1.3.5 + libmatroska v1.4.8

Video
ID : 1
Format : HEVC
Format/Info : High Efficiency Video Coding
Format profile : [email protected]@Main
Codec ID : V_MPEGH/ISO/HEVC
Duration : 40 min 42 s
Bit rate : 676 kb/s
Width : 1 280 pixels
Height : 720 pixels
Display aspect ratio : 16:9
Frame rate mode : Constant
Frame rate : 23.976 (24000/1001) FPS
Color space : YUV
Chroma subsampling : 4:2:0
Bit depth : 8 bits
Bits/(Pixel*Frame) : 0.031
Stream size : 197 MiB (91%)
Default : Yes
Forced : No

Audio
ID : 2
Format : AAC
Format/Info : Advanced Audio Codec
Format profile : HE-AAC / LC
Format settings : Explicit
Codec ID : A_AAC-2
Duration : 40 min 41 s
Bit rate : 66.2 kb/s
Channel(s) : 2 channels
Channel positions : Front: L R
Sampling rate : 48.0 kHz / 24.0 kHz
Frame rate : 23.438 FPS (1024 SPF)
Compression mode : Lossy
Delay relative to video : 23 ms
Stream size : 19.4 MiB (9%)
Language : English
Default : Yes
Forced : No

Text
ID : 3
Format : UTF-8
Codec ID : S_TEXT/UTF8
Codec ID/Info : UTF-8 Plain Text
Duration : 40 min 17 s
Bit rate : 97 b/s
Count of elements : 905
Stream size : 28.8 KiB (0%)
Default : Yes
Forced : No

Download

Direct download files get automatically deleted after a month or so. Posted on : 04/30/2018

[collapse]
Media Info and Download Links | S01E05

General
Format : Matroska
Format version : Version 4 / Version 2
File size : 218 MiB
Duration : 42 min 38 s
Overall bit rate : 714 kb/s
Movie name : Instinct.S01E05.720p.HDTV.2CH.x265.HEVC
Encoded date : UTC 2018-04-23 15:02:46
Writing application : mkvmerge v22.0.0 (‘At The End Of The World’) 32-bit
Writing library : libebml v1.3.5 + libmatroska v1.4.8

Video
ID : 1
Format : HEVC
Format/Info : High Efficiency Video Coding
Format profile : [email protected]@Main
Codec ID : V_MPEGH/ISO/HEVC
Duration : 42 min 38 s
Bit rate : 646 kb/s
Width : 1 280 pixels
Height : 720 pixels
Display aspect ratio : 16:9
Frame rate mode : Constant
Frame rate : 23.976 (24000/1001) FPS
Color space : YUV
Chroma subsampling : 4:2:0
Bit depth : 8 bits
Bits/(Pixel*Frame) : 0.029
Stream size : 197 MiB (90%)
Default : Yes
Forced : No

Audio
ID : 2
Format : AAC
Format/Info : Advanced Audio Codec
Format profile : HE-AAC / LC
Format settings : Explicit
Codec ID : A_AAC-2
Duration : 42 min 38 s
Bit rate : 66.2 kb/s
Channel(s) : 2 channels
Channel positions : Front: L R
Sampling rate : 48.0 kHz / 24.0 kHz
Frame rate : 23.438 FPS (1024 SPF)
Compression mode : Lossy
Delay relative to video : 23 ms
Stream size : 20.1 MiB (9%)
Language : English
Default : Yes
Forced : No

Text
ID : 3
Format : UTF-8
Codec ID : S_TEXT/UTF8
Codec ID/Info : UTF-8 Plain Text
Duration : 42 min 13 s
Bit rate : 102 b/s
Count of elements : 1017
Stream size : 31.8 KiB (0%)
Language : English
Default : Yes
Forced : No

Download

Direct download files get automatically deleted after a month or so. Posted on : 04/23/2018

[collapse]
Media Info and Download Links | S01E04

General
Format : Matroska
Format version : Version 4 / Version 2
File size : 220 MiB
Duration : 40 min 28 s
Overall bit rate : 759 kb/s
Movie name : Instinct.S01E04.720p.HDTV.2CH.x265.HEVC
Encoded date : UTC 2018-04-09 09:41:23
Writing application : mkvmerge v22.0.0 (‘At The End Of The World’) 32-bit
Writing library : libebml v1.3.5 + libmatroska v1.4.8

Video
ID : 1
Format : HEVC
Format/Info : High Efficiency Video Coding
Format profile : [email protected]@Main
Codec ID : V_MPEGH/ISO/HEVC
Duration : 40 min 28 s
Bit rate : 693 kb/s
Width : 1 280 pixels
Height : 720 pixels
Display aspect ratio : 16:9
Frame rate mode : Constant
Frame rate : 23.976 (24000/1001) FPS
Color space : YUV
Chroma subsampling : 4:2:0
Bit depth : 8 bits
Bits/(Pixel*Frame) : 0.031
Stream size : 200 MiB (91%)
Default : Yes
Forced : No

Audio
ID : 2
Format : AAC
Format/Info : Advanced Audio Codec
Format profile : HE-AAC / LC
Format settings : Explicit
Codec ID : A_AAC-2
Duration : 40 min 28 s
Bit rate : 64.6 kb/s
Channel(s) : 2 channels
Channel positions : Front: L R
Sampling rate : 48.0 kHz / 24.0 kHz
Frame rate : 23.438 FPS (1024 SPF)
Compression mode : Lossy
Delay relative to video : 23 ms
Stream size : 18.7 MiB (9%)
Default : Yes
Forced : No

Text
ID : 3
Format : UTF-8
Codec ID : S_TEXT/UTF8
Codec ID/Info : UTF-8 Plain Text
Duration : 39 min 55 s
Bit rate : 102 b/s
Count of elements : 947
Stream size : 29.9 KiB (0%)
Language : English
Default : Yes
Forced : No

Download

Direct download files get automatically deleted after a month or so. Posted on : 04/09/2018

[collapse]
Media Info and Download Links | S01E03

General
Format : Matroska
Format version : Version 4 / Version 2
File size : 206 MiB
Duration : 40 min 41 s
Overall bit rate : 709 kb/s
Movie name : Instinct.S01E03.Secrets.and.Lies.720p.WEBRip.2CH.x265.HEVC
Encoded date : UTC 2018-04-02 11:25:33
Writing application : mkvmerge v21.0.0 (‘Tardigrades Will Inherit The Earth’) 32-bit
Writing library : libebml v1.3.5 + libmatroska v1.4.8

Video
ID : 1
Format : HEVC
Format/Info : High Efficiency Video Coding
Format profile : [email protected]@Main
Codec ID : V_MPEGH/ISO/HEVC
Duration : 40 min 41 s
Bit rate : 641 kb/s
Width : 1 280 pixels
Height : 720 pixels
Display aspect ratio : 16:9
Frame rate mode : Constant
Frame rate : 23.976 (24000/1001) FPS
Color space : YUV
Chroma subsampling : 4:2:0
Bit depth : 8 bits
Bits/(Pixel*Frame) : 0.029
Stream size : 186 MiB (90%)
Default : Yes
Forced : No

Audio
ID : 2
Format : AAC
Format/Info : Advanced Audio Codec
Format profile : HE-AAC / LC
Format settings : Explicit
Codec ID : A_AAC-2
Duration : 40 min 40 s
Bit rate : 66.2 kb/s
Channel(s) : 2 channels
Channel positions : Front: L R
Sampling rate : 48.0 kHz / 24.0 kHz
Frame rate : 23.438 FPS (1024 SPF)
Compression mode : Lossy
Delay relative to video : 23 ms
Stream size : 19.5 MiB (9%)
Default : Yes
Forced : No

Text
ID : 3
Format : UTF-8
Codec ID : S_TEXT/UTF8
Codec ID/Info : UTF-8 Plain Text
Duration : 40 min 5 s
Bit rate : 97 b/s
Count of elements : 967
Stream size : 28.6 KiB (0%)
Default : Yes
Forced : No

Download

Direct download files get automatically deleted after a month or so. Posted on : 04/02/2018

[collapse]
Media Info and Download Links | S01E02

General
Format : Matroska
Format version : Version 4 / Version 2
File size : 218 MiB
Duration : 41 min 8 s
Overall bit rate : 739 kb/s
Movie name : Instinct.S01E02.720p.HDTV.2CH.x265.HEVC
Encoded date : UTC 2018-03-26 16:16:31
Writing application : mkvmerge v21.0.0 (‘Tardigrades Will Inherit The Earth’) 32-bit
Writing library : libebml v1.3.5 + libmatroska v1.4.8

Video
ID : 1
Format : HEVC
Format/Info : High Efficiency Video Coding
Format profile : [email protected]@Main
Codec ID : V_MPEGH/ISO/HEVC
Duration : 41 min 8 s
Bit rate : 671 kb/s
Width : 1 280 pixels
Height : 720 pixels
Display aspect ratio : 16:9
Frame rate mode : Constant
Frame rate : 23.976 (24000/1001) FPS
Color space : YUV
Chroma subsampling : 4:2:0
Bit depth : 8 bits
Bits/(Pixel*Frame) : 0.030
Stream size : 198 MiB (91%)
Default : Yes
Forced : No
Color range : Limited
Color primaries : BT.709
Transfer characteristics : BT.709
Matrix coefficients : BT.709

Audio
ID : 2
Format : AAC
Format/Info : Advanced Audio Codec
Format profile : HE-AAC / LC
Format settings : Explicit
Codec ID : A_AAC-2
Duration : 41 min 8 s
Bit rate : 66.2 kb/s
Channel(s) : 2 channels
Channel positions : Front: L R
Sampling rate : 48.0 kHz / 24.0 kHz
Frame rate : 23.438 FPS (1024 SPF)
Compression mode : Lossy
Delay relative to video : 23 ms
Stream size : 19.4 MiB (9%)
Default : Yes
Forced : No

Text
ID : 3
Format : UTF-8
Codec ID : S_TEXT/UTF8
Codec ID/Info : UTF-8 Plain Text
Duration : 40 min 40 s
Bit rate : 98 b/s
Count of elements : 964
Stream size : 29.4 KiB (0%)
Default : Yes
Forced : No

Download

Direct download files get automatically deleted after a month or so. Posted on : 03/26/2018

[collapse]
Media Info and Download Links | S01E01

General
Format : Matroska
Format version : Version 4 / Version 2
File size : 224 MiB
Duration : 43 min 27 s
Overall bit rate : 721 kb/s
Movie name : Instinct.S01E01.720p.HDTV.2CH.x265.HEVC
Encoded date : UTC 2018-03-19 16:55:29
Writing application : mkvmerge v21.0.0 (‘Tardigrades Will Inherit The Earth’) 32-bit
Writing library : libebml v1.3.5 + libmatroska v1.4.8

Video
ID : 1
Format : HEVC
Format/Info : High Efficiency Video Coding
Format profile : [email protected]@Main
Codec ID : V_MPEGH/ISO/HEVC
Duration : 43 min 27 s
Bit rate : 654 kb/s
Width : 1 280 pixels
Height : 720 pixels
Display aspect ratio : 16:9
Frame rate mode : Constant
Frame rate : 23.976 (24000/1001) FPS
Color space : YUV
Chroma subsampling : 4:2:0
Bit depth : 8 bits
Bits/(Pixel*Frame) : 0.030
Stream size : 203 MiB (91%)
Default : Yes
Forced : No
Color range : Limited
Color primaries : BT.709
Transfer characteristics : BT.709
Matrix coefficients : BT.709

Audio
ID : 2
Format : AAC
Format/Info : Advanced Audio Codec
Format profile : HE-AAC / LC
Format settings : Explicit
Codec ID : A_AAC-2
Duration : 43 min 27 s
Bit rate : 66.2 kb/s
Channel(s) : 2 channels
Channel positions : Front: L R
Sampling rate : 48.0 kHz / 24.0 kHz
Frame rate : 23.438 FPS (1024 SPF)
Compression mode : Lossy
Delay relative to video : 23 ms
Stream size : 20.3 MiB (9%)
Default : Yes
Forced : No

Text
ID : 3
Format : UTF-8
Codec ID : S_TEXT/UTF8
Codec ID/Info : UTF-8 Plain Text
Duration : 43 min 0 s
Bit rate : 95 b/s
Count of elements : 953
Stream size : 30.2 KiB (0%)
Default : Yes
Forced : No

Download

Direct download files get automatically deleted after a month or so. Posted on : 03/19/2018

[collapse]

You may also like...

error: nah :p~