Manifest

43min | Drama, Mystery | TV Series (2018– )

After a turbulent, but routine, flight the passengers and crew discover the world has aged five years, yet no time has passed for them, and soon a deeper mystery unfolds.

Watch trailer

Media Info and Download Links | S01E16

General
Format : Matroska
Format version : Version 4
File size : 204 MiB
Duration : 42 min 27 s
Overall bit rate : 671 kb/s
Movie name : Manifest.S01E16.720p.HDTV.2CH.x265.HEVC
Encoded date : UTC 2019-02-19 15:50:31
Writing application : mkvmerge v31.0.0 (‘Dolores In A Shoestand’) 32-bit
Writing library : libebml v1.3.6 + libmatroska v1.4.9

Video
ID : 1
Format : HEVC
Format/Info : High Efficiency Video Coding
Format profile : [email protected]@Main
Codec ID : V_MPEGH/ISO/HEVC
Duration : 42 min 27 s
Bit rate : 597 kb/s
Width : 1 280 pixels
Height : 720 pixels
Display aspect ratio : 16:9
Frame rate mode : Constant
Frame rate : 23.976 (24000/1001) FPS
Color space : YUV
Chroma subsampling : 4:2:0
Bit depth : 8 bits
Bits/(Pixel*Frame) : 0.027
Stream size : 181 MiB (89%)
Default : Yes
Forced : No

Audio
ID : 2
Format : AAC LC SBR
Commercial name : HE-AAC
Format settings : Explicit
Codec ID : A_AAC-2
Duration : 42 min 27 s
Bit rate : 72.0 kb/s
Channel(s) : 2 channels
Channel layout : L R
Sampling rate : 48.0 kHz
Frame rate : 23.438 FPS (2048 SPF)
Compression mode : Lossy
Delay relative to video : 23 ms
Stream size : 22.0 MiB (11%)
Language : English
Default : Yes
Forced : No

Text
ID : 3
Format : UTF-8
Codec ID : S_TEXT/UTF8
Codec ID/Info : UTF-8 Plain Text
Duration : 41 min 50 s
Bit rate : 126 b/s
Count of elements : 960
Stream size : 38.8 KiB (0%)
Language : English
Default : Yes
Forced : No

Download

Direct download files get automatically deleted after a month or so. Posted on : 02/19/2019

[collapse]
Media Info and Download Links | S01E15

General
Format : Matroska
Format version : Version 4
File size : 206 MiB
Duration : 42 min 46 s
Overall bit rate : 672 kb/s
Movie name : Manifest.S01E15.Hard.Landing.720p.WEBRip.2CH.x265.HEVC
Encoded date : UTC 2019-02-13 12:40:10
Writing application : mkvmerge v31.0.0 (‘Dolores In A Shoestand’) 32-bit
Writing library : libebml v1.3.6 + libmatroska v1.4.9

Video
ID : 1
Format : HEVC
Format/Info : High Efficiency Video Coding
Format profile : [email protected]@Main
Codec ID : V_MPEGH/ISO/HEVC
Duration : 42 min 46 s
Bit rate : 600 kb/s
Width : 1 280 pixels
Height : 720 pixels
Display aspect ratio : 16:9
Frame rate mode : Constant
Frame rate : 23.976 (24000/1001) FPS
Color space : YUV
Chroma subsampling : 4:2:0
Bit depth : 8 bits
Bits/(Pixel*Frame) : 0.027
Stream size : 184 MiB (89%)
Default : Yes
Forced : No

Audio
ID : 2
Format : AAC LC SBR
Commercial name : HE-AAC
Format settings : Explicit
Codec ID : A_AAC-2
Duration : 42 min 46 s
Bit rate : 70.3 kb/s
Channel(s) : 2 channels
Channel layout : L R
Sampling rate : 48.0 kHz
Frame rate : 23.438 FPS (2048 SPF)
Compression mode : Lossy
Delay relative to video : 23 ms
Stream size : 21.5 MiB (10%)
Language : English
Default : Yes
Forced : No

Text
ID : 3
Format : UTF-8
Codec ID : S_TEXT/UTF8
Codec ID/Info : UTF-8 Plain Text
Duration : 42 min 41 s
Bit rate : 87 b/s
Count of elements : 898
Stream size : 27.2 KiB (0%)
Language : English
Default : Yes
Forced : No

Download

Direct download files get automatically deleted after a month or so. Posted on : 02/13/2019

[collapse]
Media Info and Download Links | S01E14

General
Format : Matroska
Format version : Version 4
File size : 193 MiB
Duration : 42 min 37 s
Overall bit rate : 633 kb/s
Movie name : Manifest.S01E14.Upgrade.720p.WEBRip.2CH.x265.HEVC
Encoded date : UTC 2019-02-05 22:27:40
Writing application : mkvmerge v30.1.0 (‘Forever And More’) 32-bit
Writing library : libebml v1.3.6 + libmatroska v1.4.9

Video
ID : 1
Format : HEVC
Format/Info : High Efficiency Video Coding
Format profile : [email protected]@Main
Codec ID : V_MPEGH/ISO/HEVC
Duration : 42 min 37 s
Bit rate : 561 kb/s
Width : 1 280 pixels
Height : 720 pixels
Display aspect ratio : 16:9
Frame rate mode : Constant
Frame rate : 23.976 (24000/1001) FPS
Color space : YUV
Chroma subsampling : 4:2:0
Bit depth : 8 bits
Bits/(Pixel*Frame) : 0.025
Stream size : 171 MiB (89%)
Default : Yes
Forced : No

Audio
ID : 2
Format : AAC LC SBR
Commercial name : HE-AAC
Format settings : Explicit
Codec ID : A_AAC-2
Duration : 42 min 37 s
Bit rate : 69.9 kb/s
Channel(s) : 2 channels
Channel layout : L R
Sampling rate : 48.0 kHz
Frame rate : 23.438 FPS (2048 SPF)
Compression mode : Lossy
Delay relative to video : 23 ms
Stream size : 21.3 MiB (11%)
Language : English
Default : Yes
Forced : No

Text
ID : 3
Format : UTF-8
Codec ID : S_TEXT/UTF8
Codec ID/Info : UTF-8 Plain Text
Duration : 42 min 30 s
Bit rate : 78 b/s
Count of elements : 859
Stream size : 24.6 KiB (0%)
Language : English
Default : Yes
Forced : No

Download

Direct download files get automatically deleted after a month or so. Posted on : 02/06/2019

[collapse]
Media Info and Download Links | S01E13

General
Format : Matroska
Format version : Version 4
File size : 209 MiB
Duration : 42 min 56 s
Overall bit rate : 680 kb/s
Movie name : Manifest.S01E13.Cleared.for.Approach.720p.WEBRip.2CH.x265.HEVC
Encoded date : UTC 2019-01-29 14:20:54
Writing application : mkvmerge v30.1.0 (‘Forever And More’) 32-bit
Writing library : libebml v1.3.6 + libmatroska v1.4.9

Video
ID : 1
Format : HEVC
Format/Info : High Efficiency Video Coding
Format profile : [email protected]@Main
Codec ID : V_MPEGH/ISO/HEVC
Duration : 42 min 56 s
Bit rate : 608 kb/s
Width : 1 280 pixels
Height : 720 pixels
Display aspect ratio : 16:9
Frame rate mode : Constant
Frame rate : 23.976 (24000/1001) FPS
Color space : YUV
Chroma subsampling : 4:2:0
Bit depth : 8 bits
Bits/(Pixel*Frame) : 0.028
Stream size : 187 MiB (89%)
Default : Yes
Forced : No

Audio
ID : 2
Format : AAC LC SBR
Commercial name : HE-AAC
Format settings : Explicit
Codec ID : A_AAC-2
Duration : 42 min 56 s
Bit rate : 69.6 kb/s
Channel(s) : 2 channels
Channel layout : L R
Sampling rate : 48.0 kHz
Frame rate : 23.438 FPS (2048 SPF)
Compression mode : Lossy
Delay relative to video : 23 ms
Stream size : 21.4 MiB (10%)
Language : English
Default : Yes
Forced : No

Text
ID : 3
Format : UTF-8
Codec ID : S_TEXT/UTF8
Codec ID/Info : UTF-8 Plain Text
Duration : 42 min 53 s
Bit rate : 83 b/s
Count of elements : 932
Stream size : 26.1 KiB (0%)
Language : English
Default : Yes
Forced : No

Download

Direct download files get automatically deleted after a month or so. Posted on : 01/29/2019

[collapse]
Media Info and Download Links | S01E12

General
Format : Matroska
Format version : Version 4
File size : 189 MiB
Duration : 42 min 41 s
Overall bit rate : 618 kb/s
Movie name : Manifest.S01E12.720p.HDTV.2CH.x265.HEVC
Encoded date : UTC 2019-01-22 17:28:50
Writing application : mkvmerge v30.1.0 (‘Forever And More’) 32-bit
Writing library : libebml v1.3.6 + libmatroska v1.4.9

Video
ID : 1
Format : HEVC
Format/Info : High Efficiency Video Coding
Format profile : [email protected]@Main
Codec ID : V_MPEGH/ISO/HEVC
Duration : 42 min 6 s
Bit rate : 555 kb/s
Width : 1 280 pixels
Height : 720 pixels
Display aspect ratio : 16:9
Frame rate mode : Constant
Frame rate : 23.976 (24000/1001) FPS
Color space : YUV
Chroma subsampling : 4:2:0
Bit depth : 8 bits
Bits/(Pixel*Frame) : 0.025
Stream size : 167 MiB (89%)
Default : Yes
Forced : No

Audio
ID : 2
Format : AAC LC SBR
Commercial name : HE-AAC
Format settings : Explicit
Codec ID : A_AAC-2
Duration : 42 min 6 s
Bit rate : 70.0 kb/s
Channel(s) : 2 channels
Channel layout : L R
Sampling rate : 48.0 kHz
Frame rate : 23.438 FPS (2048 SPF)
Compression mode : Lossy
Delay relative to video : 23 ms
Stream size : 21.1 MiB (11%)
Language : English
Default : Yes
Forced : No

Text
ID : 3
Format : UTF-8
Codec ID : S_TEXT/UTF8
Codec ID/Info : UTF-8 Plain Text
Duration : 42 min 41 s
Bit rate : 81 b/s
Count of elements : 964
Stream size : 25.5 KiB (0%)
Language : English
Default : Yes
Forced : No

Download

Direct download files get automatically deleted after a month or so. Posted on : 01/22/2019

[collapse]
Media Info and Download Links | S01E11

General
Format : Matroska
Format version : Version 4
File size : 197 MiB
Duration : 42 min 40 s
Overall bit rate : 647 kb/s
Movie name : Manifest.S01E11.720p.HDTV.2CH.x265.HEVC
Encoded date : UTC 2019-01-16 16:11:33
Writing application : mkvmerge v30.1.0 (‘Forever And More’) 32-bit
Writing library : libebml v1.3.6 + libmatroska v1.4.9

Video
ID : 1
Format : HEVC
Format/Info : High Efficiency Video Coding
Format profile : [email protected]@Main
Codec ID : V_MPEGH/ISO/HEVC
Duration : 42 min 40 s
Bit rate : 575 kb/s
Width : 1 280 pixels
Height : 720 pixels
Display aspect ratio : 16:9
Frame rate mode : Constant
Frame rate : 23.976 (24000/1001) FPS
Color space : YUV
Chroma subsampling : 4:2:0
Bit depth : 8 bits
Bits/(Pixel*Frame) : 0.026
Stream size : 176 MiB (89%)
Default : Yes
Forced : No

Audio
ID : 2
Format : AAC LC SBR
Commercial name : HE-AAC
Format settings : Explicit
Codec ID : A_AAC-2
Duration : 42 min 39 s
Bit rate : 69.5 kb/s
Channel(s) : 2 channels
Channel layout : L R
Sampling rate : 48.0 kHz
Frame rate : 23.438 FPS (2048 SPF)
Compression mode : Lossy
Delay relative to video : 23 ms
Stream size : 21.2 MiB (11%)
Language : English
Default : Yes
Forced : No

Text
ID : 3
Format : UTF-8
Codec ID : S_TEXT/UTF8
Codec ID/Info : UTF-8 Plain Text
Duration : 42 min 38 s
Bit rate : 85 b/s
Count of elements : 925
Stream size : 26.7 KiB (0%)
Language : English
Default : Yes
Forced : No

Download

Direct download files get automatically deleted after a month or so. Posted on : 01/16/2019

[collapse]
Media Info and Download Links | S01E10

General
Format : Matroska
Format version : Version 4
File size : 220 MiB
Duration : 42 min 50 s
Overall bit rate : 717 kb/s
Movie name : Manifest.S01E10.720p.HDTV.2CH.x265.HEVC
Encoded date : UTC 2019-01-08 15:27:39
Writing application : mkvmerge v30.1.0 (‘Forever And More’) 32-bit
Writing library : libebml v1.3.6 + libmatroska v1.4.9

Video
ID : 1
Format : HEVC
Format/Info : High Efficiency Video Coding
Format profile : [email protected]@Main
Codec ID : V_MPEGH/ISO/HEVC
Duration : 42 min 50 s
Bit rate : 651 kb/s
Width : 1 280 pixels
Height : 720 pixels
Display aspect ratio : 16:9
Frame rate mode : Constant
Frame rate : 23.976 (24000/1001) FPS
Color space : YUV
Chroma subsampling : 4:2:0
Bit depth : 8 bits
Bits/(Pixel*Frame) : 0.029
Stream size : 200 MiB (91%)
Default : Yes
Forced : No
Color range : Limited
Color primaries : BT.709
Transfer characteristics : BT.709
Matrix coefficients : BT.709

Audio
ID : 2
Format : AAC LC SBR
Commercial name : HE-AAC
Format settings : Explicit
Codec ID : A_AAC-2
Duration : 42 min 50 s
Bit rate : 64.0 kb/s
Channel(s) : 2 channels
Channel layout : L R
Sampling rate : 48.0 kHz
Frame rate : 23.438 FPS (2048 SPF)
Compression mode : Lossy
Delay relative to video : -4 ms
Stream size : 19.6 MiB (9%)
Language : English
Default : Yes
Forced : No

Text
ID : 3
Format : UTF-8
Codec ID : S_TEXT/UTF8
Codec ID/Info : UTF-8 Plain Text
Duration : 42 min 45 s
Bit rate : 86 b/s
Count of elements : 872
Stream size : 27.2 KiB (0%)
Language : English
Default : Yes
Forced : No

Download

Direct download files get automatically deleted after a month or so. Posted on : 01/08/2019

[collapse]
Media Info and Download Links | S01E09

General
Format : Matroska
Format version : Version 4
File size : 204 MiB
Duration : 42 min 4 s
Overall bit rate : 678 kb/s
Movie name : Manifest.S01E09.Dead.Reckoning.720p.WEBRip.2CH.x265.HEVC
Encoded date : UTC 2018-11-27 12:42:53
Writing application : mkvmerge v28.2.0 (‘The Awakening’) 32-bit
Writing library : libebml v1.3.6 + libmatroska v1.4.9

Video
ID : 1
Format : HEVC
Format/Info : High Efficiency Video Coding
Format profile : [email protected]@Main
Codec ID : V_MPEGH/ISO/HEVC
Duration : 42 min 4 s
Bit rate : 605 kb/s
Width : 1 280 pixels
Height : 720 pixels
Display aspect ratio : 16:9
Frame rate mode : Constant
Frame rate : 23.976 (24000/1001) FPS
Color space : YUV
Chroma subsampling : 4:2:0
Bit depth : 8 bits
Bits/(Pixel*Frame) : 0.027
Stream size : 182 MiB (89%)
Default : Yes
Forced : No

Audio
ID : 2
Format : AAC LC SBR
Commercial name : HE-AAC
Format settings : Explicit
Codec ID : A_AAC-2
Duration : 42 min 4 s
Bit rate : 72.0 kb/s
Channel(s) : 2 channels
Channel layout : L R
Sampling rate : 48.0 kHz
Frame rate : 23.438 FPS (2048 SPF)
Compression mode : Lossy
Delay relative to video : 23 ms
Stream size : 21.4 MiB (10%)
Language : English
Default : Yes
Forced : No

Text
ID : 3
Format : UTF-8
Codec ID : S_TEXT/UTF8
Codec ID/Info : UTF-8 Plain Text
Duration : 41 min 56 s
Bit rate : 75 b/s
Count of elements : 806
Stream size : 23.2 KiB (0%)
Language : English
Default : Yes
Forced : No

Download

Direct download files get automatically deleted after a month or so. Posted on : 11/27/2018

[collapse]
Media Info and Download Links | S01E08

General
Format : Matroska
Format version : Version 4
File size : 200 MiB
Duration : 42 min 59 s
Overall bit rate : 652 kb/s
Movie name : Manifest.S01E08.Point.of.No.Return.720p.WEBRip.2CH.x265.HEVC
Encoded date : UTC 2018-11-20 14:55:23
Writing application : mkvmerge v28.2.0 (‘The Awakening’) 32-bit
Writing library : libebml v1.3.6 + libmatroska v1.4.9

Video
ID : 1
Format : HEVC
Format/Info : High Efficiency Video Coding
Format profile : [email protected]@Main
Codec ID : V_MPEGH/ISO/HEVC
Duration : 42 min 59 s
Bit rate : 578 kb/s
Width : 1 280 pixels
Height : 720 pixels
Display aspect ratio : 16:9
Frame rate mode : Constant
Frame rate : 23.976 (24000/1001) FPS
Color space : YUV
Chroma subsampling : 4:2:0
Bit depth : 8 bits
Bits/(Pixel*Frame) : 0.026
Stream size : 178 MiB (89%)
Default : Yes
Forced : No

Audio
ID : 2
Format : AAC LC SBR
Commercial name : HE-AAC
Format settings : Explicit
Codec ID : A_AAC-2
Duration : 42 min 59 s
Bit rate : 72.0 kb/s
Channel(s) : 2 channels
Channel layout : L R
Sampling rate : 48.0 kHz
Frame rate : 23.438 FPS (2048 SPF)
Compression mode : Lossy
Delay relative to video : 23 ms
Stream size : 22.2 MiB (11%)
Language : Norwegian
Default : Yes
Forced : No

Text
ID : 3
Format : UTF-8
Codec ID : S_TEXT/UTF8
Codec ID/Info : UTF-8 Plain Text
Duration : 42 min 56 s
Bit rate : 82 b/s
Count of elements : 987
Stream size : 26.1 KiB (0%)
Language : English
Default : Yes
Forced : No

Download

Direct download files get automatically deleted after a month or so. Posted on : 11/20/2018

[collapse]
Media Info and Download Links | S01E07

General
Format : Matroska
Format version : Version 4
File size : 213 MiB
Duration : 42 min 11 s
Overall bit rate : 705 kb/s
Movie name : Manifest.S01E07.720p.HDTV.2CH.x265.HEVC
Encoded date : UTC 2018-11-13 12:16:23
Writing application : mkvmerge v28.2.0 (‘The Awakening’) 32-bit
Writing library : libebml v1.3.6 + libmatroska v1.4.9

Video
ID : 1
Format : HEVC
Format/Info : High Efficiency Video Coding
Format profile : [email protected]@Main
Codec ID : V_MPEGH/ISO/HEVC
Duration : 42 min 11 s
Bit rate : 634 kb/s
Width : 1 280 pixels
Height : 720 pixels
Display aspect ratio : 16:9
Frame rate mode : Constant
Frame rate : 23.976 (24000/1001) FPS
Color space : YUV
Chroma subsampling : 4:2:0
Bit depth : 8 bits
Bits/(Pixel*Frame) : 0.029
Stream size : 191 MiB (90%)
Default : Yes
Forced : No

Audio
ID : 2
Format : AAC LC SBR
Commercial name : HE-AAC
Format settings : Explicit
Codec ID : A_AAC-2
Duration : 42 min 11 s
Bit rate : 68.3 kb/s
Channel(s) : 2 channels
Channel layout : L R
Sampling rate : 48.0 kHz
Frame rate : 23.438 FPS (2048 SPF)
Compression mode : Lossy
Delay relative to video : 23 ms
Stream size : 20.6 MiB (10%)
Language : English
Default : Yes
Forced : No

Text
ID : 3
Format : UTF-8
Codec ID : S_TEXT/UTF8
Codec ID/Info : UTF-8 Plain Text
Duration : 41 min 31 s
Bit rate : 78 b/s
Count of elements : 920
Stream size : 24.0 KiB (0%)
Language : English
Default : Yes
Forced : No

Download

Direct download files get automatically deleted after a month or so. Posted on : 11/13/2018

[collapse]
Media Info and Download Links | S01E06

General
Format : Matroska
Format version : Version 4
File size : 205 MiB
Duration : 42 min 59 s
Overall bit rate : 665 kb/s
Movie name : Manifest.S01E06.Off.Radar.720p.WEBRip.2CH.x265.HEVC
Encoded date : UTC 2018-11-06 11:32:53
Writing application : mkvmerge v28.2.0 (‘The Awakening’) 32-bit
Writing library : libebml v1.3.6 + libmatroska v1.4.9

Video
ID : 1
Format : HEVC
Format/Info : High Efficiency Video Coding
Format profile : [email protected]@Main
Codec ID : V_MPEGH/ISO/HEVC
Duration : 42 min 59 s
Bit rate : 594 kb/s
Width : 1 280 pixels
Height : 720 pixels
Display aspect ratio : 16:9
Frame rate mode : Constant
Frame rate : 23.976 (24000/1001) FPS
Color space : YUV
Chroma subsampling : 4:2:0
Bit depth : 8 bits
Bits/(Pixel*Frame) : 0.027
Stream size : 183 MiB (89%)
Default : Yes
Forced : No

Audio
ID : 2
Format : AAC LC SBR
Commercial name : HE-AAC
Format settings : Explicit
Codec ID : A_AAC-2
Duration : 42 min 58 s
Bit rate : 69.3 kb/s
Channel(s) : 2 channels
Channel layout : L R
Sampling rate : 48.0 kHz
Frame rate : 23.438 FPS (2048 SPF)
Compression mode : Lossy
Delay relative to video : 23 ms
Stream size : 21.3 MiB (10%)
Language : English
Default : Yes
Forced : No

Text
ID : 3
Format : UTF-8
Codec ID : S_TEXT/UTF8
Codec ID/Info : UTF-8 Plain Text
Duration : 42 min 54 s
Bit rate : 97 b/s
Count of elements : 965
Stream size : 30.5 KiB (0%)
Language : English
Default : Yes
Forced : No

Download

Direct download files get automatically deleted after a month or so. Posted on : 11/06/2018

[collapse]
Media Info and Download Links | S01E05

General
Format : Matroska
Format version : Version 4
File size : 194 MiB
Duration : 42 min 20 s
Overall bit rate : 639 kb/s
Movie name : Manifest.S01E05.Connecting.Flights.720p.WEBRip.2CH.x265.HEVC
Encoded date : UTC 2018-10-23 22:13:14
Writing application : mkvmerge v28.0.0 (‘Voice In My Head’) 32-bit
Writing library : libebml v1.3.6 + libmatroska v1.4.9

Video
ID : 1
Format : HEVC
Format/Info : High Efficiency Video Coding
Format profile : [email protected]@Main
Codec ID : V_MPEGH/ISO/HEVC
Duration : 42 min 20 s
Bit rate : 569 kb/s
Width : 1 280 pixels
Height : 720 pixels
Display aspect ratio : 16:9
Frame rate mode : Constant
Frame rate : 23.976 (24000/1001) FPS
Color space : YUV
Chroma subsampling : 4:2:0
Bit depth : 8 bits
Bits/(Pixel*Frame) : 0.026
Stream size : 172 MiB (89%)
Default : Yes
Forced : No

Audio
ID : 2
Format : AAC LC SBR
Commercial name : HE-AAC
Format settings : Explicit
Codec ID : A_AAC-2
Duration : 42 min 20 s
Bit rate : 67.5 kb/s
Channel(s) : 2 channels
Channel layout : L R
Sampling rate : 48.0 kHz
Frame rate : 23.438 FPS (2048 SPF)
Compression mode : Lossy
Delay relative to video : 23 ms
Stream size : 20.4 MiB (11%)
Language : English
Default : Yes
Forced : No

Text
ID : 3
Format : UTF-8
Codec ID : S_TEXT/UTF8
Codec ID/Info : UTF-8 Plain Text
Duration : 41 min 46 s
Bit rate : 74 b/s
Count of elements : 780
Stream size : 22.9 KiB (0%)
Language : English
Default : Yes
Forced : No

Download

Direct download files get automatically deleted after a month or so. Posted on : 10/24/2018

[collapse]
Media Info and Download Links | S01E04

General
Format : Matroska
Format version : Version 4
File size : 203 MiB
Duration : 42 min 46 s
Overall bit rate : 663 kb/s
Movie name : Manifest.S01E04.720p.HDTV.2CH.x265.HEVC
Encoded date : UTC 2018-10-16 10:43:04
Writing application : mkvmerge v27.0.0 (‘Metropolis’) 32-bit
Writing library : libebml v1.3.6 + libmatroska v1.4.9

Video
ID : 1
Format : HEVC
Format/Info : High Efficiency Video Coding
Format profile : [email protected]@Main
Codec ID : V_MPEGH/ISO/HEVC
Duration : 42 min 46 s
Bit rate : 592 kb/s
Width : 1 280 pixels
Height : 720 pixels
Display aspect ratio : 16:9
Frame rate mode : Constant
Frame rate : 23.976 (24000/1001) FPS
Color space : YUV
Chroma subsampling : 4:2:0
Bit depth : 8 bits
Bits/(Pixel*Frame) : 0.027
Stream size : 181 MiB (89%)
Default : Yes
Forced : No

Audio
ID : 2
Format : AAC LC SBR
Commercial name : HE-AAC
Format settings : Explicit
Codec ID : A_AAC-2
Duration : 42 min 46 s
Bit rate : 69.0 kb/s
Channel(s) : 2 channels
Channel layout : L R
Sampling rate : 48.0 kHz
Frame rate : 23.438 FPS (2048 SPF)
Compression mode : Lossy
Delay relative to video : 23 ms
Stream size : 21.1 MiB (10%)
Language : English
Default : Yes
Forced : No

Text
ID : 3
Format : UTF-8
Codec ID : S_TEXT/UTF8
Codec ID/Info : UTF-8 Plain Text
Duration : 42 min 8 s
Bit rate : 83 b/s
Count of elements : 952
Stream size : 25.8 KiB (0%)
Language : English
Default : Yes
Forced : No

Download

Direct download files get automatically deleted after a month or so. Posted on : 10/16/2018

[collapse]
Media Info and Download Links | S01E03

General
Format : Matroska
Format version : Version 4
File size : 193 MiB
Duration : 42 min 46 s
Overall bit rate : 632 kb/s
Movie name : Manifest.S01E03.PROPER.720p.HDTV.2CH.x265.HEVC
Encoded date : UTC 2018-10-09 15:09:14
Writing application : mkvmerge v27.0.0 (‘Metropolis’) 32-bit
Writing library : libebml v1.3.6 + libmatroska v1.4.9

Video
ID : 1
Format : HEVC
Format/Info : High Efficiency Video Coding
Format profile : [email protected]@Main
Codec ID : V_MPEGH/ISO/HEVC
Duration : 42 min 46 s
Bit rate : 562 kb/s
Width : 1 280 pixels
Height : 720 pixels
Display aspect ratio : 16:9
Frame rate mode : Constant
Frame rate : 23.976 (24000/1001) FPS
Color space : YUV
Chroma subsampling : 4:2:0
Bit depth : 8 bits
Bits/(Pixel*Frame) : 0.025
Stream size : 172 MiB (89%)
Default : Yes
Forced : No

Audio
ID : 2
Format : AAC LC SBR
Commercial name : HE-AAC
Format settings : Explicit
Codec ID : A_AAC-2
Duration : 42 min 46 s
Bit rate : 68.5 kb/s
Channel(s) : 2 channels
Channel layout : L R
Sampling rate : 48.0 kHz
Frame rate : 23.438 FPS (2048 SPF)
Compression mode : Lossy
Delay relative to video : 23 ms
Stream size : 20.9 MiB (11%)
Language : English
Default : Yes
Forced : No

Text
ID : 3
Format : UTF-8
Codec ID : S_TEXT/UTF8
Codec ID/Info : UTF-8 Plain Text
Duration : 42 min 8 s
Bit rate : 83 b/s
Count of elements : 914
Stream size : 25.9 KiB (0%)
Language : English
Default : Yes
Forced : No

Download

Direct download files get automatically deleted after a month or so. Posted on : 10/09/2018

[collapse]
Media Info and Download Links | S01E02

General
Format : Matroska
Format version : Version 4
File size : 189 MiB
Duration : 42 min 20 s
Overall bit rate : 625 kb/s
Movie name : Manifest.S01E02.Reentry.720p.WEBRip.2CH.x265.HEVC
Encoded date : UTC 2018-10-02 10:26:06
Writing application : mkvmerge v27.0.0 (‘Metropolis’) 32-bit
Writing library : libebml v1.3.6 + libmatroska v1.4.9

Video
ID : 1
Format : HEVC
Format/Info : High Efficiency Video Coding
Format profile : [email protected]@Main
Codec ID : V_MPEGH/ISO/HEVC
Duration : 42 min 20 s
Bit rate : 557 kb/s
Width : 1 280 pixels
Height : 720 pixels
Display aspect ratio : 16:9
Frame rate mode : Constant
Frame rate : 23.976 (24000/1001) FPS
Color space : YUV
Chroma subsampling : 4:2:0
Bit depth : 8 bits
Bits/(Pixel*Frame) : 0.025
Stream size : 169 MiB (89%)
Default : Yes
Forced : No

Audio
ID : 2
Format : AAC LC SBR
Commercial name : HE-AAC
Format settings : Explicit
Codec ID : A_AAC-2
Duration : 42 min 19 s
Bit rate : 66.2 kb/s
Channel(s) : 2 channels
Channel layout : L R
Sampling rate : 48.0 kHz
Frame rate : 23.438 FPS (2048 SPF)
Compression mode : Lossy
Delay relative to video : 23 ms
Stream size : 20.2 MiB (11%)
Language : English
Default : Yes
Forced : No

Text
ID : 3
Format : UTF-8
Codec ID : S_TEXT/UTF8
Codec ID/Info : UTF-8 Plain Text
Duration : 42 min 14 s
Bit rate : 80 b/s
Count of elements : 855
Stream size : 24.9 KiB (0%)
Language : English
Default : Yes
Forced : No

Download

Direct download files get automatically deleted after a month or so. Posted on : 10/02/2018

[collapse]
Media Info and Download Links | S01E01

General
Format : Matroska
Format version : Version 4
File size : 210 MiB
Duration : 42 min 32 s
Overall bit rate : 690 kb/s
Movie name : Manifest.S01E01.Pilot.720p.WEBRip.2CH.x265.HEVC
Encoded date : UTC 2018-09-25 18:53:44
Writing application : mkvmerge v26.0.0 (‘In The Game’) 32-bit
Writing library : libebml v1.3.6 + libmatroska v1.4.9

Video
ID : 1
Format : HEVC
Format/Info : High Efficiency Video Coding
Format profile : [email protected]@Main
Codec ID : V_MPEGH/ISO/HEVC
Duration : 42 min 32 s
Bit rate : 619 kb/s
Width : 1 280 pixels
Height : 720 pixels
Display aspect ratio : 16:9
Frame rate mode : Constant
Frame rate : 23.976 (24000/1001) FPS
Color space : YUV
Chroma subsampling : 4:2:0
Bit depth : 8 bits
Bits/(Pixel*Frame) : 0.028
Stream size : 188 MiB (90%)
Default : Yes
Forced : No

Audio
ID : 2
Format : AAC LC SBR
Commercial name : HE-AAC
Format settings : Explicit
Codec ID : A_AAC-2
Duration : 42 min 31 s
Bit rate : 69.3 kb/s
Channel(s) : 2 channels
Channel layout : L R
Sampling rate : 48.0 kHz
Frame rate : 23.438 FPS (2048 SPF)
Compression mode : Lossy
Delay relative to video : 23 ms
Stream size : 21.1 MiB (10%)
Language : English
Default : Yes
Forced : No

Text
ID : 3
Format : UTF-8
Codec ID : S_TEXT/UTF8
Codec ID/Info : UTF-8 Plain Text
Duration : 41 min 55 s
Bit rate : 76 b/s
Count of elements : 808
Stream size : 23.5 KiB (0%)
Language : English
Default : Yes
Forced : No

Download

Direct download files get automatically deleted after a month or so. Posted on : 09/25/2018

[collapse]

You may also like...

error: nah :p~