Modern Family

TV-PG | 22min | Comedy , Romance | TV Series (2009– )

Three different, but related families face trials and tribulations in their own uniquely comedic ways.

Watch trailer

Media Info and Download Links | S10E08

General
Format : Matroska
Format version : Version 4
File size : 145 MiB
Duration : 21 min 23 s
Overall bit rate : 946 kb/s
Movie name : Modern.Family.S10E08.Kids.These.Days.720p.WEBRip.2CH.x265.HEVC
Encoded date : UTC 2018-11-29 12:59:38
Writing application : mkvmerge v28.2.0 (‘The Awakening’) 32-bit
Writing library : libebml v1.3.6 + libmatroska v1.4.9

Video
ID : 1
Format : HEVC
Format/Info : High Efficiency Video Coding
Format profile : [email protected]@Main
Codec ID : V_MPEGH/ISO/HEVC
Duration : 21 min 23 s
Bit rate : 887 kb/s
Width : 1 280 pixels
Height : 720 pixels
Display aspect ratio : 16:9
Frame rate mode : Constant
Frame rate : 23.976 (24000/1001) FPS
Color space : YUV
Chroma subsampling : 4:2:0
Bit depth : 8 bits
Bits/(Pixel*Frame) : 0.040
Stream size : 136 MiB (94%)
Default : Yes
Forced : No

Audio
ID : 2
Format : AAC LC SBR
Commercial name : HE-AAC
Format settings : Explicit
Codec ID : A_AAC-2
Duration : 21 min 23 s
Bit rate : 56.7 kb/s
Channel(s) : 2 channels
Channel layout : L R
Sampling rate : 48.0 kHz
Frame rate : 23.438 FPS (2048 SPF)
Compression mode : Lossy
Delay relative to video : 23 ms
Stream size : 8.67 MiB (6%)
Language : English
Default : Yes
Forced : No

Text
ID : 3
Format : UTF-8
Codec ID : S_TEXT/UTF8
Codec ID/Info : UTF-8 Plain Text
Duration : 21 min 19 s
Bit rate : 117 b/s
Count of elements : 611
Stream size : 18.3 KiB (0%)
Language : English
Default : Yes
Forced : No

Download

Direct download files get automatically deleted after a month or so. Posted on : 11/29/2018

[collapse]
Media Info and Download Links | S10E07

General
Format : Matroska
Format version : Version 4
File size : 136 MiB
Duration : 21 min 33 s
Overall bit rate : 883 kb/s
Movie name : Modern.Family.S10E07.Did.the.Chicken.Cross.the.Road.720p.WEBRip.2CH.x265.HEVC
Encoded date : UTC 2018-11-08 15:31:54
Writing application : mkvmerge v28.2.0 (‘The Awakening’) 32-bit
Writing library : libebml v1.3.6 + libmatroska v1.4.9

Video
ID : 1
Format : HEVC
Format/Info : High Efficiency Video Coding
Format profile : [email protected]@Main
Codec ID : V_MPEGH/ISO/HEVC
Duration : 21 min 33 s
Bit rate : 823 kb/s
Width : 1 280 pixels
Height : 720 pixels
Display aspect ratio : 16:9
Frame rate mode : Constant
Frame rate : 23.976 (24000/1001) FPS
Color space : YUV
Chroma subsampling : 4:2:0
Bit depth : 8 bits
Bits/(Pixel*Frame) : 0.037
Stream size : 127 MiB (93%)
Default : Yes
Forced : No

Audio
ID : 2
Format : AAC LC SBR
Commercial name : HE-AAC
Format settings : Explicit
Codec ID : A_AAC-2
Duration : 21 min 33 s
Bit rate : 57.2 kb/s
Channel(s) : 2 channels
Channel layout : L R
Sampling rate : 48.0 kHz
Frame rate : 23.438 FPS (2048 SPF)
Compression mode : Lossy
Delay relative to video : 23 ms
Stream size : 8.82 MiB (6%)
Default : Yes
Forced : No

Text
ID : 3
Format : UTF-8
Codec ID : S_TEXT/UTF8
Codec ID/Info : UTF-8 Plain Text
Duration : 21 min 30 s
Bit rate : 126 b/s
Count of elements : 567
Stream size : 19.9 KiB (0%)
Language : English
Default : Yes
Forced : No

Download

Direct download files get automatically deleted after a month or so. Posted on : 11/08/2018

[collapse]
Media Info and Download Links | S10E06

General
Format : Matroska
Format version : Version 4
File size : 126 MiB
Duration : 21 min 32 s
Overall bit rate : 820 kb/s
Movie name : Modern.Family.S10E06.On.the.Same.Paige.720p.WEBRip.2CH.x265.HEVC
Encoded date : UTC 2018-11-01 13:08:47
Writing application : mkvmerge v28.2.0 (‘The Awakening’) 32-bit
Writing library : libebml v1.3.6 + libmatroska v1.4.9

Video
ID : 1
Format : HEVC
Format/Info : High Efficiency Video Coding
Format profile : [email protected]@Main
Codec ID : V_MPEGH/ISO/HEVC
Duration : 21 min 32 s
Bit rate : 760 kb/s
Width : 1 280 pixels
Height : 720 pixels
Display aspect ratio : 16:9
Frame rate mode : Constant
Frame rate : 23.976 (24000/1001) FPS
Color space : YUV
Chroma subsampling : 4:2:0
Bit depth : 8 bits
Bits/(Pixel*Frame) : 0.034
Stream size : 117 MiB (93%)
Default : Yes
Forced : No

Audio
ID : 2
Format : AAC LC SBR
Commercial name : HE-AAC
Format settings : Explicit
Codec ID : A_AAC-2
Duration : 21 min 32 s
Bit rate : 58.2 kb/s
Channel(s) : 2 channels
Channel layout : L R
Sampling rate : 48.0 kHz
Frame rate : 23.438 FPS (2048 SPF)
Compression mode : Lossy
Delay relative to video : 23 ms
Stream size : 8.96 MiB (7%)
Default : Yes
Forced : No

Text
ID : 3
Format : UTF-8
Codec ID : S_TEXT/UTF8
Codec ID/Info : UTF-8 Plain Text
Duration : 21 min 22 s
Bit rate : 124 b/s
Count of elements : 619
Stream size : 19.5 KiB (0%)
Language : English
Default : Yes
Forced : No

Download

Direct download files get automatically deleted after a month or so. Posted on : 11/01/2018

[collapse]
Media Info and Download Links | S10E05

General
Format : Matroska
Format version : Version 4
File size : 126 MiB
Duration : 21 min 25 s
Overall bit rate : 824 kb/s
Movie name : Modern.Family.S10E05.720p.HDTV.2CH.x265.HEVC
Encoded date : UTC 2018-10-25 09:49:56
Writing application : mkvmerge v27.0.0 (‘Metropolis’) 32-bit
Writing library : libebml v1.3.6 + libmatroska v1.4.9

Video
ID : 1
Format : HEVC
Format/Info : High Efficiency Video Coding
Format profile : [email protected]@Main
Codec ID : V_MPEGH/ISO/HEVC
Duration : 21 min 25 s
Bit rate : 765 kb/s
Width : 1 280 pixels
Height : 720 pixels
Display aspect ratio : 16:9
Frame rate mode : Constant
Frame rate : 23.976 (24000/1001) FPS
Color space : YUV
Chroma subsampling : 4:2:0
Bit depth : 8 bits
Bits/(Pixel*Frame) : 0.035
Stream size : 117 MiB (93%)
Default : Yes
Forced : No

Audio
ID : 2
Format : AAC LC SBR
Commercial name : HE-AAC
Format settings : Explicit
Codec ID : A_AAC-2
Duration : 21 min 25 s
Bit rate : 57.6 kb/s
Channel(s) : 2 channels
Channel layout : L R
Sampling rate : 48.0 kHz
Frame rate : 23.438 FPS (2048 SPF)
Compression mode : Lossy
Delay relative to video : 23 ms
Stream size : 8.83 MiB (7%)
Language : English
Default : Yes
Forced : No

Text
ID : 3
Format : UTF-8
Codec ID : S_TEXT/UTF8
Codec ID/Info : UTF-8 Plain Text
Duration : 21 min 23 s
Bit rate : 122 b/s
Count of elements : 565
Stream size : 19.2 KiB (0%)
Language : English
Default : Yes
Forced : No

Download

Direct download files get automatically deleted after a month or so. Posted on : 10/25/2018

[collapse]
Media Info and Download Links | S10E04

General
Format : Matroska
Format version : Version 4
File size : 137 MiB
Duration : 21 min 28 s
Overall bit rate : 892 kb/s
Movie name : Modern.Family.S10E04.Torn.Between.Two.Lovers.720p.WEBRip.2CH.x265.HEVC
Encoded date : UTC 2018-10-20 12:46:10
Writing application : mkvmerge v27.0.0 (‘Metropolis’) 32-bit
Writing library : libebml v1.3.6 + libmatroska v1.4.9

Video
ID : 1
Format : HEVC
Format/Info : High Efficiency Video Coding
Format profile : [email protected]@Main
Codec ID : V_MPEGH/ISO/HEVC
Duration : 21 min 28 s
Bit rate : 832 kb/s
Width : 1 280 pixels
Height : 720 pixels
Display aspect ratio : 16:9
Frame rate mode : Constant
Frame rate : 23.976 (24000/1001) FPS
Color space : YUV
Chroma subsampling : 4:2:0
Bit depth : 8 bits
Bits/(Pixel*Frame) : 0.038
Stream size : 128 MiB (93%)
Default : Yes
Forced : No

Audio
ID : 2
Format : AAC LC SBR
Commercial name : HE-AAC
Format settings : Explicit
Codec ID : A_AAC-2
Duration : 21 min 28 s
Bit rate : 57.6 kb/s
Channel(s) : 2 channels
Channel layout : L R
Sampling rate : 48.0 kHz
Frame rate : 23.438 FPS (2048 SPF)
Compression mode : Lossy
Delay relative to video : 23 ms
Stream size : 8.84 MiB (6%)
Language : English
Default : Yes
Forced : No

Text
ID : 3
Format : UTF-8
Codec ID : S_TEXT/UTF8
Codec ID/Info : UTF-8 Plain Text
Duration : 21 min 16 s
Bit rate : 121 b/s
Count of elements : 614
Stream size : 18.9 KiB (0%)
Language : English
Default : Yes
Forced : No

Download

Direct download files get automatically deleted after a month or so. Posted on : 10/20/2018

[collapse]
Media Info and Download Links | S10E03

General
Format : Matroska
Format version : Version 4
File size : 130 MiB
Duration : 21 min 33 s
Overall bit rate : 843 kb/s
Movie name : Modern.Family.S10E03.A.Sketchy.Area.720p.WEBRip.2CH.x265.HEVC
Encoded date : UTC 2018-10-11 20:10:31
Writing application : mkvmerge v27.0.0 (‘Metropolis’) 32-bit
Writing library : libebml v1.3.6 + libmatroska v1.4.9

Video
ID : 1
Format : HEVC
Format/Info : High Efficiency Video Coding
Format profile : [email protected]@Main
Codec ID : V_MPEGH/ISO/HEVC
Duration : 21 min 33 s
Bit rate : 783 kb/s
Width : 1 280 pixels
Height : 720 pixels
Display aspect ratio : 16:9
Frame rate mode : Constant
Frame rate : 23.976 (24000/1001) FPS
Color space : YUV
Chroma subsampling : 4:2:0
Bit depth : 8 bits
Bits/(Pixel*Frame) : 0.035
Stream size : 121 MiB (93%)
Default : Yes
Forced : No

Audio
ID : 2
Format : AAC LC SBR
Commercial name : HE-AAC
Format settings : Explicit
Codec ID : A_AAC-2
Duration : 21 min 32 s
Bit rate : 57.3 kb/s
Channel(s) : 2 channels
Channel layout : L R
Sampling rate : 48.0 kHz
Frame rate : 23.438 FPS (2048 SPF)
Compression mode : Lossy
Delay relative to video : 23 ms
Stream size : 8.83 MiB (7%)
Language : English
Default : Yes
Forced : No

Text
ID : 3
Format : UTF-8
Codec ID : S_TEXT/UTF8
Codec ID/Info : UTF-8 Plain Text
Duration : 21 min 29 s
Bit rate : 116 b/s
Count of elements : 586
Stream size : 18.4 KiB (0%)
Language : English
Default : Yes
Forced : No

Download

Direct download files get automatically deleted after a month or so. Posted on : 10/11/2018

[collapse]
Media Info and Download Links | S10E02

General
Format : Matroska
Format version : Version 4
File size : 148 MiB
Duration : 21 min 31 s
Overall bit rate : 959 kb/s
Movie name : Modern.Family.S10E02.Kiss.and.Tell.720p.WEBRip.2CH.x265.HEVC
Encoded date : UTC 2018-10-04 19:49:44
Writing application : mkvmerge v27.0.0 (‘Metropolis’) 32-bit
Writing library : libebml v1.3.6 + libmatroska v1.4.9

Video
ID : 1
Format : HEVC
Format/Info : High Efficiency Video Coding
Format profile : [email protected]@Main
Codec ID : V_MPEGH/ISO/HEVC
Duration : 21 min 31 s
Bit rate : 900 kb/s
Width : 1 280 pixels
Height : 720 pixels
Display aspect ratio : 16:9
Frame rate mode : Constant
Frame rate : 23.976 (24000/1001) FPS
Color space : YUV
Chroma subsampling : 4:2:0
Bit depth : 8 bits
Bits/(Pixel*Frame) : 0.041
Stream size : 139 MiB (94%)
Default : Yes
Forced : No

Audio
ID : 2
Format : AAC LC SBR
Commercial name : HE-AAC
Format settings : Explicit
Codec ID : A_AAC-2
Duration : 21 min 31 s
Bit rate : 57.3 kb/s
Channel(s) : 2 channels
Channel layout : L R
Sampling rate : 48.0 kHz
Frame rate : 23.438 FPS (2048 SPF)
Compression mode : Lossy
Delay relative to video : 23 ms
Stream size : 8.82 MiB (6%)
Language : English
Default : Yes
Forced : No

Text
ID : 3
Format : UTF-8
Codec ID : S_TEXT/UTF8
Codec ID/Info : UTF-8 Plain Text
Duration : 21 min 21 s
Bit rate : 128 b/s
Count of elements : 627
Stream size : 20.0 KiB (0%)
Language : English
Default : Yes
Forced : No

Download

Direct download files get automatically deleted after a month or so. Posted on : 10/04/2018

[collapse]
Media Info and Download Links | S10E01

General
Format : Matroska
Format version : Version 4
File size : 147 MiB
Duration : 21 min 32 s
Overall bit rate : 952 kb/s
Movie name : Modern.Family.S10E01.I.Love.a.Parade.720p.WEBRip.2CH.x265.HEVC
Encoded date : UTC 2018-10-04 19:48:08
Writing application : mkvmerge v27.0.0 (‘Metropolis’) 32-bit
Writing library : libebml v1.3.6 + libmatroska v1.4.9

Video
ID : 1
Format : HEVC
Format/Info : High Efficiency Video Coding
Format profile : [email protected]@Main
Codec ID : V_MPEGH/ISO/HEVC
Duration : 21 min 32 s
Bit rate : 893 kb/s
Width : 1 280 pixels
Height : 720 pixels
Display aspect ratio : 16:9
Frame rate mode : Constant
Frame rate : 23.976 (24000/1001) FPS
Color space : YUV
Chroma subsampling : 4:2:0
Bit depth : 8 bits
Bits/(Pixel*Frame) : 0.040
Stream size : 138 MiB (94%)
Default : Yes
Forced : No

Audio
ID : 2
Format : AAC LC SBR
Commercial name : HE-AAC
Format settings : Explicit
Codec ID : A_AAC-2
Duration : 21 min 32 s
Bit rate : 57.2 kb/s
Channel(s) : 2 channels
Channel layout : L R
Sampling rate : 48.0 kHz
Frame rate : 23.438 FPS (2048 SPF)
Compression mode : Lossy
Delay relative to video : 23 ms
Stream size : 8.81 MiB (6%)
Language : English
Default : Yes
Forced : No

Text
ID : 3
Format : UTF-8
Codec ID : S_TEXT/UTF8
Codec ID/Info : UTF-8 Plain Text
Duration : 21 min 22 s
Bit rate : 127 b/s
Count of elements : 641
Stream size : 19.9 KiB (0%)
Language : English
Default : Yes
Forced : No

Download

Direct download files get automatically deleted after a month or so. Posted on : 10/04/2018

[collapse]

You may also like...

error: nah :p~