New Amsterdam

TV-14 | 43min | Drama | TV Series (2018– )

A new medical director breaks the rules to heal the system at America’s oldest public hospital.

Watch trailer

Media Info and Download Links | S01E09

General
Format : Matroska
Format version : Version 4
File size : 215 MiB
Duration : 42 min 56 s
Overall bit rate : 700 kb/s
Movie name : New.Amsterdam.2018.S01E09.As.Long.As.It.Takes.720p.WEBRip.2CH.x265.HEVC
Encoded date : UTC 2018-11-28 11:38:11
Writing application : mkvmerge v28.2.0 (‘The Awakening’) 32-bit
Writing library : libebml v1.3.6 + libmatroska v1.4.9

Video
ID : 1
Format : HEVC
Format/Info : High Efficiency Video Coding
Format profile : [email protected]@Main
Codec ID : V_MPEGH/ISO/HEVC
Duration : 42 min 56 s
Bit rate : 635 kb/s
Width : 1 280 pixels
Height : 720 pixels
Display aspect ratio : 16:9
Frame rate mode : Constant
Frame rate : 23.976 (24000/1001) FPS
Color space : YUV
Chroma subsampling : 4:2:0
Bit depth : 8 bits
Bits/(Pixel*Frame) : 0.029
Stream size : 195 MiB (91%)
Default : Yes
Forced : No

Audio
ID : 2
Format : AAC LC SBR
Commercial name : HE-AAC
Format settings : Explicit
Codec ID : A_AAC-2
Duration : 42 min 56 s
Bit rate : 62.7 kb/s
Channel(s) : 2 channels
Channel layout : L R
Sampling rate : 48.0 kHz
Frame rate : 23.438 FPS (2048 SPF)
Compression mode : Lossy
Delay relative to video : 23 ms
Stream size : 19.3 MiB (9%)
Language : English
Default : Yes
Forced : No

Text
ID : 3
Format : UTF-8
Codec ID : S_TEXT/UTF8
Codec ID/Info : UTF-8 Plain Text
Duration : 42 min 13 s
Bit rate : 89 b/s
Count of elements : 1039
Stream size : 27.7 KiB (0%)
Language : English
Default : Yes
Forced : No

Download

Direct download files get automatically deleted after a month or so. Posted on : 11/28/2018

[collapse]
Media Info and Download Links | S01E08

General
Format : Matroska
Format version : Version 4
File size : 203 MiB
Duration : 42 min 56 s
Overall bit rate : 660 kb/s
Movie name : New.Amsterdam.2018.S01E08.Three.Dots.720p.WEBRip.2CH.x265.HEVC
Encoded date : UTC 2018-11-21 16:39:24
Writing application : mkvmerge v28.2.0 (‘The Awakening’) 32-bit
Writing library : libebml v1.3.6 + libmatroska v1.4.9

Video
ID : 1
Format : HEVC
Format/Info : High Efficiency Video Coding
Format profile : [email protected]@Main
Codec ID : V_MPEGH/ISO/HEVC
Duration : 42 min 56 s
Bit rate : 595 kb/s
Width : 1 280 pixels
Height : 720 pixels
Display aspect ratio : 16:9
Frame rate mode : Constant
Frame rate : 23.976 (24000/1001) FPS
Color space : YUV
Chroma subsampling : 4:2:0
Bit depth : 8 bits
Bits/(Pixel*Frame) : 0.027
Stream size : 183 MiB (90%)
Default : Yes
Forced : No

Audio
ID : 2
Format : AAC LC SBR
Commercial name : HE-AAC
Format settings : Explicit
Codec ID : A_AAC-2
Duration : 42 min 56 s
Bit rate : 63.1 kb/s
Channel(s) : 2 channels
Channel layout : L R
Sampling rate : 48.0 kHz
Frame rate : 23.438 FPS (2048 SPF)
Compression mode : Lossy
Delay relative to video : 23 ms
Stream size : 19.4 MiB (10%)
Language : English
Default : Yes
Forced : No

Text
ID : 3
Format : UTF-8
Codec ID : S_TEXT/UTF8
Codec ID/Info : UTF-8 Plain Text
Duration : 42 min 18 s
Bit rate : 84 b/s
Count of elements : 982
Stream size : 26.3 KiB (0%)
Language : English
Default : Yes
Forced : No

Download

Direct download files get automatically deleted after a month or so. Posted on : 11/21/2018

[collapse]
Media Info and Download Links | S01E07

General
Format : Matroska
Format version : Version 4
File size : 187 MiB
Duration : 42 min 23 s
Overall bit rate : 617 kb/s
Movie name : New.Amsterdam.2018.S01E07.720p.HDTV.2CH.x265.HEVC
Encoded date : UTC 2018-11-14 18:00:37
Writing application : mkvmerge v28.2.0 (‘The Awakening’) 32-bit
Writing library : libebml v1.3.6 + libmatroska v1.4.9

Video
ID : 1
Format : HEVC
Format/Info : High Efficiency Video Coding
Format profile : [email protected]@Main
Codec ID : V_MPEGH/ISO/HEVC
Duration : 42 min 23 s
Bit rate : 553 kb/s
Width : 1 280 pixels
Height : 720 pixels
Display aspect ratio : 16:9
Frame rate mode : Constant
Frame rate : 23.976 (24000/1001) FPS
Color space : YUV
Chroma subsampling : 4:2:0
Bit depth : 8 bits
Bits/(Pixel*Frame) : 0.025
Stream size : 168 MiB (90%)
Default : Yes
Forced : No

Audio
ID : 2
Format : AAC LC SBR
Commercial name : HE-AAC
Format settings : Explicit
Codec ID : A_AAC-2
Duration : 42 min 23 s
Bit rate : 62.4 kb/s
Channel(s) : 2 channels
Channel layout : L R
Sampling rate : 48.0 kHz
Frame rate : 23.438 FPS (2048 SPF)
Compression mode : Lossy
Delay relative to video : 23 ms
Stream size : 18.9 MiB (10%)
Default : Yes
Forced : No

Text
ID : 3
Format : UTF-8
Codec ID : S_TEXT/UTF8
Codec ID/Info : UTF-8 Plain Text
Duration : 42 min 23 s
Bit rate : 80 b/s
Count of elements : 948
Stream size : 24.9 KiB (0%)
Language : English
Default : Yes
Forced : No

Download

Direct download files get automatically deleted after a month or so. Posted on : 11/14/2018

[collapse]
Media Info and Download Links | S01E06

General
Format : Matroska
Format version : Version 4
File size : 197 MiB
Duration : 42 min 23 s
Overall bit rate : 651 kb/s
Movie name : New.Amsterdam.2018.S01E06.720p.HDTV.2CH.x265.HEVC
Encoded date : UTC 2018-10-31 13:04:05
Writing application : mkvmerge v28.2.0 (‘The Awakening’) 32-bit
Writing library : libebml v1.3.6 + libmatroska v1.4.9

Video
ID : 1
Format : HEVC
Format/Info : High Efficiency Video Coding
Format profile : [email protected]@Main
Codec ID : V_MPEGH/ISO/HEVC
Duration : 42 min 23 s
Bit rate : 587 kb/s
Width : 1 280 pixels
Height : 720 pixels
Display aspect ratio : 16:9
Frame rate mode : Constant
Frame rate : 23.976 (24000/1001) FPS
Color space : YUV
Chroma subsampling : 4:2:0
Bit depth : 8 bits
Bits/(Pixel*Frame) : 0.027
Stream size : 178 MiB (90%)
Default : Yes
Forced : No

Audio
ID : 2
Format : AAC LC SBR
Commercial name : HE-AAC
Format settings : Explicit
Codec ID : A_AAC-2
Duration : 42 min 23 s
Bit rate : 62.4 kb/s
Channel(s) : 2 channels
Channel layout : L R
Sampling rate : 48.0 kHz
Frame rate : 23.438 FPS (2048 SPF)
Compression mode : Lossy
Delay relative to video : 23 ms
Stream size : 18.9 MiB (10%)
Default : Yes
Forced : No

Text
ID : 3
Format : UTF-8
Codec ID : S_TEXT/UTF8
Codec ID/Info : UTF-8 Plain Text
Duration : 42 min 23 s
Bit rate : 93 b/s
Count of elements : 1009
Stream size : 29.0 KiB (0%)
Language : English
Default : Yes
Forced : No

Download

Direct download files get automatically deleted after a month or so. Posted on : 10/31/2018

[collapse]
Media Info and Download Links | S01E05

General
Format : Matroska
Format version : Version 4
File size : 210 MiB
Duration : 42 min 16 s
Overall bit rate : 695 kb/s
Movie name : New.Amsterdam.2018.S01E05.720p.HDTV.2CH.x265.HEVC
Encoded date : UTC 2018-10-24 10:46:31
Writing application : mkvmerge v28.1.0 (‘Morning Child’) 32-bit
Writing library : libebml v1.3.6 + libmatroska v1.4.9

Video
ID : 1
Format : HEVC
Format/Info : High Efficiency Video Coding
Format profile : [email protected]@Main
Codec ID : V_MPEGH/ISO/HEVC
Duration : 42 min 16 s
Bit rate : 631 kb/s
Width : 1 280 pixels
Height : 720 pixels
Display aspect ratio : 16:9
Frame rate mode : Constant
Frame rate : 23.976 (24000/1001) FPS
Color space : YUV
Chroma subsampling : 4:2:0
Bit depth : 8 bits
Bits/(Pixel*Frame) : 0.029
Stream size : 191 MiB (91%)
Default : Yes
Forced : No

Audio
ID : 2
Format : AAC LC SBR
Commercial name : HE-AAC
Format settings : Explicit
Codec ID : A_AAC-2
Duration : 42 min 16 s
Bit rate : 61.7 kb/s
Channel(s) : 2 channels
Channel layout : L R
Sampling rate : 48.0 kHz
Frame rate : 23.438 FPS (2048 SPF)
Compression mode : Lossy
Delay relative to video : 23 ms
Stream size : 18.7 MiB (9%)
Language : English
Default : Yes
Forced : No

Text
ID : 3
Format : UTF-8
Codec ID : S_TEXT/UTF8
Codec ID/Info : UTF-8 Plain Text
Duration : 42 min 5 s
Bit rate : 89 b/s
Count of elements : 1009
Stream size : 27.5 KiB (0%)
Language : English
Default : Yes
Forced : No

Download

Direct download files get automatically deleted after a month or so. Posted on : 10/24/2018

[collapse]
Media Info and Download Links | S01E04

General
Format : Matroska
Format version : Version 4
File size : 209 MiB
Duration : 42 min 4 s
Overall bit rate : 696 kb/s
Movie name : New.Amsterdam.2018.S01E04.720p.HDTV.2CH.x265.HEVC
Encoded date : UTC 2018-10-17 15:24:40
Writing application : mkvmerge v27.0.0 (‘Metropolis’) 32-bit
Writing library : libebml v1.3.6 + libmatroska v1.4.9

Video
ID : 1
Format : HEVC
Format/Info : High Efficiency Video Coding
Format profile : [email protected]@Main
Codec ID : V_MPEGH/ISO/HEVC
Duration : 42 min 4 s
Bit rate : 630 kb/s
Width : 1 280 pixels
Height : 720 pixels
Display aspect ratio : 16:9
Frame rate mode : Constant
Frame rate : 23.976 (24000/1001) FPS
Color space : YUV
Chroma subsampling : 4:2:0
Bit depth : 8 bits
Bits/(Pixel*Frame) : 0.029
Stream size : 190 MiB (91%)
Default : Yes
Forced : No

Audio
ID : 2
Format : AAC LC SBR
Commercial name : HE-AAC
Format settings : Explicit
Codec ID : A_AAC-2
Duration : 42 min 4 s
Bit rate : 63.3 kb/s
Channel(s) : 2 channels
Channel layout : L R
Sampling rate : 48.0 kHz
Frame rate : 23.438 FPS (2048 SPF)
Compression mode : Lossy
Delay relative to video : 23 ms
Stream size : 19.1 MiB (9%)
Language : English
Default : Yes
Forced : No

Text
ID : 3
Format : UTF-8
Codec ID : S_TEXT/UTF8
Codec ID/Info : UTF-8 Plain Text
Duration : 41 min 50 s
Bit rate : 85 b/s
Count of elements : 817
Stream size : 26.3 KiB (0%)
Language : English
Default : Yes
Forced : No

Download

Direct download files get automatically deleted after a month or so. Posted on : 10/17/2018

[collapse]
Media Info and Download Links | S01E03

General
Format : Matroska
Format version : Version 4
File size : 214 MiB
Duration : 42 min 25 s
Overall bit rate : 704 kb/s
Movie name : New.Amsterdam.2018.S01E03.720p.HDTV.2CH.x265.HEVC
Encoded date : UTC 2018-10-10 19:38:40
Writing application : mkvmerge v27.0.0 (‘Metropolis’) 32-bit
Writing library : libebml v1.3.6 + libmatroska v1.4.9

Video
ID : 1
Format : HEVC
Format/Info : High Efficiency Video Coding
Format profile : [email protected]@Main
Codec ID : V_MPEGH/ISO/HEVC
Duration : 42 min 25 s
Bit rate : 640 kb/s
Width : 1 280 pixels
Height : 720 pixels
Display aspect ratio : 16:9
Frame rate mode : Constant
Frame rate : 23.976 (24000/1001) FPS
Color space : YUV
Chroma subsampling : 4:2:0
Bit depth : 8 bits
Bits/(Pixel*Frame) : 0.029
Stream size : 194 MiB (91%)
Default : Yes
Forced : No

Audio
ID : 2
Format : AAC LC SBR
Commercial name : HE-AAC
Format settings : Explicit
Codec ID : A_AAC-2
Duration : 42 min 25 s
Bit rate : 62.2 kb/s
Channel(s) : 2 channels
Channel layout : L R
Sampling rate : 48.0 kHz
Frame rate : 23.438 FPS (2048 SPF)
Compression mode : Lossy
Delay relative to video : 23 ms
Stream size : 18.9 MiB (9%)
Language : English
Default : Yes
Forced : No

Text
ID : 3
Format : UTF-8
Codec ID : S_TEXT/UTF8
Codec ID/Info : UTF-8 Plain Text
Duration : 42 min 22 s
Bit rate : 103 b/s
Count of elements : 923
Stream size : 32.2 KiB (0%)
Language : English
Default : Yes
Forced : No

Download

Direct download files get automatically deleted after a month or so. Posted on : 10/10/2018

[collapse]
Media Info and Download Links | S01E02

General
Format : Matroska
Format version : Version 4
File size : 215 MiB
Duration : 42 min 16 s
Overall bit rate : 710 kb/s
Movie name : New.Amsterdam.2018.S01E02.720p.HDTV.2CH.x265.HEVC
Encoded date : UTC 2018-10-03 12:23:26
Writing application : mkvmerge v27.0.0 (‘Metropolis’) 32-bit
Writing library : libebml v1.3.6 + libmatroska v1.4.9

Video
ID : 1
Format : HEVC
Format/Info : High Efficiency Video Coding
Format profile : [email protected]@Main
Codec ID : V_MPEGH/ISO/HEVC
Duration : 42 min 16 s
Bit rate : 643 kb/s
Width : 1 280 pixels
Height : 720 pixels
Display aspect ratio : 16:9
Frame rate mode : Constant
Frame rate : 23.976 (24000/1001) FPS
Color space : YUV
Chroma subsampling : 4:2:0
Bit depth : 8 bits
Bits/(Pixel*Frame) : 0.029
Stream size : 194 MiB (91%)
Default : Yes
Forced : No

Audio
ID : 2
Format : AAC LC SBR
Commercial name : HE-AAC
Format settings : Explicit
Codec ID : A_AAC-2
Duration : 42 min 16 s
Bit rate : 66.2 kb/s
Channel(s) : 2 channels
Channel layout : L R
Sampling rate : 48.0 kHz
Frame rate : 23.438 FPS (2048 SPF)
Compression mode : Lossy
Delay relative to video : 23 ms
Stream size : 19.6 MiB (9%)
Language : English
Default : Yes
Forced : No

Text
ID : 3
Format : UTF-8
Codec ID : S_TEXT/UTF8
Codec ID/Info : UTF-8 Plain Text
Duration : 42 min 12 s
Bit rate : 83 b/s
Count of elements : 950
Stream size : 25.9 KiB (0%)
Default : Yes
Forced : No

Download

Direct download files get automatically deleted after a month or so. Posted on : 10/03/2018

[collapse]
Media Info and Download Links | S01E01

General
Format : Matroska
Format version : Version 4
File size : 201 MiB
Duration : 42 min 59 s
Overall bit rate : 654 kb/s
Movie name : New.Amsterdam.S01E01.Pilot.720p.WEBRip.2CH.x265.HEVC
Encoded date : UTC 2018-09-27 16:45:08
Writing application : mkvmerge v27.0.0 (‘Metropolis’) 32-bit
Writing library : libebml v1.3.6 + libmatroska v1.4.9

Video
ID : 1
Format : HEVC
Format/Info : High Efficiency Video Coding
Format profile : [email protected]@Main
Codec ID : V_MPEGH/ISO/HEVC
Duration : 42 min 59 s
Bit rate : 589 kb/s
Width : 1 280 pixels
Height : 720 pixels
Display aspect ratio : 16:9
Frame rate mode : Constant
Frame rate : 23.976 (24000/1001) FPS
Color space : YUV
Chroma subsampling : 4:2:0
Bit depth : 8 bits
Bits/(Pixel*Frame) : 0.027
Stream size : 181 MiB (90%)
Default : Yes
Forced : No

Audio
ID : 2
Format : AAC LC SBR
Commercial name : HE-AAC
Format settings : Explicit
Codec ID : A_AAC-2
Duration : 42 min 59 s
Bit rate : 63.2 kb/s
Channel(s) : 2 channels
Channel layout : L R
Sampling rate : 48.0 kHz
Frame rate : 23.438 FPS (2048 SPF)
Compression mode : Lossy
Delay relative to video : 23 ms
Stream size : 19.4 MiB (10%)
Language : English
Default : Yes
Forced : No

Text
ID : 3
Format : UTF-8
Codec ID : S_TEXT/UTF8
Codec ID/Info : UTF-8 Plain Text
Duration : 42 min 56 s
Bit rate : 88 b/s
Count of elements : 1085
Stream size : 27.9 KiB (0%)
Language : English
Default : Yes
Forced : No

Download

Direct download files get automatically deleted after a month or so. Posted on : 09/27/2018

[collapse]

You may also like...

error: nah :p~