Our Planet

1h | Documentary | TV Series (2019– )

Documentary series focusing on the breadth of the diversity of habitats around the world, from the remote Arctic wilderness and mysterious deep oceans to the vast landscapes of Africa and diverse jungles of South America.

Watch trailer

Media Info and Download Links | S01E08

General
Format : Matroska
Format version : Version 4
File size : 693 MiB
Duration : 48 min 39 s
Overall bit rate : 1 992 kb/s
Movie name : Our.Planet.2019.S01E08.Forests.720p.WEBRip.2CH.x265.HEVC
Encoded date : UTC 2019-04-06 22:05:40
Writing application : mkvmerge v32.0.0 (‘Astral Progressions’) 32-bit
Writing library : libebml v1.3.7 + libmatroska v1.5.0

Video
ID : 1
Format : HEVC
Format/Info : High Efficiency Video Coding
Format profile : [email protected]@Main
Codec ID : V_MPEGH/ISO/HEVC
Duration : 48 min 39 s
Bit rate : 1 913 kb/s
Width : 1 280 pixels
Height : 720 pixels
Display aspect ratio : 16:9
Frame rate mode : Constant
Frame rate : 23.976 (24000/1001) FPS
Color space : YUV
Chroma subsampling : 4:2:0
Bit depth : 8 bits
Bits/(Pixel*Frame) : 0.087
Stream size : 666 MiB (96%)
Default : Yes
Forced : No

Audio
ID : 2
Format : AAC LC SBR
Commercial name : HE-AAC
Format settings : Explicit
Codec ID : A_AAC-2
Duration : 48 min 39 s
Bit rate : 75.7 kb/s
Channel(s) : 2 channels
Channel layout : L R
Sampling rate : 48.0 kHz
Frame rate : 23.438 FPS (2048 SPF)
Compression mode : Lossy
Delay relative to video : 23 ms
Stream size : 26.4 MiB (4%)
Language : English
Default : Yes
Forced : No

Text #1
ID : 3
Format : UTF-8
Codec ID : S_TEXT/UTF8
Codec ID/Info : UTF-8 Plain Text
Duration : 47 min 26 s
Bit rate : 44 b/s
Count of elements : 348
Stream size : 15.4 KiB (0%)
Title : English
Language : English
Default : No
Forced : No

Text #2
ID : 4
Format : UTF-8
Codec ID : S_TEXT/UTF8
Codec ID/Info : UTF-8 Plain Text
Duration : 47 min 42 s
Bit rate : 41 b/s
Count of elements : 314
Stream size : 14.5 KiB (0%)
Title : Czech
Language : Czech
Default : No
Forced : No

Text #3
ID : 5
Format : UTF-8
Codec ID : S_TEXT/UTF8
Codec ID/Info : UTF-8 Plain Text
Duration : 48 min 1 s
Bit rate : 37 b/s
Count of elements : 292
Stream size : 13.4 KiB (0%)
Title : Danish
Language : Danish
Default : No
Forced : No

Text #4
ID : 6
Format : UTF-8
Codec ID : S_TEXT/UTF8
Codec ID/Info : UTF-8 Plain Text
Duration : 48 min 1 s
Bit rate : 40 b/s
Count of elements : 318
Stream size : 14.3 KiB (0%)
Title : German
Language : German
Default : No
Forced : No

Text #5
ID : 7
Format : UTF-8
Codec ID : S_TEXT/UTF8
Codec ID/Info : UTF-8 Plain Text
Duration : 48 min 1 s
Bit rate : 77 b/s
Count of elements : 334
Stream size : 27.4 KiB (0%)
Title : Greek
Language : Greek
Default : No
Forced : No

Text #6
ID : 8
Format : UTF-8
Codec ID : S_TEXT/UTF8
Codec ID/Info : UTF-8 Plain Text
Duration : 48 min 1 s
Bit rate : 41 b/s
Count of elements : 318
Stream size : 14.8 KiB (0%)
Title : European Spanish
Language : Spanish
Default : No
Forced : No

Text #7
ID : 9
Format : UTF-8
Codec ID : S_TEXT/UTF8
Codec ID/Info : UTF-8 Plain Text
Duration : 48 min 1 s
Bit rate : 45 b/s
Count of elements : 322
Stream size : 16.1 KiB (0%)
Title : Spanish
Language : Spanish
Default : No
Forced : No

Text #8
ID : 10
Format : UTF-8
Codec ID : S_TEXT/UTF8
Codec ID/Info : UTF-8 Plain Text
Duration : 48 min 1 s
Bit rate : 41 b/s
Count of elements : 309
Stream size : 14.7 KiB (0%)
Title : Finnish
Language : Finnish
Default : No
Forced : No

Text #9
ID : 11
Format : UTF-8
Codec ID : S_TEXT/UTF8
Codec ID/Info : UTF-8 Plain Text
Duration : 48 min 1 s
Bit rate : 44 b/s
Count of elements : 326
Stream size : 15.6 KiB (0%)
Title : French
Language : French
Default : No
Forced : No

Text #10
ID : 12
Format : UTF-8
Codec ID : S_TEXT/UTF8
Codec ID/Info : UTF-8 Plain Text
Duration : 48 min 1 s
Bit rate : 42 b/s
Count of elements : 321
Stream size : 15.1 KiB (0%)
Title : Indonesian
Language : Indonesian
Default : No
Forced : No

Text #11
ID : 13
Format : UTF-8
Codec ID : S_TEXT/UTF8
Codec ID/Info : UTF-8 Plain Text
Duration : 48 min 1 s
Bit rate : 44 b/s
Count of elements : 368
Stream size : 15.7 KiB (0%)
Title : Italian
Language : Italian
Default : No
Forced : No

Text #12
ID : 14
Format : UTF-8
Codec ID : S_TEXT/UTF8
Codec ID/Info : UTF-8 Plain Text
Duration : 48 min 1 s
Bit rate : 41 b/s
Count of elements : 318
Stream size : 14.5 KiB (0%)
Title : Norwegian
Language : Norwegian
Default : No
Forced : No

Text #13
ID : 15
Format : UTF-8
Codec ID : S_TEXT/UTF8
Codec ID/Info : UTF-8 Plain Text
Duration : 48 min 1 s
Bit rate : 40 b/s
Count of elements : 290
Stream size : 14.4 KiB (0%)
Title : Dutch
Language : Dutch
Default : No
Forced : No

Text #14
ID : 16
Format : UTF-8
Codec ID : S_TEXT/UTF8
Codec ID/Info : UTF-8 Plain Text
Duration : 48 min 1 s
Bit rate : 41 b/s
Count of elements : 316
Stream size : 14.5 KiB (0%)
Title : Polish
Language : Polish
Default : No
Forced : No

Text #15
ID : 17
Format : UTF-8
Codec ID : S_TEXT/UTF8
Codec ID/Info : UTF-8 Plain Text
Duration : 48 min 1 s
Bit rate : 41 b/s
Count of elements : 322
Stream size : 14.7 KiB (0%)
Title : Brazilian Portuguese
Language : Portuguese
Default : No
Forced : No

Text #16
ID : 18
Format : UTF-8
Codec ID : S_TEXT/UTF8
Codec ID/Info : UTF-8 Plain Text
Duration : 48 min 1 s
Bit rate : 42 b/s
Count of elements : 324
Stream size : 15.1 KiB (0%)
Title : Portuguese
Language : Portuguese
Default : No
Forced : No

Text #17
ID : 19
Format : UTF-8
Codec ID : S_TEXT/UTF8
Codec ID/Info : UTF-8 Plain Text
Duration : 48 min 1 s
Bit rate : 67 b/s
Count of elements : 319
Stream size : 23.6 KiB (0%)
Title : Russian
Language : Russian
Default : No
Forced : No

Text #18
ID : 20
Format : UTF-8
Codec ID : S_TEXT/UTF8
Codec ID/Info : UTF-8 Plain Text
Duration : 48 min 1 s
Bit rate : 41 b/s
Count of elements : 295
Stream size : 14.4 KiB (0%)
Title : Swedish
Language : Swedish
Default : No
Forced : No

Text #19
ID : 21
Format : UTF-8
Codec ID : S_TEXT/UTF8
Codec ID/Info : UTF-8 Plain Text
Duration : 48 min 1 s
Bit rate : 46 b/s
Count of elements : 323
Stream size : 16.5 KiB (0%)
Title : Turkish
Language : Turkish
Default : No
Forced : No

Download

Direct download files get automatically deleted after a month or so. Posted on : 04/07/2019

[collapse]
Media Info and Download Links | S01E07

General
Format : Matroska
Format version : Version 4
File size : 790 MiB
Duration : 49 min 5 s
Overall bit rate : 2 249 kb/s
Movie name : Our.Planet.2019.S01E07.Fresh.Water.720p.WEBRip.2CH.x265.HEVC
Encoded date : UTC 2019-04-06 22:04:02
Writing application : mkvmerge v32.0.0 (‘Astral Progressions’) 32-bit
Writing library : libebml v1.3.7 + libmatroska v1.5.0

Video
ID : 1
Format : HEVC
Format/Info : High Efficiency Video Coding
Format profile : [email protected]@Main
Codec ID : V_MPEGH/ISO/HEVC
Duration : 49 min 5 s
Bit rate : 2 171 kb/s
Width : 1 280 pixels
Height : 720 pixels
Display aspect ratio : 16:9
Frame rate mode : Constant
Frame rate : 23.976 (24000/1001) FPS
Color space : YUV
Chroma subsampling : 4:2:0
Bit depth : 8 bits
Bits/(Pixel*Frame) : 0.098
Stream size : 762 MiB (97%)
Default : Yes
Forced : No

Audio
ID : 2
Format : AAC LC SBR
Commercial name : HE-AAC
Format settings : Explicit
Codec ID : A_AAC-2
Duration : 49 min 5 s
Bit rate : 74.0 kb/s
Channel(s) : 2 channels
Channel layout : L R
Sampling rate : 48.0 kHz
Frame rate : 23.438 FPS (2048 SPF)
Compression mode : Lossy
Delay relative to video : 23 ms
Stream size : 26.0 MiB (3%)
Language : English
Default : Yes
Forced : No

Text #1
ID : 3
Format : UTF-8
Codec ID : S_TEXT/UTF8
Codec ID/Info : UTF-8 Plain Text
Duration : 48 min 5 s
Bit rate : 43 b/s
Count of elements : 357
Stream size : 15.3 KiB (0%)
Title : English
Language : English
Default : No
Forced : No

Text #2
ID : 4
Format : UTF-8
Codec ID : S_TEXT/UTF8
Codec ID/Info : UTF-8 Plain Text
Duration : 48 min 31 s
Bit rate : 40 b/s
Count of elements : 331
Stream size : 14.4 KiB (0%)
Title : Czech
Language : Czech
Default : No
Forced : No

Text #3
ID : 5
Format : UTF-8
Codec ID : S_TEXT/UTF8
Codec ID/Info : UTF-8 Plain Text
Duration : 48 min 14 s
Bit rate : 39 b/s
Count of elements : 297
Stream size : 14.0 KiB (0%)
Title : Danish
Language : Danish
Default : No
Forced : No

Text #4
ID : 6
Format : UTF-8
Codec ID : S_TEXT/UTF8
Codec ID/Info : UTF-8 Plain Text
Duration : 48 min 14 s
Bit rate : 43 b/s
Count of elements : 335
Stream size : 15.3 KiB (0%)
Title : German
Language : German
Default : No
Forced : No

Text #5
ID : 7
Format : UTF-8
Codec ID : S_TEXT/UTF8
Codec ID/Info : UTF-8 Plain Text
Duration : 48 min 27 s
Bit rate : 78 b/s
Count of elements : 346
Stream size : 27.8 KiB (0%)
Title : Greek
Language : Greek
Default : No
Forced : No

Text #6
ID : 8
Format : UTF-8
Codec ID : S_TEXT/UTF8
Codec ID/Info : UTF-8 Plain Text
Duration : 48 min 14 s
Bit rate : 43 b/s
Count of elements : 338
Stream size : 15.5 KiB (0%)
Title : European Spanish
Language : Spanish
Default : No
Forced : No

Text #7
ID : 9
Format : UTF-8
Codec ID : S_TEXT/UTF8
Codec ID/Info : UTF-8 Plain Text
Duration : 48 min 14 s
Bit rate : 46 b/s
Count of elements : 345
Stream size : 16.5 KiB (0%)
Title : Spanish
Language : Spanish
Default : No
Forced : No

Text #8
ID : 10
Format : UTF-8
Codec ID : S_TEXT/UTF8
Codec ID/Info : UTF-8 Plain Text
Duration : 48 min 14 s
Bit rate : 43 b/s
Count of elements : 342
Stream size : 15.3 KiB (0%)
Title : Finnish
Language : Finnish
Default : No
Forced : No

Text #9
ID : 11
Format : UTF-8
Codec ID : S_TEXT/UTF8
Codec ID/Info : UTF-8 Plain Text
Duration : 48 min 27 s
Bit rate : 45 b/s
Count of elements : 346
Stream size : 16.3 KiB (0%)
Title : French
Language : French
Default : No
Forced : No

Text #10
ID : 12
Format : UTF-8
Codec ID : S_TEXT/UTF8
Codec ID/Info : UTF-8 Plain Text
Duration : 48 min 14 s
Bit rate : 44 b/s
Count of elements : 338
Stream size : 15.7 KiB (0%)
Title : Indonesian
Language : Indonesian
Default : No
Forced : No

Text #11
ID : 13
Format : UTF-8
Codec ID : S_TEXT/UTF8
Codec ID/Info : UTF-8 Plain Text
Duration : 48 min 27 s
Bit rate : 44 b/s
Count of elements : 352
Stream size : 16.0 KiB (0%)
Title : Italian
Language : Italian
Default : No
Forced : No

Text #12
ID : 14
Format : UTF-8
Codec ID : S_TEXT/UTF8
Codec ID/Info : UTF-8 Plain Text
Duration : 48 min 13 s
Bit rate : 40 b/s
Count of elements : 339
Stream size : 14.4 KiB (0%)
Title : Norwegian
Language : Norwegian
Default : No
Forced : No

Text #13
ID : 15
Format : UTF-8
Codec ID : S_TEXT/UTF8
Codec ID/Info : UTF-8 Plain Text
Duration : 48 min 27 s
Bit rate : 42 b/s
Count of elements : 309
Stream size : 14.9 KiB (0%)
Title : Dutch
Language : Dutch
Default : No
Forced : No

Text #14
ID : 16
Format : UTF-8
Codec ID : S_TEXT/UTF8
Codec ID/Info : UTF-8 Plain Text
Duration : 48 min 27 s
Bit rate : 42 b/s
Count of elements : 337
Stream size : 15.0 KiB (0%)
Title : Polish
Language : Polish
Default : No
Forced : No

Text #15
ID : 17
Format : UTF-8
Codec ID : S_TEXT/UTF8
Codec ID/Info : UTF-8 Plain Text
Duration : 48 min 14 s
Bit rate : 42 b/s
Count of elements : 342
Stream size : 15.1 KiB (0%)
Title : Brazilian Portuguese
Language : Portuguese
Default : No
Forced : No

Text #16
ID : 18
Format : UTF-8
Codec ID : S_TEXT/UTF8
Codec ID/Info : UTF-8 Plain Text
Duration : 48 min 14 s
Bit rate : 44 b/s
Count of elements : 345
Stream size : 15.8 KiB (0%)
Title : Portuguese
Language : Portuguese
Default : No
Forced : No

Text #17
ID : 19
Format : UTF-8
Codec ID : S_TEXT/UTF8
Codec ID/Info : UTF-8 Plain Text
Duration : 48 min 13 s
Bit rate : 72 b/s
Count of elements : 351
Stream size : 25.4 KiB (0%)
Title : Russian
Language : Russian
Default : No
Forced : No

Text #18
ID : 20
Format : UTF-8
Codec ID : S_TEXT/UTF8
Codec ID/Info : UTF-8 Plain Text
Duration : 48 min 14 s
Bit rate : 41 b/s
Count of elements : 340
Stream size : 14.8 KiB (0%)
Title : Swedish
Language : Swedish
Default : No
Forced : No

Text #19
ID : 21
Format : UTF-8
Codec ID : S_TEXT/UTF8
Codec ID/Info : UTF-8 Plain Text
Duration : 48 min 14 s
Bit rate : 47 b/s
Count of elements : 343
Stream size : 16.9 KiB (0%)
Title : Turkish
Language : Turkish
Default : No
Forced : No

Download

Direct download files get automatically deleted after a month or so. Posted on : 04/07/2019

[collapse]
Media Info and Download Links | S01E06

General
Format : Matroska
Format version : Version 4
File size : 766 MiB
Duration : 48 min 53 s
Overall bit rate : 2 192 kb/s
Movie name : Our.Planet.2019.S01E06.The.High.Seas.720p.WEBRip.2CH.x265.HEVC
Encoded date : UTC 2019-04-06 22:02:34
Writing application : mkvmerge v32.0.0 (‘Astral Progressions’) 32-bit
Writing library : libebml v1.3.7 + libmatroska v1.5.0

Video
ID : 1
Format : HEVC
Format/Info : High Efficiency Video Coding
Format profile : [email protected]@Main
Codec ID : V_MPEGH/ISO/HEVC
Duration : 48 min 53 s
Bit rate : 2 115 kb/s
Width : 1 280 pixels
Height : 720 pixels
Display aspect ratio : 16:9
Frame rate mode : Constant
Frame rate : 23.976 (24000/1001) FPS
Color space : YUV
Chroma subsampling : 4:2:0
Bit depth : 8 bits
Bits/(Pixel*Frame) : 0.096
Stream size : 739 MiB (96%)
Default : Yes
Forced : No

Audio
ID : 2
Format : AAC LC SBR
Commercial name : HE-AAC
Format settings : Explicit
Codec ID : A_AAC-2
Duration : 48 min 53 s
Bit rate : 73.6 kb/s
Channel(s) : 2 channels
Channel layout : L R
Sampling rate : 48.0 kHz
Frame rate : 23.438 FPS (2048 SPF)
Compression mode : Lossy
Delay relative to video : 23 ms
Stream size : 25.7 MiB (3%)
Language : English
Default : Yes
Forced : No

Text #1
ID : 3
Format : UTF-8
Codec ID : S_TEXT/UTF8
Codec ID/Info : UTF-8 Plain Text
Duration : 47 min 56 s
Bit rate : 43 b/s
Count of elements : 358
Stream size : 15.2 KiB (0%)
Title : English
Language : English
Default : No
Forced : No

Text #2
ID : 4
Format : UTF-8
Codec ID : S_TEXT/UTF8
Codec ID/Info : UTF-8 Plain Text
Duration : 47 min 59 s
Bit rate : 43 b/s
Count of elements : 324
Stream size : 15.2 KiB (0%)
Title : Czech
Language : Czech
Default : No
Forced : No

Text #3
ID : 5
Format : UTF-8
Codec ID : S_TEXT/UTF8
Codec ID/Info : UTF-8 Plain Text
Duration : 48 min 15 s
Bit rate : 50 b/s
Count of elements : 342
Stream size : 17.8 KiB (0%)
Title : Turkish
Language : Turkish
Default : No
Forced : No

Text #4
ID : 6
Format : UTF-8
Codec ID : S_TEXT/UTF8
Codec ID/Info : UTF-8 Plain Text
Duration : 48 min 15 s
Bit rate : 40 b/s
Count of elements : 317
Stream size : 14.4 KiB (0%)
Title : Danish
Language : Danish
Default : No
Forced : No

Text #5
ID : 7
Format : UTF-8
Codec ID : S_TEXT/UTF8
Codec ID/Info : UTF-8 Plain Text
Duration : 48 min 15 s
Bit rate : 45 b/s
Count of elements : 332
Stream size : 15.9 KiB (0%)
Title : German
Language : German
Default : No
Forced : No

Text #6
ID : 8
Format : UTF-8
Codec ID : S_TEXT/UTF8
Codec ID/Info : UTF-8 Plain Text
Duration : 48 min 15 s
Bit rate : 78 b/s
Count of elements : 339
Stream size : 27.9 KiB (0%)
Title : Greek
Language : Greek
Default : No
Forced : No

Text #7
ID : 9
Format : UTF-8
Codec ID : S_TEXT/UTF8
Codec ID/Info : UTF-8 Plain Text
Duration : 48 min 15 s
Bit rate : 47 b/s
Count of elements : 344
Stream size : 16.7 KiB (0%)
Title : European Spanish
Language : Spanish
Default : No
Forced : No

Text #8
ID : 10
Format : UTF-8
Codec ID : S_TEXT/UTF8
Codec ID/Info : UTF-8 Plain Text
Duration : 48 min 15 s
Bit rate : 46 b/s
Count of elements : 351
Stream size : 16.6 KiB (0%)
Title : Spanish
Language : Spanish
Default : No
Forced : No

Text #9
ID : 11
Format : UTF-8
Codec ID : S_TEXT/UTF8
Codec ID/Info : UTF-8 Plain Text
Duration : 48 min 15 s
Bit rate : 45 b/s
Count of elements : 331
Stream size : 15.9 KiB (0%)
Title : Finnish
Language : Finnish
Default : No
Forced : No

Text #10
ID : 12
Format : UTF-8
Codec ID : S_TEXT/UTF8
Codec ID/Info : UTF-8 Plain Text
Duration : 48 min 15 s
Bit rate : 48 b/s
Count of elements : 347
Stream size : 17.1 KiB (0%)
Title : French
Language : French
Default : No
Forced : No

Text #11
ID : 13
Format : UTF-8
Codec ID : S_TEXT/UTF8
Codec ID/Info : UTF-8 Plain Text
Duration : 48 min 15 s
Bit rate : 45 b/s
Count of elements : 338
Stream size : 16.1 KiB (0%)
Title : Indonesian
Language : Indonesian
Default : No
Forced : No

Text #12
ID : 14
Format : UTF-8
Codec ID : S_TEXT/UTF8
Codec ID/Info : UTF-8 Plain Text
Duration : 48 min 15 s
Bit rate : 46 b/s
Count of elements : 353
Stream size : 16.5 KiB (0%)
Title : Italian
Language : Italian
Default : No
Forced : No

Text #13
ID : 15
Format : UTF-8
Codec ID : S_TEXT/UTF8
Codec ID/Info : UTF-8 Plain Text
Duration : 47 min 23 s
Bit rate : 43 b/s
Count of elements : 337
Stream size : 15.0 KiB (0%)
Title : Norwegian
Language : Norwegian
Default : No
Forced : No

Text #14
ID : 16
Format : UTF-8
Codec ID : S_TEXT/UTF8
Codec ID/Info : UTF-8 Plain Text
Duration : 48 min 15 s
Bit rate : 44 b/s
Count of elements : 329
Stream size : 15.8 KiB (0%)
Title : Dutch
Language : Dutch
Default : No
Forced : No

Text #15
ID : 17
Format : UTF-8
Codec ID : S_TEXT/UTF8
Codec ID/Info : UTF-8 Plain Text
Duration : 48 min 15 s
Bit rate : 45 b/s
Count of elements : 332
Stream size : 15.9 KiB (0%)
Title : Polish
Language : Polish
Default : No
Forced : No

Text #16
ID : 18
Format : UTF-8
Codec ID : S_TEXT/UTF8
Codec ID/Info : UTF-8 Plain Text
Duration : 48 min 15 s
Bit rate : 44 b/s
Count of elements : 344
Stream size : 15.7 KiB (0%)
Title : Brazilian Portuguese
Language : Portuguese
Default : No
Forced : No

Text #17
ID : 19
Format : UTF-8
Codec ID : S_TEXT/UTF8
Codec ID/Info : UTF-8 Plain Text
Duration : 48 min 15 s
Bit rate : 45 b/s
Count of elements : 344
Stream size : 16.0 KiB (0%)
Title : Portuguese
Language : Portuguese
Default : No
Forced : No

Text #18
ID : 20
Format : UTF-8
Codec ID : S_TEXT/UTF8
Codec ID/Info : UTF-8 Plain Text
Duration : 48 min 15 s
Bit rate : 74 b/s
Count of elements : 345
Stream size : 26.4 KiB (0%)
Title : Russian
Language : Russian
Default : No
Forced : No

Text #19
ID : 21
Format : UTF-8
Codec ID : S_TEXT/UTF8
Codec ID/Info : UTF-8 Plain Text
Duration : 48 min 15 s
Bit rate : 43 b/s
Count of elements : 344
Stream size : 15.5 KiB (0%)
Title : Swedish
Language : Swedish
Default : No
Forced : No

Download

Direct download files get automatically deleted after a month or so. Posted on : 04/07/2019

[collapse]
Media Info and Download Links | S01E05

General
Format : Matroska
Format version : Version 4
File size : 535 MiB
Duration : 51 min 15 s
Overall bit rate : 1 459 kb/s
Movie name : Our.Planet.2019.S01E05.From.Deserts.to.Grasslands.720p.WEBRip.2CH.x265.HEVC
Encoded date : UTC 2019-04-06 22:00:05
Writing application : mkvmerge v32.0.0 (‘Astral Progressions’) 32-bit
Writing library : libebml v1.3.7 + libmatroska v1.5.0

Video
ID : 1
Format : HEVC
Format/Info : High Efficiency Video Coding
Format profile : [email protected]@Main
Codec ID : V_MPEGH/ISO/HEVC
Duration : 51 min 15 s
Bit rate : 1 380 kb/s
Width : 1 280 pixels
Height : 720 pixels
Display aspect ratio : 16:9
Frame rate mode : Constant
Frame rate : 23.976 (24000/1001) FPS
Color space : YUV
Chroma subsampling : 4:2:0
Bit depth : 8 bits
Bits/(Pixel*Frame) : 0.062
Stream size : 506 MiB (95%)
Default : Yes
Forced : No

Audio
ID : 2
Format : AAC LC SBR
Commercial name : HE-AAC
Format settings : Explicit
Codec ID : A_AAC-2
Duration : 51 min 15 s
Bit rate : 75.8 kb/s
Channel(s) : 2 channels
Channel layout : L R
Sampling rate : 48.0 kHz
Frame rate : 23.438 FPS (2048 SPF)
Compression mode : Lossy
Delay relative to video : 23 ms
Stream size : 27.8 MiB (5%)
Language : English
Default : Yes
Forced : No

Text #1
ID : 3
Format : UTF-8
Codec ID : S_TEXT/UTF8
Codec ID/Info : UTF-8 Plain Text
Duration : 50 min 2 s
Bit rate : 34 b/s
Count of elements : 318
Stream size : 12.5 KiB (0%)
Title : English
Language : English
Default : No
Forced : No

Text #2
ID : 4
Format : UTF-8
Codec ID : S_TEXT/UTF8
Codec ID/Info : UTF-8 Plain Text
Duration : 50 min 20 s
Bit rate : 33 b/s
Count of elements : 295
Stream size : 12.3 KiB (0%)
Title : Czech
Language : Czech
Default : No
Forced : No

Text #3
ID : 5
Format : UTF-8
Codec ID : S_TEXT/UTF8
Codec ID/Info : UTF-8 Plain Text
Duration : 50 min 38 s
Bit rate : 30 b/s
Count of elements : 278
Stream size : 11.5 KiB (0%)
Title : Danish
Language : Danish
Default : No
Forced : No

Text #4
ID : 6
Format : UTF-8
Codec ID : S_TEXT/UTF8
Codec ID/Info : UTF-8 Plain Text
Duration : 50 min 38 s
Bit rate : 34 b/s
Count of elements : 296
Stream size : 12.8 KiB (0%)
Title : German
Language : German
Default : No
Forced : No

Text #5
ID : 7
Format : UTF-8
Codec ID : S_TEXT/UTF8
Codec ID/Info : UTF-8 Plain Text
Duration : 50 min 38 s
Bit rate : 61 b/s
Count of elements : 320
Stream size : 22.8 KiB (0%)
Title : Greek
Language : Greek
Default : No
Forced : No

Text #6
ID : 8
Format : UTF-8
Codec ID : S_TEXT/UTF8
Codec ID/Info : UTF-8 Plain Text
Duration : 50 min 38 s
Bit rate : 35 b/s
Count of elements : 297
Stream size : 13.0 KiB (0%)
Title : European Spanish
Language : Spanish
Default : No
Forced : No

Text #7
ID : 9
Format : UTF-8
Codec ID : S_TEXT/UTF8
Codec ID/Info : UTF-8 Plain Text
Duration : 50 min 38 s
Bit rate : 36 b/s
Count of elements : 300
Stream size : 13.4 KiB (0%)
Title : Spanish
Language : Spanish
Default : No
Forced : No

Text #8
ID : 10
Format : UTF-8
Codec ID : S_TEXT/UTF8
Codec ID/Info : UTF-8 Plain Text
Duration : 50 min 38 s
Bit rate : 34 b/s
Count of elements : 287
Stream size : 12.6 KiB (0%)
Title : Finnish
Language : Finnish
Default : No
Forced : No

Text #9
ID : 11
Format : UTF-8
Codec ID : S_TEXT/UTF8
Codec ID/Info : UTF-8 Plain Text
Duration : 50 min 38 s
Bit rate : 36 b/s
Count of elements : 308
Stream size : 13.5 KiB (0%)
Title : French
Language : French
Default : No
Forced : No

Text #10
ID : 12
Format : UTF-8
Codec ID : S_TEXT/UTF8
Codec ID/Info : UTF-8 Plain Text
Duration : 50 min 38 s
Bit rate : 35 b/s
Count of elements : 301
Stream size : 13.1 KiB (0%)
Title : Indonesian
Language : Indonesian
Default : No
Forced : No

Text #11
ID : 13
Format : UTF-8
Codec ID : S_TEXT/UTF8
Codec ID/Info : UTF-8 Plain Text
Duration : 50 min 38 s
Bit rate : 36 b/s
Count of elements : 325
Stream size : 13.4 KiB (0%)
Title : Italian
Language : Italian
Default : No
Forced : No

Text #12
ID : 14
Format : UTF-8
Codec ID : S_TEXT/UTF8
Codec ID/Info : UTF-8 Plain Text
Duration : 50 min 38 s
Bit rate : 31 b/s
Count of elements : 296
Stream size : 11.9 KiB (0%)
Title : Norwegian
Language : Norwegian
Default : No
Forced : No

Text #13
ID : 15
Format : UTF-8
Codec ID : S_TEXT/UTF8
Codec ID/Info : UTF-8 Plain Text
Duration : 50 min 38 s
Bit rate : 33 b/s
Count of elements : 280
Stream size : 12.5 KiB (0%)
Title : Dutch
Language : Dutch
Default : No
Forced : No

Text #14
ID : 16
Format : UTF-8
Codec ID : S_TEXT/UTF8
Codec ID/Info : UTF-8 Plain Text
Duration : 50 min 38 s
Bit rate : 33 b/s
Count of elements : 297
Stream size : 12.3 KiB (0%)
Title : Polish
Language : Polish
Default : No
Forced : No

Text #15
ID : 17
Format : UTF-8
Codec ID : S_TEXT/UTF8
Codec ID/Info : UTF-8 Plain Text
Duration : 50 min 38 s
Bit rate : 33 b/s
Count of elements : 305
Stream size : 12.4 KiB (0%)
Title : Brazilian Portuguese
Language : Portuguese
Default : No
Forced : No

Text #16
ID : 18
Format : UTF-8
Codec ID : S_TEXT/UTF8
Codec ID/Info : UTF-8 Plain Text
Duration : 50 min 38 s
Bit rate : 34 b/s
Count of elements : 302
Stream size : 13.0 KiB (0%)
Title : Portuguese
Language : Portuguese
Default : No
Forced : No

Text #17
ID : 19
Format : UTF-8
Codec ID : S_TEXT/UTF8
Codec ID/Info : UTF-8 Plain Text
Duration : 50 min 38 s
Bit rate : 59 b/s
Count of elements : 298
Stream size : 21.9 KiB (0%)
Title : Russian
Language : Russian
Default : No
Forced : No

Text #18
ID : 20
Format : UTF-8
Codec ID : S_TEXT/UTF8
Codec ID/Info : UTF-8 Plain Text
Duration : 50 min 38 s
Bit rate : 32 b/s
Count of elements : 297
Stream size : 12.2 KiB (0%)
Title : Swedish
Language : Swedish
Default : No
Forced : No

Text #19
ID : 21
Format : UTF-8
Codec ID : S_TEXT/UTF8
Codec ID/Info : UTF-8 Plain Text
Duration : 50 min 38 s
Bit rate : 37 b/s
Count of elements : 303
Stream size : 14.0 KiB (0%)
Title : Turkish
Language : Turkish
Default : No
Forced : No

Download

Direct download files get automatically deleted after a month or so. Posted on : 04/07/2019

[collapse]
Media Info and Download Links | S01E04

General
Format : Matroska
Format version : Version 4
File size : 792 MiB
Duration : 50 min 9 s
Overall bit rate : 2 208 kb/s
Movie name : Our.Planet.2019.S01E04.Coastal.Seas.720p.WEBRip.2CH.x265.HEVC
Encoded date : UTC 2019-04-06 21:58:23
Writing application : mkvmerge v32.0.0 (‘Astral Progressions’) 32-bit
Writing library : libebml v1.3.7 + libmatroska v1.5.0

Video
ID : 1
Format : HEVC
Format/Info : High Efficiency Video Coding
Format profile : [email protected]@Main
Codec ID : V_MPEGH/ISO/HEVC
Duration : 50 min 9 s
Bit rate : 2 131 kb/s
Width : 1 280 pixels
Height : 720 pixels
Display aspect ratio : 16:9
Frame rate mode : Constant
Frame rate : 23.976 (24000/1001) FPS
Color space : YUV
Chroma subsampling : 4:2:0
Bit depth : 8 bits
Bits/(Pixel*Frame) : 0.096
Stream size : 764 MiB (97%)
Default : Yes
Forced : No

Audio
ID : 2
Format : AAC LC SBR
Commercial name : HE-AAC
Format settings : Explicit
Codec ID : A_AAC-2
Duration : 50 min 9 s
Bit rate : 73.9 kb/s
Channel(s) : 2 channels
Channel layout : L R
Sampling rate : 48.0 kHz
Frame rate : 23.438 FPS (2048 SPF)
Compression mode : Lossy
Delay relative to video : 23 ms
Stream size : 26.5 MiB (3%)
Language : English
Default : Yes
Forced : No

Text #1
ID : 3
Format : UTF-8
Codec ID : S_TEXT/UTF8
Codec ID/Info : UTF-8 Plain Text
Duration : 49 min 9 s
Bit rate : 39 b/s
Count of elements : 311
Stream size : 14.2 KiB (0%)
Title : English
Language : English
Default : No
Forced : No

Text #2
ID : 4
Format : UTF-8
Codec ID : S_TEXT/UTF8
Codec ID/Info : UTF-8 Plain Text
Duration : 49 min 31 s
Bit rate : 37 b/s
Count of elements : 294
Stream size : 13.7 KiB (0%)
Title : Czech
Language : Czech
Default : No
Forced : No

Text #3
ID : 5
Format : UTF-8
Codec ID : S_TEXT/UTF8
Codec ID/Info : UTF-8 Plain Text
Duration : 49 min 31 s
Bit rate : 36 b/s
Count of elements : 284
Stream size : 13.2 KiB (0%)
Title : Danish
Language : Danish
Default : No
Forced : No

Text #4
ID : 6
Format : UTF-8
Codec ID : S_TEXT/UTF8
Codec ID/Info : UTF-8 Plain Text
Duration : 49 min 31 s
Bit rate : 38 b/s
Count of elements : 296
Stream size : 13.9 KiB (0%)
Title : German
Language : German
Default : No
Forced : No

Text #5
ID : 7
Format : UTF-8
Codec ID : S_TEXT/UTF8
Codec ID/Info : UTF-8 Plain Text
Duration : 49 min 31 s
Bit rate : 71 b/s
Count of elements : 300
Stream size : 25.9 KiB (0%)
Title : Greek
Language : Greek
Default : No
Forced : No

Text #6
ID : 8
Format : UTF-8
Codec ID : S_TEXT/UTF8
Codec ID/Info : UTF-8 Plain Text
Duration : 49 min 31 s
Bit rate : 39 b/s
Count of elements : 296
Stream size : 14.4 KiB (0%)
Title : European Spanish
Language : Spanish
Default : No
Forced : No

Text #7
ID : 9
Format : UTF-8
Codec ID : S_TEXT/UTF8
Codec ID/Info : UTF-8 Plain Text
Duration : 49 min 31 s
Bit rate : 43 b/s
Count of elements : 309
Stream size : 15.6 KiB (0%)
Title : Spanish
Language : Spanish
Default : No
Forced : No

Text #8
ID : 10
Format : UTF-8
Codec ID : S_TEXT/UTF8
Codec ID/Info : UTF-8 Plain Text
Duration : 49 min 31 s
Bit rate : 39 b/s
Count of elements : 303
Stream size : 14.4 KiB (0%)
Title : Finnish
Language : Finnish
Default : No
Forced : No

Text #9
ID : 11
Format : UTF-8
Codec ID : S_TEXT/UTF8
Codec ID/Info : UTF-8 Plain Text
Duration : 49 min 31 s
Bit rate : 41 b/s
Count of elements : 311
Stream size : 14.9 KiB (0%)
Title : French
Language : French
Default : No
Forced : No

Text #10
ID : 12
Format : UTF-8
Codec ID : S_TEXT/UTF8
Codec ID/Info : UTF-8 Plain Text
Duration : 49 min 31 s
Bit rate : 40 b/s
Count of elements : 300
Stream size : 14.6 KiB (0%)
Title : Indonesian
Language : Indonesian
Default : No
Forced : No

Text #11
ID : 13
Format : UTF-8
Codec ID : S_TEXT/UTF8
Codec ID/Info : UTF-8 Plain Text
Duration : 49 min 31 s
Bit rate : 42 b/s
Count of elements : 327
Stream size : 15.3 KiB (0%)
Title : Italian
Language : Italian
Default : No
Forced : No

Text #12
ID : 14
Format : UTF-8
Codec ID : S_TEXT/UTF8
Codec ID/Info : UTF-8 Plain Text
Duration : 48 min 39 s
Bit rate : 37 b/s
Count of elements : 296
Stream size : 13.5 KiB (0%)
Title : Norwegian
Language : Norwegian
Default : No
Forced : No

Text #13
ID : 15
Format : UTF-8
Codec ID : S_TEXT/UTF8
Codec ID/Info : UTF-8 Plain Text
Duration : 49 min 33 s
Bit rate : 38 b/s
Count of elements : 292
Stream size : 14.0 KiB (0%)
Title : Dutch
Language : Dutch
Default : No
Forced : No

Text #14
ID : 16
Format : UTF-8
Codec ID : S_TEXT/UTF8
Codec ID/Info : UTF-8 Plain Text
Duration : 49 min 31 s
Bit rate : 38 b/s
Count of elements : 302
Stream size : 14.0 KiB (0%)
Title : Polish
Language : Polish
Default : No
Forced : No

Text #15
ID : 17
Format : UTF-8
Codec ID : S_TEXT/UTF8
Codec ID/Info : UTF-8 Plain Text
Duration : 49 min 31 s
Bit rate : 40 b/s
Count of elements : 305
Stream size : 14.7 KiB (0%)
Title : Brazilian Portuguese
Language : Portuguese
Default : No
Forced : No

Text #16
ID : 18
Format : UTF-8
Codec ID : S_TEXT/UTF8
Codec ID/Info : UTF-8 Plain Text
Duration : 49 min 31 s
Bit rate : 41 b/s
Count of elements : 302
Stream size : 14.9 KiB (0%)
Title : Portuguese
Language : Portuguese
Default : No
Forced : No

Text #17
ID : 19
Format : UTF-8
Codec ID : S_TEXT/UTF8
Codec ID/Info : UTF-8 Plain Text
Duration : 49 min 31 s
Bit rate : 67 b/s
Count of elements : 301
Stream size : 24.4 KiB (0%)
Title : Russian
Language : Russian
Default : No
Forced : No

Text #18
ID : 20
Format : UTF-8
Codec ID : S_TEXT/UTF8
Codec ID/Info : UTF-8 Plain Text
Duration : 49 min 31 s
Bit rate : 37 b/s
Count of elements : 302
Stream size : 13.7 KiB (0%)
Title : Swedish
Language : Swedish
Default : No
Forced : No

Text #19
ID : 21
Format : UTF-8
Codec ID : S_TEXT/UTF8
Codec ID/Info : UTF-8 Plain Text
Duration : 49 min 31 s
Bit rate : 45 b/s
Count of elements : 308
Stream size : 16.4 KiB (0%)
Title : Turkish
Language : Turkish
Default : No
Forced : No

Download

Direct download files get automatically deleted after a month or so. Posted on : 04/07/2019

[collapse]
Media Info and Download Links | S01E03

General
Format : Matroska
Format version : Version 4
File size : 727 MiB
Duration : 51 min 19 s
Overall bit rate : 1 979 kb/s
Movie name : Our.Planet.2019.S01E03.Jungles.720p.WEBRip.2CH.x265.HEVC
Encoded date : UTC 2019-04-06 21:56:39
Writing application : mkvmerge v32.0.0 (‘Astral Progressions’) 32-bit
Writing library : libebml v1.3.7 + libmatroska v1.5.0

Video
ID : 1
Format : HEVC
Format/Info : High Efficiency Video Coding
Format profile : [email protected]@Main
Codec ID : V_MPEGH/ISO/HEVC
Duration : 51 min 19 s
Bit rate : 1 900 kb/s
Width : 1 280 pixels
Height : 720 pixels
Display aspect ratio : 16:9
Frame rate mode : Constant
Frame rate : 23.976 (24000/1001) FPS
Color space : YUV
Chroma subsampling : 4:2:0
Bit depth : 8 bits
Bits/(Pixel*Frame) : 0.086
Stream size : 697 MiB (96%)
Default : Yes
Forced : No

Audio
ID : 2
Format : AAC LC SBR
Commercial name : HE-AAC
Format settings : Explicit
Codec ID : A_AAC-2
Duration : 51 min 19 s
Bit rate : 75.7 kb/s
Channel(s) : 2 channels
Channel layout : L R
Sampling rate : 48.0 kHz
Frame rate : 23.438 FPS (2048 SPF)
Compression mode : Lossy
Delay relative to video : 23 ms
Stream size : 27.8 MiB (4%)
Language : English
Default : Yes
Forced : No

Text #1
ID : 3
Format : UTF-8
Codec ID : S_TEXT/UTF8
Codec ID/Info : UTF-8 Plain Text
Duration : 50 min 6 s
Bit rate : 49 b/s
Count of elements : 437
Stream size : 18.3 KiB (0%)
Title : English
Language : English
Default : No
Forced : No

Text #2
ID : 4
Format : UTF-8
Codec ID : S_TEXT/UTF8
Codec ID/Info : UTF-8 Plain Text
Duration : 50 min 22 s
Bit rate : 50 b/s
Count of elements : 412
Stream size : 18.5 KiB (0%)
Title : Czech
Language : Czech
Default : No
Forced : No

Text #3
ID : 5
Format : UTF-8
Codec ID : S_TEXT/UTF8
Codec ID/Info : UTF-8 Plain Text
Duration : 50 min 41 s
Bit rate : 46 b/s
Count of elements : 387
Stream size : 17.1 KiB (0%)
Title : Danish
Language : Danish
Default : No
Forced : No

Text #4
ID : 6
Format : UTF-8
Codec ID : S_TEXT/UTF8
Codec ID/Info : UTF-8 Plain Text
Duration : 50 min 41 s
Bit rate : 49 b/s
Count of elements : 416
Stream size : 18.5 KiB (0%)
Title : German
Language : German
Default : No
Forced : No

Text #5
ID : 7
Format : UTF-8
Codec ID : S_TEXT/UTF8
Codec ID/Info : UTF-8 Plain Text
Duration : 50 min 41 s
Bit rate : 94 b/s
Count of elements : 419
Stream size : 35.2 KiB (0%)
Title : Greek
Language : Greek
Default : No
Forced : No

Text #6
ID : 8
Format : UTF-8
Codec ID : S_TEXT/UTF8
Codec ID/Info : UTF-8 Plain Text
Duration : 50 min 41 s
Bit rate : 52 b/s
Count of elements : 416
Stream size : 19.3 KiB (0%)
Title : European Spanish
Language : Spanish
Default : No
Forced : No

Text #7
ID : 9
Format : UTF-8
Codec ID : S_TEXT/UTF8
Codec ID/Info : UTF-8 Plain Text
Duration : 50 min 41 s
Bit rate : 54 b/s
Count of elements : 425
Stream size : 20.3 KiB (0%)
Title : Spanish
Language : Spanish
Default : No
Forced : No

Text #8
ID : 10
Format : UTF-8
Codec ID : S_TEXT/UTF8
Codec ID/Info : UTF-8 Plain Text
Duration : 50 min 41 s
Bit rate : 50 b/s
Count of elements : 418
Stream size : 18.9 KiB (0%)
Title : Finnish
Language : Finnish
Default : No
Forced : No

Text #9
ID : 11
Format : UTF-8
Codec ID : S_TEXT/UTF8
Codec ID/Info : UTF-8 Plain Text
Duration : 50 min 41 s
Bit rate : 52 b/s
Count of elements : 418
Stream size : 19.5 KiB (0%)
Title : French
Language : French
Default : No
Forced : No

Text #10
ID : 12
Format : UTF-8
Codec ID : S_TEXT/UTF8
Codec ID/Info : UTF-8 Plain Text
Duration : 50 min 41 s
Bit rate : 53 b/s
Count of elements : 427
Stream size : 19.8 KiB (0%)
Title : Indonesian
Language : Indonesian
Default : No
Forced : No

Text #11
ID : 13
Format : UTF-8
Codec ID : S_TEXT/UTF8
Codec ID/Info : UTF-8 Plain Text
Duration : 50 min 41 s
Bit rate : 53 b/s
Count of elements : 489
Stream size : 19.8 KiB (0%)
Title : Italian
Language : Italian
Default : No
Forced : No

Text #12
ID : 14
Format : UTF-8
Codec ID : S_TEXT/UTF8
Codec ID/Info : UTF-8 Plain Text
Duration : 50 min 41 s
Bit rate : 49 b/s
Count of elements : 417
Stream size : 18.4 KiB (0%)
Title : Norwegian
Language : Norwegian
Default : No
Forced : No

Text #13
ID : 15
Format : UTF-8
Codec ID : S_TEXT/UTF8
Codec ID/Info : UTF-8 Plain Text
Duration : 50 min 41 s
Bit rate : 51 b/s
Count of elements : 407
Stream size : 18.9 KiB (0%)
Title : Dutch
Language : Dutch
Default : No
Forced : No

Text #14
ID : 16
Format : UTF-8
Codec ID : S_TEXT/UTF8
Codec ID/Info : UTF-8 Plain Text
Duration : 50 min 41 s
Bit rate : 49 b/s
Count of elements : 410
Stream size : 18.4 KiB (0%)
Title : Polish
Language : Polish
Default : No
Forced : No

Text #15
ID : 17
Format : UTF-8
Codec ID : S_TEXT/UTF8
Codec ID/Info : UTF-8 Plain Text
Duration : 50 min 41 s
Bit rate : 50 b/s
Count of elements : 433
Stream size : 18.9 KiB (0%)
Title : Brazilian Portuguese
Language : Portuguese
Default : No
Forced : No

Text #16
ID : 18
Format : UTF-8
Codec ID : S_TEXT/UTF8
Codec ID/Info : UTF-8 Plain Text
Duration : 50 min 41 s
Bit rate : 50 b/s
Count of elements : 423
Stream size : 18.8 KiB (0%)
Title : Portuguese
Language : Portuguese
Default : No
Forced : No

Text #17
ID : 19
Format : UTF-8
Codec ID : S_TEXT/UTF8
Codec ID/Info : UTF-8 Plain Text
Duration : 50 min 41 s
Bit rate : 82 b/s
Count of elements : 424
Stream size : 30.5 KiB (0%)
Title : Russian
Language : Russian
Default : No
Forced : No

Text #18
ID : 20
Format : UTF-8
Codec ID : S_TEXT/UTF8
Codec ID/Info : UTF-8 Plain Text
Duration : 50 min 41 s
Bit rate : 50 b/s
Count of elements : 387
Stream size : 18.7 KiB (0%)
Title : Swedish
Language : Swedish
Default : No
Forced : No

Text #19
ID : 21
Format : UTF-8
Codec ID : S_TEXT/UTF8
Codec ID/Info : UTF-8 Plain Text
Duration : 50 min 41 s
Bit rate : 57 b/s
Count of elements : 421
Stream size : 21.2 KiB (0%)
Title : Turkish
Language : Turkish
Default : No
Forced : No

Download

Direct download files get automatically deleted after a month or so. Posted on : 04/07/2019

[collapse]
Media Info and Download Links | S01E02

General
Format : Matroska
Format version : Version 4
File size : 553 MiB
Duration : 53 min 53 s
Overall bit rate : 1 433 kb/s
Movie name : Our.Planet.2019.S01E02.Frozen.Worlds.720p.WEBRip.2CH.x265.HEVC
Encoded date : UTC 2019-04-06 21:55:25
Writing application : mkvmerge v32.0.0 (‘Astral Progressions’) 32-bit
Writing library : libebml v1.3.7 + libmatroska v1.5.0

Video
ID : 1
Format : HEVC
Format/Info : High Efficiency Video Coding
Format profile : [email protected]@Main
Codec ID : V_MPEGH/ISO/HEVC
Duration : 53 min 53 s
Bit rate : 1 356 kb/s
Width : 1 280 pixels
Height : 720 pixels
Display aspect ratio : 16:9
Frame rate mode : Constant
Frame rate : 23.976 (24000/1001) FPS
Color space : YUV
Chroma subsampling : 4:2:0
Bit depth : 8 bits
Bits/(Pixel*Frame) : 0.061
Stream size : 523 MiB (95%)
Default : Yes
Forced : No

Audio
ID : 2
Format : AAC LC SBR
Commercial name : HE-AAC
Format settings : Explicit
Codec ID : A_AAC-2
Duration : 53 min 53 s
Bit rate : 74.2 kb/s
Channel(s) : 2 channels
Channel layout : L R
Sampling rate : 48.0 kHz
Frame rate : 23.438 FPS (2048 SPF)
Compression mode : Lossy
Delay relative to video : 23 ms
Stream size : 28.6 MiB (5%)
Language : English
Default : Yes
Forced : No

Text #1
ID : 3
Format : UTF-8
Codec ID : S_TEXT/UTF8
Codec ID/Info : UTF-8 Plain Text
Duration : 52 min 40 s
Bit rate : 36 b/s
Count of elements : 335
Stream size : 14.2 KiB (0%)
Title : English
Language : English
Default : No
Forced : No

Text #2
ID : 4
Format : UTF-8
Codec ID : S_TEXT/UTF8
Codec ID/Info : UTF-8 Plain Text
Duration : 52 min 58 s
Bit rate : 36 b/s
Count of elements : 310
Stream size : 14.3 KiB (0%)
Title : Czech
Language : Czech
Default : No
Forced : No

Text #3
ID : 5
Format : UTF-8
Codec ID : S_TEXT/UTF8
Codec ID/Info : UTF-8 Plain Text
Duration : 53 min 16 s
Bit rate : 33 b/s
Count of elements : 294
Stream size : 13.2 KiB (0%)
Title : Danish
Language : Danish
Default : No
Forced : No

Text #4
ID : 6
Format : UTF-8
Codec ID : S_TEXT/UTF8
Codec ID/Info : UTF-8 Plain Text
Duration : 53 min 16 s
Bit rate : 36 b/s
Count of elements : 309
Stream size : 14.2 KiB (0%)
Title : German
Language : German
Default : No
Forced : No

Text #5
ID : 7
Format : UTF-8
Codec ID : S_TEXT/UTF8
Codec ID/Info : UTF-8 Plain Text
Duration : 53 min 16 s
Bit rate : 69 b/s
Count of elements : 327
Stream size : 27.1 KiB (0%)
Title : Greek
Language : Greek
Default : No
Forced : No

Text #6
ID : 8
Format : UTF-8
Codec ID : S_TEXT/UTF8
Codec ID/Info : UTF-8 Plain Text
Duration : 53 min 16 s
Bit rate : 37 b/s
Count of elements : 311
Stream size : 14.6 KiB (0%)
Title : European Spanish
Language : Spanish
Default : No
Forced : No

Text #7
ID : 9
Format : UTF-8
Codec ID : S_TEXT/UTF8
Codec ID/Info : UTF-8 Plain Text
Duration : 53 min 16 s
Bit rate : 39 b/s
Count of elements : 319
Stream size : 15.5 KiB (0%)
Title : Spanish
Language : Spanish
Default : No
Forced : No

Text #8
ID : 10
Format : UTF-8
Codec ID : S_TEXT/UTF8
Codec ID/Info : UTF-8 Plain Text
Duration : 53 min 16 s
Bit rate : 37 b/s
Count of elements : 305
Stream size : 14.6 KiB (0%)
Title : Finnish
Language : Finnish
Default : No
Forced : No

Text #9
ID : 11
Format : UTF-8
Codec ID : S_TEXT/UTF8
Codec ID/Info : UTF-8 Plain Text
Duration : 53 min 16 s
Bit rate : 39 b/s
Count of elements : 324
Stream size : 15.2 KiB (0%)
Title : French
Language : French
Default : No
Forced : No

Text #10
ID : 12
Format : UTF-8
Codec ID : S_TEXT/UTF8
Codec ID/Info : UTF-8 Plain Text
Duration : 53 min 16 s
Bit rate : 39 b/s
Count of elements : 324
Stream size : 15.5 KiB (0%)
Title : Indonesian
Language : Indonesian
Default : No
Forced : No

Text #11
ID : 13
Format : UTF-8
Codec ID : S_TEXT/UTF8
Codec ID/Info : UTF-8 Plain Text
Duration : 53 min 16 s
Bit rate : 38 b/s
Count of elements : 358
Stream size : 15.2 KiB (0%)
Title : Italian
Language : Italian
Default : No
Forced : No

Text #12
ID : 14
Format : UTF-8
Codec ID : S_TEXT/UTF8
Codec ID/Info : UTF-8 Plain Text
Duration : 53 min 16 s
Bit rate : 35 b/s
Count of elements : 310
Stream size : 13.9 KiB (0%)
Title : Norwegian
Language : Norwegian
Default : No
Forced : No

Text #13
ID : 15
Format : UTF-8
Codec ID : S_TEXT/UTF8
Codec ID/Info : UTF-8 Plain Text
Duration : 53 min 16 s
Bit rate : 36 b/s
Count of elements : 293
Stream size : 14.2 KiB (0%)
Title : Dutch
Language : Dutch
Default : No
Forced : No

Text #14
ID : 16
Format : UTF-8
Codec ID : S_TEXT/UTF8
Codec ID/Info : UTF-8 Plain Text
Duration : 53 min 16 s
Bit rate : 36 b/s
Count of elements : 308
Stream size : 14.3 KiB (0%)
Title : Polish
Language : Polish
Default : No
Forced : No

Text #15
ID : 17
Format : UTF-8
Codec ID : S_TEXT/UTF8
Codec ID/Info : UTF-8 Plain Text
Duration : 53 min 16 s
Bit rate : 36 b/s
Count of elements : 318
Stream size : 14.2 KiB (0%)
Title : Brazilian Portuguese
Language : Portuguese
Default : No
Forced : No

Text #16
ID : 18
Format : UTF-8
Codec ID : S_TEXT/UTF8
Codec ID/Info : UTF-8 Plain Text
Duration : 53 min 16 s
Bit rate : 37 b/s
Count of elements : 316
Stream size : 14.6 KiB (0%)
Title : Portuguese
Language : Portuguese
Default : No
Forced : No

Text #17
ID : 19
Format : UTF-8
Codec ID : S_TEXT/UTF8
Codec ID/Info : UTF-8 Plain Text
Duration : 53 min 16 s
Bit rate : 59 b/s
Count of elements : 316
Stream size : 23.3 KiB (0%)
Title : Russian
Language : Russian
Default : No
Forced : No

Text #18
ID : 20
Format : UTF-8
Codec ID : S_TEXT/UTF8
Codec ID/Info : UTF-8 Plain Text
Duration : 53 min 16 s
Bit rate : 35 b/s
Count of elements : 314
Stream size : 13.9 KiB (0%)
Title : Swedish
Language : Swedish
Default : No
Forced : No

Text #19
ID : 21
Format : UTF-8
Codec ID : S_TEXT/UTF8
Codec ID/Info : UTF-8 Plain Text
Duration : 53 min 16 s
Bit rate : 41 b/s
Count of elements : 316
Stream size : 16.0 KiB (0%)
Title : Turkish
Language : Turkish
Default : No
Forced : No

Download

Direct download files get automatically deleted after a month or so. Posted on : 04/07/2019

[collapse]
Media Info and Download Links | S01E01

General
Format : Matroska
Format version : Version 4
File size : 601 MiB
Duration : 49 min 49 s
Overall bit rate : 1 686 kb/s
Movie name : Our.Planet.2019.S01E01.One.Planet.720p.WEBRip.2CH.x265.HEVC
Encoded date : UTC 2019-04-06 21:53:19
Writing application : mkvmerge v32.0.0 (‘Astral Progressions’) 32-bit
Writing library : libebml v1.3.7 + libmatroska v1.5.0

Video
ID : 1
Format : HEVC
Format/Info : High Efficiency Video Coding
Format profile : [email protected]@Main
Codec ID : V_MPEGH/ISO/HEVC
Duration : 49 min 49 s
Bit rate : 1 607 kb/s
Width : 1 280 pixels
Height : 720 pixels
Display aspect ratio : 16:9
Frame rate mode : Constant
Frame rate : 23.976 (24000/1001) FPS
Color space : YUV
Chroma subsampling : 4:2:0
Bit depth : 8 bits
Bits/(Pixel*Frame) : 0.073
Stream size : 573 MiB (95%)
Default : Yes
Forced : No

Audio
ID : 2
Format : AAC LC SBR
Commercial name : HE-AAC
Format settings : Explicit
Codec ID : A_AAC-2
Duration : 49 min 49 s
Bit rate : 75.2 kb/s
Channel(s) : 2 channels
Channel layout : L R
Sampling rate : 48.0 kHz
Frame rate : 23.438 FPS (2048 SPF)
Compression mode : Lossy
Delay relative to video : 23 ms
Stream size : 26.8 MiB (4%)
Language : English
Default : Yes
Forced : No

Text #1
ID : 3
Format : UTF-8
Codec ID : S_TEXT/UTF8
Codec ID/Info : UTF-8 Plain Text
Duration : 49 min 11 s
Bit rate : 42 b/s
Count of elements : 434
Stream size : 15.2 KiB (0%)
Title : English
Language : English
Default : No
Forced : No

Text #2
ID : 4
Format : UTF-8
Codec ID : S_TEXT/UTF8
Codec ID/Info : UTF-8 Plain Text
Duration : 49 min 15 s
Bit rate : 36 b/s
Count of elements : 301
Stream size : 13.1 KiB (0%)
Title : Czech
Language : Czech
Default : No
Forced : No

Text #3
ID : 5
Format : UTF-8
Codec ID : S_TEXT/UTF8
Codec ID/Info : UTF-8 Plain Text
Duration : 49 min 11 s
Bit rate : 33 b/s
Count of elements : 281
Stream size : 12.1 KiB (0%)
Title : Danish
Language : Danish
Default : No
Forced : No

Text #4
ID : 6
Format : UTF-8
Codec ID : S_TEXT/UTF8
Codec ID/Info : UTF-8 Plain Text
Duration : 49 min 11 s
Bit rate : 39 b/s
Count of elements : 317
Stream size : 14.2 KiB (0%)
Title : German
Language : German
Default : No
Forced : No

Text #5
ID : 7
Format : UTF-8
Codec ID : S_TEXT/UTF8
Codec ID/Info : UTF-8 Plain Text
Duration : 49 min 11 s
Bit rate : 65 b/s
Count of elements : 314
Stream size : 23.5 KiB (0%)
Title : Greek
Language : Greek
Default : No
Forced : No

Text #6
ID : 8
Format : UTF-8
Codec ID : S_TEXT/UTF8
Codec ID/Info : UTF-8 Plain Text
Duration : 49 min 11 s
Bit rate : 40 b/s
Count of elements : 318
Stream size : 14.5 KiB (0%)
Title : European Spanish
Language : Spanish
Default : No
Forced : No

Text #7
ID : 9
Format : UTF-8
Codec ID : S_TEXT/UTF8
Codec ID/Info : UTF-8 Plain Text
Duration : 49 min 11 s
Bit rate : 40 b/s
Count of elements : 312
Stream size : 14.6 KiB (0%)
Title : Spanish
Language : Spanish
Default : No
Forced : No

Text #8
ID : 10
Format : UTF-8
Codec ID : S_TEXT/UTF8
Codec ID/Info : UTF-8 Plain Text
Duration : 49 min 11 s
Bit rate : 33 b/s
Count of elements : 302
Stream size : 12.1 KiB (0%)
Title : Finnish
Language : Finnish
Default : No
Forced : No

Text #9
ID : 11
Format : UTF-8
Codec ID : S_TEXT/UTF8
Codec ID/Info : UTF-8 Plain Text
Duration : 49 min 11 s
Bit rate : 40 b/s
Count of elements : 345
Stream size : 14.4 KiB (0%)
Title : French
Language : French
Default : No
Forced : No

Text #10
ID : 12
Format : UTF-8
Codec ID : S_TEXT/UTF8
Codec ID/Info : UTF-8 Plain Text
Duration : 49 min 11 s
Bit rate : 38 b/s
Count of elements : 324
Stream size : 13.8 KiB (0%)
Title : Indonesian
Language : Indonesian
Default : No
Forced : No

Text #11
ID : 13
Format : UTF-8
Codec ID : S_TEXT/UTF8
Codec ID/Info : UTF-8 Plain Text
Duration : 49 min 11 s
Bit rate : 39 b/s
Count of elements : 320
Stream size : 14.4 KiB (0%)
Title : Italian
Language : Italian
Default : No
Forced : No

Text #12
ID : 14
Format : UTF-8
Codec ID : S_TEXT/UTF8
Codec ID/Info : UTF-8 Plain Text
Duration : 49 min 11 s
Bit rate : 35 b/s
Count of elements : 304
Stream size : 12.7 KiB (0%)
Title : Norwegian
Language : Norwegian
Default : No
Forced : No

Text #13
ID : 15
Format : UTF-8
Codec ID : S_TEXT/UTF8
Codec ID/Info : UTF-8 Plain Text
Duration : 49 min 11 s
Bit rate : 38 b/s
Count of elements : 303
Stream size : 13.9 KiB (0%)
Title : Dutch
Language : Dutch
Default : No
Forced : No

Text #14
ID : 16
Format : UTF-8
Codec ID : S_TEXT/UTF8
Codec ID/Info : UTF-8 Plain Text
Duration : 49 min 11 s
Bit rate : 37 b/s
Count of elements : 319
Stream size : 13.4 KiB (0%)
Title : Polish
Language : Polish
Default : No
Forced : No

Text #15
ID : 17
Format : UTF-8
Codec ID : S_TEXT/UTF8
Codec ID/Info : UTF-8 Plain Text
Duration : 49 min 11 s
Bit rate : 37 b/s
Count of elements : 316
Stream size : 13.3 KiB (0%)
Title : Brazilian Portuguese
Language : Portuguese
Default : No
Forced : No

Text #16
ID : 18
Format : UTF-8
Codec ID : S_TEXT/UTF8
Codec ID/Info : UTF-8 Plain Text
Duration : 49 min 11 s
Bit rate : 38 b/s
Count of elements : 310
Stream size : 14.0 KiB (0%)
Title : Portuguese
Language : Portuguese
Default : No
Forced : No

Text #17
ID : 19
Format : UTF-8
Codec ID : S_TEXT/UTF8
Codec ID/Info : UTF-8 Plain Text
Duration : 49 min 11 s
Bit rate : 61 b/s
Count of elements : 315
Stream size : 22.3 KiB (0%)
Title : Russian
Language : Russian
Default : No
Forced : No

Text #18
ID : 20
Format : UTF-8
Codec ID : S_TEXT/UTF8
Codec ID/Info : UTF-8 Plain Text
Duration : 49 min 11 s
Bit rate : 34 b/s
Count of elements : 305
Stream size : 12.3 KiB (0%)
Title : Swedish
Language : Swedish
Default : No
Forced : No

Text #19
ID : 21
Format : UTF-8
Codec ID : S_TEXT/UTF8
Codec ID/Info : UTF-8 Plain Text
Duration : 49 min 11 s
Bit rate : 41 b/s
Count of elements : 310
Stream size : 15.1 KiB (0%)
Title : Turkish
Language : Turkish
Default : No
Forced : No

Download

Direct download files get automatically deleted after a month or so. Posted on : 04/07/2019

[collapse]

You may also like...

error: nah :p~