Ozark

TV-MA | 1h | Crime, Drama, Thriller | TV Series (2017– )

A Chicago-based financial advisor secretly relocates his family to the Missouri Ozarks when his dealings with a drug cartel go awry.

Watch trailer

Details and Download | S02E10

General
Format : Matroska
Format version : Version 4
File size : 319 MiB
Duration : 1 h 4 min
Overall bit rate : 690 kb/s
Movie name : Ozark.S02E10.The.Gold.Coast.720p.10bit.WEBRip.2CH.x265.HEVC
Encoded date : UTC 2018-09-01 11:53:48
Writing application : mkvmerge v26.0.0 (‘In The Game’) 32-bit
Writing library : libebml v1.3.6 + libmatroska v1.4.9

Video
ID : 1
Format : HEVC
Format/Info : High Efficiency Video Coding
Format profile : Main [email protected]@Main
Codec ID : V_MPEGH/ISO/HEVC
Duration : 1 h 4 min
Bit rate : 622 kb/s
Width : 1 280 pixels
Height : 640 pixels
Display aspect ratio : 2.000
Frame rate mode : Constant
Frame rate : 23.976 (24000/1001) FPS
Color space : YUV
Chroma subsampling : 4:2:0
Bit depth : 10 bits
Bits/(Pixel*Frame) : 0.032
Stream size : 287 MiB (90%)
Default : Yes
Forced : No

Audio
ID : 2
Format : AAC LC SBR
Format/Info : Advanced Audio Codec Low Complexity with Spectral Band Replication
Commercial name : HE-AAC
Format settings : Explicit
Codec ID : A_AAC-2
Duration : 1 h 4 min
Bit rate : 66.2 kb/s
Channel(s) : 2 channels
Channel layout : L R
Sampling rate : 48.0 kHz
Frame rate : 23.438 FPS (2048 SPF)
Compression mode : Lossy
Delay relative to video : 23 ms
Stream size : 31.0 MiB (10%)
Language : English
Default : Yes
Forced : No

Text #1
ID : 3
Format : UTF-8
Codec ID : S_TEXT/UTF8
Codec ID/Info : UTF-8 Plain Text
Duration : 1 h 3 min
Bit rate : 67 b/s
Count of elements : 868
Stream size : 31.3 KiB (0%)
Title : English
Language : English
Default : No
Forced : No

Text #2
ID : 4
Format : UTF-8
Codec ID : S_TEXT/UTF8
Codec ID/Info : UTF-8 Plain Text
Duration : 1 h 3 min
Bit rate : 49 b/s
Count of elements : 714
Stream size : 22.8 KiB (0%)
Title : Swedish
Language : Swedish
Default : No
Forced : No

Text #3
ID : 5
Format : UTF-8
Codec ID : S_TEXT/UTF8
Codec ID/Info : UTF-8 Plain Text
Duration : 1 h 3 min
Bit rate : 49 b/s
Count of elements : 742
Stream size : 23.2 KiB (0%)
Title : Norwegian
Language : Norwegian
Default : No
Forced : No

Text #4
ID : 6
Format : UTF-8
Codec ID : S_TEXT/UTF8
Codec ID/Info : UTF-8 Plain Text
Duration : 1 h 3 min
Bit rate : 50 b/s
Count of elements : 678
Stream size : 23.3 KiB (0%)
Title : German
Language : German
Default : No
Forced : No

Text #5
ID : 7
Format : UTF-8
Codec ID : S_TEXT/UTF8
Codec ID/Info : UTF-8 Plain Text
Duration : 1 h 3 min
Bit rate : 46 b/s
Count of elements : 708
Stream size : 21.5 KiB (0%)
Title : Finnish
Language : Finnish
Default : No
Forced : No

Download

Direct download files get automatically deleted after a month or so. Posted on : 09/01/2018

[collapse]
Details and Download | S02E09

General
Format : Matroska
Format version : Version 4
File size : 274 MiB
Duration : 1 h 3 min
Overall bit rate : 601 kb/s
Movie name : Ozark.S02E09.The.Badger.720p.10bit.WEBRip.2CH.x265.HEVC
Encoded date : UTC 2018-09-01 11:52:46
Writing application : mkvmerge v26.0.0 (‘In The Game’) 32-bit
Writing library : libebml v1.3.6 + libmatroska v1.4.9

Video
ID : 1
Format : HEVC
Format/Info : High Efficiency Video Coding
Format profile : Main [email protected]@Main
Codec ID : V_MPEGH/ISO/HEVC
Duration : 1 h 3 min
Bit rate : 532 kb/s
Width : 1 280 pixels
Height : 640 pixels
Display aspect ratio : 2.000
Frame rate mode : Constant
Frame rate : 23.976 (24000/1001) FPS
Color space : YUV
Chroma subsampling : 4:2:0
Bit depth : 10 bits
Bits/(Pixel*Frame) : 0.027
Stream size : 242 MiB (89%)
Default : Yes
Forced : No

Audio
ID : 2
Format : AAC LC SBR
Format/Info : Advanced Audio Codec Low Complexity with Spectral Band Replication
Commercial name : HE-AAC
Format settings : Explicit
Codec ID : A_AAC-2
Duration : 1 h 3 min
Bit rate : 66.2 kb/s
Channel(s) : 2 channels
Channel layout : L R
Sampling rate : 48.0 kHz
Frame rate : 23.438 FPS (2048 SPF)
Compression mode : Lossy
Delay relative to video : 23 ms
Stream size : 30.3 MiB (11%)
Language : English
Default : Yes
Forced : No

Text #1
ID : 3
Format : UTF-8
Codec ID : S_TEXT/UTF8
Codec ID/Info : UTF-8 Plain Text
Duration : 1 h 2 min
Bit rate : 70 b/s
Count of elements : 870
Stream size : 32.1 KiB (0%)
Title : English
Language : English
Default : No
Forced : No

Text #2
ID : 4
Format : UTF-8
Codec ID : S_TEXT/UTF8
Codec ID/Info : UTF-8 Plain Text
Duration : 1 h 2 min
Bit rate : 54 b/s
Count of elements : 719
Stream size : 25.0 KiB (0%)
Title : Swedish
Language : Swedish
Default : No
Forced : No

Text #3
ID : 5
Format : UTF-8
Codec ID : S_TEXT/UTF8
Codec ID/Info : UTF-8 Plain Text
Duration : 1 h 2 min
Bit rate : 56 b/s
Count of elements : 771
Stream size : 26.0 KiB (0%)
Title : Norwegian
Language : Norwegian
Default : No
Forced : No

Text #4
ID : 6
Format : UTF-8
Codec ID : S_TEXT/UTF8
Codec ID/Info : UTF-8 Plain Text
Duration : 1 h 2 min
Bit rate : 56 b/s
Count of elements : 707
Stream size : 25.9 KiB (0%)
Title : German
Language : German
Default : No
Forced : No

Text #5
ID : 7
Format : UTF-8
Codec ID : S_TEXT/UTF8
Codec ID/Info : UTF-8 Plain Text
Duration : 1 h 2 min
Bit rate : 50 b/s
Count of elements : 722
Stream size : 23.2 KiB (0%)
Title : Finnish
Language : Finnish
Default : No
Forced : No

Download

Direct download files get automatically deleted after a month or so. Posted on : 09/01/2018

[collapse]
Details and Download | S02E08

General
Format : Matroska
Format version : Version 4
File size : 195 MiB
Duration : 1 h 2 min
Overall bit rate : 433 kb/s
Movie name : Ozark.S02E08.The.Big.Sleep.720p.10bit.WEBRip.2CH.x265.HEVC
Encoded date : UTC 2018-09-01 11:51:54
Writing application : mkvmerge v26.0.0 (‘In The Game’) 32-bit
Writing library : libebml v1.3.6 + libmatroska v1.4.9

Video
ID : 1
Format : HEVC
Format/Info : High Efficiency Video Coding
Format profile : Main [email protected]@Main
Codec ID : V_MPEGH/ISO/HEVC
Duration : 1 h 2 min
Bit rate : 369 kb/s
Width : 1 280 pixels
Height : 640 pixels
Display aspect ratio : 2.000
Frame rate mode : Constant
Frame rate : 23.976 (24000/1001) FPS
Color space : YUV
Chroma subsampling : 4:2:0
Bit depth : 10 bits
Bits/(Pixel*Frame) : 0.019
Stream size : 166 MiB (85%)
Default : Yes
Forced : No

Audio
ID : 2
Format : AAC LC SBR
Format/Info : Advanced Audio Codec Low Complexity with Spectral Band Replication
Commercial name : HE-AAC
Format settings : Explicit
Codec ID : A_AAC-2
Duration : 1 h 2 min
Bit rate : 62.6 kb/s
Channel(s) : 2 channels
Channel layout : L R
Sampling rate : 48.0 kHz
Frame rate : 23.438 FPS (2048 SPF)
Compression mode : Lossy
Delay relative to video : 23 ms
Stream size : 28.2 MiB (14%)
Language : English
Default : Yes
Forced : No

Text #1
ID : 3
Format : UTF-8
Codec ID : S_TEXT/UTF8
Codec ID/Info : UTF-8 Plain Text
Duration : 59 min 42 s
Bit rate : 62 b/s
Count of elements : 835
Stream size : 27.5 KiB (0%)
Title : English
Language : English
Default : No
Forced : No

Text #2
ID : 4
Format : UTF-8
Codec ID : S_TEXT/UTF8
Codec ID/Info : UTF-8 Plain Text
Duration : 1 h 1 min
Bit rate : 50 b/s
Count of elements : 740
Stream size : 22.8 KiB (0%)
Title : Swedish
Language : Swedish
Default : No
Forced : No

Text #3
ID : 5
Format : UTF-8
Codec ID : S_TEXT/UTF8
Codec ID/Info : UTF-8 Plain Text
Duration : 1 h 1 min
Bit rate : 50 b/s
Count of elements : 770
Stream size : 22.9 KiB (0%)
Title : Norwegian
Language : Norwegian
Default : No
Forced : No

Text #4
ID : 6
Format : UTF-8
Codec ID : S_TEXT/UTF8
Codec ID/Info : UTF-8 Plain Text
Duration : 1 h 1 min
Bit rate : 51 b/s
Count of elements : 704
Stream size : 23.3 KiB (0%)
Title : German
Language : German
Default : No
Forced : No

Text #5
ID : 7
Format : UTF-8
Codec ID : S_TEXT/UTF8
Codec ID/Info : UTF-8 Plain Text
Duration : 1 h 1 min
Bit rate : 46 b/s
Count of elements : 746
Stream size : 21.1 KiB (0%)
Title : Finnish
Language : Finnish
Default : No
Forced : No

Download

Direct download files get automatically deleted after a month or so. Posted on : 09/01/2018

[collapse]
Details and Download | S02E07

General
Format : Matroska
Format version : Version 4
File size : 193 MiB
Duration : 59 min 31 s
Overall bit rate : 453 kb/s
Movie name : Ozark.S02E07.One.Way.Out.720p.10bit.WEBRip.2CH.x265.HEVC
Encoded date : UTC 2018-09-01 11:50:59
Writing application : mkvmerge v26.0.0 (‘In The Game’) 32-bit
Writing library : libebml v1.3.6 + libmatroska v1.4.9

Video
ID : 1
Format : HEVC
Format/Info : High Efficiency Video Coding
Format profile : Main [email protected]@Main
Codec ID : V_MPEGH/ISO/HEVC
Duration : 59 min 25 s
Bit rate : 385 kb/s
Width : 1 280 pixels
Height : 640 pixels
Display aspect ratio : 2.000
Frame rate mode : Constant
Frame rate : 23.976 (24000/1001) FPS
Color space : YUV
Chroma subsampling : 4:2:0
Bit depth : 10 bits
Bits/(Pixel*Frame) : 0.020
Stream size : 164 MiB (85%)
Default : Yes
Forced : No

Audio
ID : 2
Format : AAC LC SBR
Format/Info : Advanced Audio Codec Low Complexity with Spectral Band Replication
Commercial name : HE-AAC
Format settings : Explicit
Codec ID : A_AAC-2
Duration : 59 min 31 s
Bit rate : 66.2 kb/s
Channel(s) : 2 channels
Channel layout : L R
Sampling rate : 48.0 kHz
Frame rate : 23.438 FPS (2048 SPF)
Compression mode : Lossy
Delay relative to video : 23 ms
Stream size : 28.4 MiB (15%)
Language : English
Default : Yes
Forced : No

Text #1
ID : 3
Format : UTF-8
Codec ID : S_TEXT/UTF8
Codec ID/Info : UTF-8 Plain Text
Duration : 56 min 20 s
Bit rate : 76 b/s
Count of elements : 809
Stream size : 31.6 KiB (0%)
Title : English
Language : English
Default : No
Forced : No

Text #2
ID : 4
Format : UTF-8
Codec ID : S_TEXT/UTF8
Codec ID/Info : UTF-8 Plain Text
Duration : 58 min 18 s
Bit rate : 58 b/s
Count of elements : 714
Stream size : 25.0 KiB (0%)
Title : Swedish
Language : Swedish
Default : No
Forced : No

Text #3
ID : 5
Format : UTF-8
Codec ID : S_TEXT/UTF8
Codec ID/Info : UTF-8 Plain Text
Duration : 58 min 18 s
Bit rate : 59 b/s
Count of elements : 748
Stream size : 25.3 KiB (0%)
Title : Norwegian
Language : Norwegian
Default : No
Forced : No

Text #4
ID : 6
Format : UTF-8
Codec ID : S_TEXT/UTF8
Codec ID/Info : UTF-8 Plain Text
Duration : 58 min 18 s
Bit rate : 60 b/s
Count of elements : 691
Stream size : 25.9 KiB (0%)
Title : German
Language : German
Default : No
Forced : No

Text #5
ID : 7
Format : UTF-8
Codec ID : S_TEXT/UTF8
Codec ID/Info : UTF-8 Plain Text
Duration : 58 min 18 s
Bit rate : 53 b/s
Count of elements : 721
Stream size : 23.0 KiB (0%)
Title : Finnish
Language : Finnish
Default : No
Forced : No

Download

Direct download files get automatically deleted after a month or so. Posted on : 09/01/2018

[collapse]
Details and Download | S02E06

General
Format : Matroska
Format version : Version 4
File size : 268 MiB
Duration : 1 h 6 min
Overall bit rate : 562 kb/s
Movie name : Ozark.S02E06.Outer.Darkness.720p.10bit.WEBRip.2CH.x265.HEVC
Encoded date : UTC 2018-09-01 11:49:57
Writing application : mkvmerge v26.0.0 (‘In The Game’) 32-bit
Writing library : libebml v1.3.6 + libmatroska v1.4.9

Video
ID : 1
Format : HEVC
Format/Info : High Efficiency Video Coding
Format profile : Main [email protected]@Main
Codec ID : V_MPEGH/ISO/HEVC
Duration : 1 h 6 min
Bit rate : 494 kb/s
Width : 1 280 pixels
Height : 640 pixels
Display aspect ratio : 2.000
Frame rate mode : Constant
Frame rate : 23.976 (24000/1001) FPS
Color space : YUV
Chroma subsampling : 4:2:0
Bit depth : 10 bits
Bits/(Pixel*Frame) : 0.025
Stream size : 235 MiB (88%)
Default : Yes
Forced : No

Audio
ID : 2
Format : AAC LC SBR
Format/Info : Advanced Audio Codec Low Complexity with Spectral Band Replication
Commercial name : HE-AAC
Format settings : Explicit
Codec ID : A_AAC-2
Duration : 1 h 6 min
Bit rate : 66.2 kb/s
Channel(s) : 2 channels
Channel layout : L R
Sampling rate : 48.0 kHz
Frame rate : 23.438 FPS (2048 SPF)
Compression mode : Lossy
Delay relative to video : 23 ms
Stream size : 31.8 MiB (12%)
Language : English
Default : Yes
Forced : No

Text #1
ID : 3
Format : UTF-8
Codec ID : S_TEXT/UTF8
Codec ID/Info : UTF-8 Plain Text
Duration : 1 h 4 min
Bit rate : 63 b/s
Count of elements : 832
Stream size : 30.2 KiB (0%)
Title : English
Language : English
Default : No
Forced : No

Text #2
ID : 4
Format : UTF-8
Codec ID : S_TEXT/UTF8
Codec ID/Info : UTF-8 Plain Text
Duration : 1 h 5 min
Bit rate : 49 b/s
Count of elements : 731
Stream size : 23.7 KiB (0%)
Title : Swedish
Language : Swedish
Default : No
Forced : No

Text #3
ID : 5
Format : UTF-8
Codec ID : S_TEXT/UTF8
Codec ID/Info : UTF-8 Plain Text
Duration : 1 h 5 min
Bit rate : 52 b/s
Count of elements : 746
Stream size : 25.1 KiB (0%)
Title : Norwegian
Language : Norwegian
Default : No
Forced : No

Text #4
ID : 6
Format : UTF-8
Codec ID : S_TEXT/UTF8
Codec ID/Info : UTF-8 Plain Text
Duration : 1 h 5 min
Bit rate : 52 b/s
Count of elements : 688
Stream size : 25.4 KiB (0%)
Title : German
Language : German
Default : No
Forced : No

Text #5
ID : 7
Format : UTF-8
Codec ID : S_TEXT/UTF8
Codec ID/Info : UTF-8 Plain Text
Duration : 1 h 5 min
Bit rate : 46 b/s
Count of elements : 712
Stream size : 22.3 KiB (0%)
Title : Finnish
Language : Finnish
Default : No
Forced : No

Download

Direct download files get automatically deleted after a month or so. Posted on : 09/01/2018

[collapse]
Details and Download | S02E05

General
Format : Matroska
Format version : Version 4
File size : 215 MiB
Duration : 1 h 0 min
Overall bit rate : 499 kb/s
Movie name : Ozark.S02E05.Game.Day.720p.10bit.WEBRip.2CH.x265.HEVC
Encoded date : UTC 2018-09-01 11:48:23
Writing application : mkvmerge v26.0.0 (‘In The Game’) 32-bit
Writing library : libebml v1.3.6 + libmatroska v1.4.9

Video
ID : 1
Format : HEVC
Format/Info : High Efficiency Video Coding
Format profile : Main [email protected]@Main
Codec ID : V_MPEGH/ISO/HEVC
Duration : 1 h 0 min
Bit rate : 432 kb/s
Width : 1 280 pixels
Height : 640 pixels
Display aspect ratio : 2.000
Frame rate mode : Constant
Frame rate : 23.976 (24000/1001) FPS
Color space : YUV
Chroma subsampling : 4:2:0
Bit depth : 10 bits
Bits/(Pixel*Frame) : 0.022
Stream size : 186 MiB (87%)
Default : Yes
Forced : No

Audio
ID : 2
Format : AAC LC SBR
Format/Info : Advanced Audio Codec Low Complexity with Spectral Band Replication
Commercial name : HE-AAC
Format settings : Explicit
Codec ID : A_AAC-2
Duration : 1 h 0 min
Bit rate : 64.8 kb/s
Channel(s) : 2 channels
Channel layout : L R
Sampling rate : 48.0 kHz
Frame rate : 23.438 FPS (2048 SPF)
Compression mode : Lossy
Delay relative to video : 23 ms
Stream size : 28.0 MiB (13%)
Language : English
Default : Yes
Forced : No

Text #1
ID : 3
Format : UTF-8
Codec ID : S_TEXT/UTF8
Codec ID/Info : UTF-8 Plain Text
Duration : 57 min 11 s
Bit rate : 64 b/s
Count of elements : 750
Stream size : 27.0 KiB (0%)
Title : English
Language : English
Default : No
Forced : No

Text #2
ID : 4
Format : UTF-8
Codec ID : S_TEXT/UTF8
Codec ID/Info : UTF-8 Plain Text
Duration : 59 min 5 s
Bit rate : 48 b/s
Count of elements : 646
Stream size : 21.2 KiB (0%)
Title : Swedish
Language : Swedish
Default : No
Forced : No

Text #3
ID : 5
Format : UTF-8
Codec ID : S_TEXT/UTF8
Codec ID/Info : UTF-8 Plain Text
Duration : 59 min 5 s
Bit rate : 51 b/s
Count of elements : 667
Stream size : 22.2 KiB (0%)
Title : Norwegian
Language : Norwegian
Default : No
Forced : No

Text #4
ID : 6
Format : UTF-8
Codec ID : S_TEXT/UTF8
Codec ID/Info : UTF-8 Plain Text
Duration : 59 min 5 s
Bit rate : 52 b/s
Count of elements : 628
Stream size : 22.7 KiB (0%)
Title : German
Language : German
Default : No
Forced : No

Text #5
ID : 7
Format : UTF-8
Codec ID : S_TEXT/UTF8
Codec ID/Info : UTF-8 Plain Text
Duration : 59 min 5 s
Bit rate : 47 b/s
Count of elements : 644
Stream size : 20.4 KiB (0%)
Title : Finnish
Language : Finnish
Default : No
Forced : No

Download

Direct download files get automatically deleted after a month or so. Posted on : 09/01/2018

[collapse]
Details and Download | S02E04

General
Format : Matroska
Format version : Version 4
File size : 205 MiB
Duration : 1 h 1 min
Overall bit rate : 464 kb/s
Movie name : Ozark.S02E04.Stag.720p.10bit.WEBRip.2CH.x265.HEVC
Encoded date : UTC 2018-08-31 19:47:02
Writing application : mkvmerge v26.0.0 (‘In The Game’) 32-bit
Writing library : libebml v1.3.6 + libmatroska v1.4.9

Video
ID : 1
Format : HEVC
Format/Info : High Efficiency Video Coding
Format profile : Main [email protected]@Main
Codec ID : V_MPEGH/ISO/HEVC
Duration : 1 h 1 min
Bit rate : 397 kb/s
Width : 1 280 pixels
Height : 640 pixels
Display aspect ratio : 2.000
Frame rate mode : Constant
Frame rate : 23.976 (24000/1001) FPS
Color space : YUV
Chroma subsampling : 4:2:0
Bit depth : 10 bits
Bits/(Pixel*Frame) : 0.020
Stream size : 175 MiB (85%)
Default : Yes
Forced : No

Audio
ID : 2
Format : AAC LC SBR
Format/Info : Advanced Audio Codec Low Complexity with Spectral Band Replication
Commercial name : HE-AAC
Format settings : Explicit
Codec ID : A_AAC-2
Duration : 1 h 1 min
Bit rate : 66.2 kb/s
Channel(s) : 2 channels
Channel layout : L R
Sampling rate : 48.0 kHz
Frame rate : 23.438 FPS (2048 SPF)
Compression mode : Lossy
Delay relative to video : 23 ms
Stream size : 28.7 MiB (14%)
Language : English
Default : Yes
Forced : No

Text #1
ID : 3
Format : UTF-8
Codec ID : S_TEXT/UTF8
Codec ID/Info : UTF-8 Plain Text
Duration : 58 min 27 s
Bit rate : 76 b/s
Count of elements : 902
Stream size : 32.8 KiB (0%)
Title : English
Language : English
Default : No
Forced : No

Text #2
ID : 4
Format : UTF-8
Codec ID : S_TEXT/UTF8
Codec ID/Info : UTF-8 Plain Text
Duration : 1 h 0 min
Bit rate : 55 b/s
Count of elements : 777
Stream size : 24.7 KiB (0%)
Title : Swedish
Language : Swedish
Default : No
Forced : No

Text #3
ID : 5
Format : UTF-8
Codec ID : S_TEXT/UTF8
Codec ID/Info : UTF-8 Plain Text
Duration : 1 h 0 min
Bit rate : 58 b/s
Count of elements : 785
Stream size : 25.9 KiB (0%)
Title : Norwegian
Language : Norwegian
Default : No
Forced : No

Text #4
ID : 6
Format : UTF-8
Codec ID : S_TEXT/UTF8
Codec ID/Info : UTF-8 Plain Text
Duration : 1 h 0 min
Bit rate : 58 b/s
Count of elements : 744
Stream size : 26.1 KiB (0%)
Title : German
Language : German
Default : No
Forced : No

Text #5
ID : 7
Format : UTF-8
Codec ID : S_TEXT/UTF8
Codec ID/Info : UTF-8 Plain Text
Duration : 1 h 0 min
Bit rate : 51 b/s
Count of elements : 756
Stream size : 23.0 KiB (0%)
Title : Finnish
Language : Finnish
Default : No
Forced : No

Download

Direct download files get automatically deleted after a month or so. Posted on : 08/31/2018

[collapse]
Details and Download | S02E03

General
Format : Matroska
Format version : Version 4
File size : 235 MiB
Duration : 56 min 23 s
Overall bit rate : 583 kb/s
Movie name : Ozark.S02E03.Once.a.Langmore.720p.10bit.WEBRip.2CH.x265.HEVC
Encoded date : UTC 2018-08-31 19:45:32
Writing application : mkvmerge v26.0.0 (‘In The Game’) 32-bit
Writing library : libebml v1.3.6 + libmatroska v1.4.9

Video
ID : 1
Format : HEVC
Format/Info : High Efficiency Video Coding
Format profile : Main [email protected]@Main
Codec ID : V_MPEGH/ISO/HEVC
Duration : 56 min 23 s
Bit rate : 513 kb/s
Width : 1 280 pixels
Height : 640 pixels
Display aspect ratio : 2.000
Frame rate mode : Constant
Frame rate : 23.976 (24000/1001) FPS
Color space : YUV
Chroma subsampling : 4:2:0
Bit depth : 10 bits
Bits/(Pixel*Frame) : 0.026
Stream size : 207 MiB (88%)
Default : Yes
Forced : No

Audio
ID : 2
Format : AAC LC SBR
Format/Info : Advanced Audio Codec Low Complexity with Spectral Band Replication
Commercial name : HE-AAC
Format settings : Explicit
Codec ID : A_AAC-2
Duration : 56 min 23 s
Bit rate : 66.2 kb/s
Channel(s) : 2 channels
Channel layout : L R
Sampling rate : 48.0 kHz
Frame rate : 23.438 FPS (2048 SPF)
Compression mode : Lossy
Delay relative to video : 23 ms
Stream size : 27.1 MiB (12%)
Language : English
Default : Yes
Forced : No

Text #1
ID : 3
Format : UTF-8
Codec ID : S_TEXT/UTF8
Codec ID/Info : UTF-8 Plain Text
Duration : 53 min 0 s
Bit rate : 73 b/s
Count of elements : 775
Stream size : 28.7 KiB (0%)
Title : English
Language : English
Default : No
Forced : No

Text #2
ID : 4
Format : UTF-8
Codec ID : S_TEXT/UTF8
Codec ID/Info : UTF-8 Plain Text
Duration : 55 min 8 s
Bit rate : 56 b/s
Count of elements : 688
Stream size : 22.8 KiB (0%)
Title : Swedish
Language : Swedish
Default : No
Forced : No

Text #3
ID : 5
Format : UTF-8
Codec ID : S_TEXT/UTF8
Codec ID/Info : UTF-8 Plain Text
Duration : 55 min 8 s
Bit rate : 58 b/s
Count of elements : 719
Stream size : 23.5 KiB (0%)
Title : Norwegian
Language : Norwegian
Default : No
Forced : No

Text #4
ID : 6
Format : UTF-8
Codec ID : S_TEXT/UTF8
Codec ID/Info : UTF-8 Plain Text
Duration : 55 min 8 s
Bit rate : 58 b/s
Count of elements : 647
Stream size : 23.6 KiB (0%)
Title : German
Language : German
Default : No
Forced : No

Text #5
ID : 7
Format : UTF-8
Codec ID : S_TEXT/UTF8
Codec ID/Info : UTF-8 Plain Text
Duration : 55 min 8 s
Bit rate : 53 b/s
Count of elements : 604
Stream size : 21.4 KiB (0%)
Title : Finnish
Language : Finnish
Default : No
Forced : No

Download

Direct download files get automatically deleted after a month or so. Posted on : 08/31/2018

[collapse]
Details and Download | S02E02

General
Format : Matroska
Format version : Version 4 / Version 2
File size : 268 MiB
Duration : 1 h 0 min
Overall bit rate : 619 kb/s
Movie name : Ozark.S02E02.The.Precious.Blood.of.Jesus.720p.10bit.WEBRip.2CH.x265.HEVC
Encoded date : UTC 2018-08-31 13:56:37
Writing application : mkvmerge v26.0.0 (‘In The Game’) 32-bit
Writing library : libebml v1.3.6 + libmatroska v1.4.9

Video
ID : 1
Format : HEVC
Format/Info : High Efficiency Video Coding
Format profile : Main [email protected]@Main
Codec ID : V_MPEGH/ISO/HEVC
Duration : 1 h 0 min
Bit rate : 553 kb/s
Width : 1 280 pixels
Height : 640 pixels
Display aspect ratio : 2.000
Frame rate mode : Constant
Frame rate : 23.976 (24000/1001) FPS
Color space : YUV
Chroma subsampling : 4:2:0
Bit depth : 10 bits
Bits/(Pixel*Frame) : 0.028
Stream size : 239 MiB (89%)
Default : Yes
Forced : No

Audio
ID : 2
Format : AAC
Format/Info : Advanced Audio Codec
Format profile : HE-AAC / LC
Format settings : Explicit
Codec ID : A_AAC-2
Duration : 1 h 0 min
Bit rate : 64.2 kb/s
Channel(s) : 2 channels
Channel positions : Front: L R
Sampling rate : 48.0 kHz / 24.0 kHz
Frame rate : 23.438 FPS (1024 SPF)
Compression mode : Lossy
Delay relative to video : 23 ms
Stream size : 27.8 MiB (10%)
Language : English
Default : Yes
Forced : No

Text #1
ID : 3
Format : UTF-8
Codec ID : S_TEXT/UTF8
Codec ID/Info : UTF-8 Plain Text
Duration : 57 min 26 s
Bit rate : 65 b/s
Count of elements : 831
Stream size : 27.4 KiB (0%)
Title : English
Language : English
Default : No
Forced : No

Text #2
ID : 4
Format : UTF-8
Codec ID : S_TEXT/UTF8
Codec ID/Info : UTF-8 Plain Text
Duration : 59 min 18 s
Bit rate : 49 b/s
Count of elements : 742
Stream size : 21.4 KiB (0%)
Title : Swedish
Language : Swedish
Default : No
Forced : No

Text #3
ID : 5
Format : UTF-8
Codec ID : S_TEXT/UTF8
Codec ID/Info : UTF-8 Plain Text
Duration : 59 min 18 s
Bit rate : 51 b/s
Count of elements : 752
Stream size : 22.4 KiB (0%)
Title : Norwegian
Language : Norwegian
Default : No
Forced : No

Text #4
ID : 6
Format : UTF-8
Codec ID : S_TEXT/UTF8
Codec ID/Info : UTF-8 Plain Text
Duration : 59 min 18 s
Bit rate : 51 b/s
Count of elements : 679
Stream size : 22.5 KiB (0%)
Title : German
Language : German
Default : No
Forced : No

Text #5
ID : 7
Format : UTF-8
Codec ID : S_TEXT/UTF8
Codec ID/Info : UTF-8 Plain Text
Duration : 59 min 17 s
Bit rate : 46 b/s
Count of elements : 629
Stream size : 20.0 KiB (0%)
Title : Finnish
Language : Finnish
Default : No
Forced : No

Download

Direct download files get automatically deleted after a month or so. Posted on : 08/31/2018

[collapse]
Details and Download | S02E01

General
Format : Matroska
Format version : Version 4 / Version 2
File size : 214 MiB
Duration : 1 h 0 min
Overall bit rate : 494 kb/s
Movie name : Ozark.S02E01.Reparations.720p.10bit.WEBRip.2CH.x265.HEVC
Encoded date : UTC 2018-08-31 13:55:28
Writing application : mkvmerge v26.0.0 (‘In The Game’) 32-bit
Writing library : libebml v1.3.6 + libmatroska v1.4.9

Video
ID : 1
Format : HEVC
Format/Info : High Efficiency Video Coding
Format profile : Main [email protected]@Main
Codec ID : V_MPEGH/ISO/HEVC
Duration : 1 h 0 min
Bit rate : 425 kb/s
Width : 1 280 pixels
Height : 640 pixels
Display aspect ratio : 2.000
Frame rate mode : Constant
Frame rate : 23.976 (24000/1001) FPS
Color space : YUV
Chroma subsampling : 4:2:0
Bit depth : 10 bits
Bits/(Pixel*Frame) : 0.022
Stream size : 184 MiB (86%)
Default : Yes
Forced : No

Audio
ID : 2
Format : AAC
Format/Info : Advanced Audio Codec
Format profile : HE-AAC / LC
Format settings : Explicit
Codec ID : A_AAC-2
Duration : 1 h 0 min
Bit rate : 66.2 kb/s
Channel(s) : 2 channels
Channel positions : Front: L R
Sampling rate : 48.0 kHz / 24.0 kHz
Frame rate : 23.438 FPS (1024 SPF)
Compression mode : Lossy
Delay relative to video : 23 ms
Stream size : 28.9 MiB (14%)
Language : English
Default : Yes
Forced : No

Text #1
ID : 3
Format : UTF-8
Codec ID : S_TEXT/UTF8
Codec ID/Info : UTF-8 Plain Text
Duration : 58 min 47 s
Bit rate : 67 b/s
Count of elements : 833
Stream size : 29.0 KiB (0%)
Title : English
Language : English
Default : No
Forced : No

Text #2
ID : 4
Format : UTF-8
Codec ID : S_TEXT/UTF8
Codec ID/Info : UTF-8 Plain Text
Duration : 59 min 18 s
Bit rate : 51 b/s
Count of elements : 714
Stream size : 22.5 KiB (0%)
Title : Swedish
Language : Swedish
Default : No
Forced : No

Text #3
ID : 5
Format : UTF-8
Codec ID : S_TEXT/UTF8
Codec ID/Info : UTF-8 Plain Text
Duration : 59 min 18 s
Bit rate : 52 b/s
Count of elements : 728
Stream size : 22.8 KiB (0%)
Title : Norwegian
Language : Norwegian
Default : No
Forced : No

Text #4
ID : 6
Format : UTF-8
Codec ID : S_TEXT/UTF8
Codec ID/Info : UTF-8 Plain Text
Duration : 59 min 18 s
Bit rate : 52 b/s
Count of elements : 673
Stream size : 22.9 KiB (0%)
Title : German
Language : German
Default : No
Forced : No

Text #5
ID : 7
Format : UTF-8
Codec ID : S_TEXT/UTF8
Codec ID/Info : UTF-8 Plain Text
Duration : 59 min 18 s
Bit rate : 48 b/s
Count of elements : 624
Stream size : 21.0 KiB (0%)
Title : Finnish
Language : Finnish
Default : No
Forced : No

Download

Direct download files get automatically deleted after a month or so. Posted on : 08/31/2018

[collapse]

Details and Download | S01 COMPLETE

Average Media Info:
General
Format : Matroska
Format version : Version 4 / Version 2
Overall bit rate : 865 kb/s
Encoded date : UTC 2017-10-07 17:41:05
Writing application : mkvmerge v16.0.0 (‘Protest’) 32-bit
Writing library : libebml v1.3.5 + libmatroska v1.4.8

Video
ID : 1
Format : HEVC
Format/Info : High Efficiency Video Coding
Format profile : Main [email protected]@Main
Codec ID : V_MPEGH/ISO/HEVC
Bit rate : 797 kb/s
Width : 1 280 pixels
Height : 640 pixels
Display aspect ratio : 2.000
Frame rate mode : Constant
Frame rate : 23.976 (24000/1001) FPS
Color space : YUV
Chroma subsampling : 4:2:0
Bit depth : 10 bits
Bits/(Pixel*Frame) : 0.041
Default : Yes
Forced : No

Audio
ID : 2
Format : AAC
Format/Info : Advanced Audio Codec
Format profile : HE-AAC / LC
Format settings : Explicit
Codec ID : A_AAC-2
Bit rate : 66.2 kb/s
Channel(s) : 2 channels
Channel positions : Front: L R
Sampling rate : 48.0 kHz / 24.0 kHz
Frame rate : 23.438 FPS (1024 SPF)
Compression mode : Lossy
Delay relative to video : 23 ms
Default : Yes
Forced : No

Text
ID : 3
Format : UTF-8
Codec ID : S_TEXT/UTF8
Codec ID/Info : UTF-8 Plain Text
Bit rate : 75 b/s
Count of elements : 762
Default : Yes
Forced : No

Part01 Part02 Part03 Part04

[RE-UP] Direct download files get automatically deleted after a month or so. Posted on : 08/16/2018

File size : 3.28 GB (3,529,527,296 bytes)

[collapse]
Magnet

Magnet

Source : Ozark.S01.Season.1.1080p.10bit.NF.WEBRip.5.1.x265.HEVC-9.2 GB

[collapse]

You may also like...

error: nah :p~