Pearson

1h | Drama | TV Series (2019– )-10 Episodes

Attorney Jessica Pearson enters the complex and seedy world of Chicago politics.

Watch trailer

Media Info and Download Links | S01E05

General
Format : Matroska
Format version : Version 4
File size : 168 MiB
Duration : 42 min 53 s
Overall bit rate : 547 kb/s
Movie name : Pearson.S01E05.The.Former.City.Attorney.720p.WEBRip.2CH.x265.HEVC
Encoded date : UTC 2019-08-15 14:29:59
Writing application : mkvmerge v36.0.0 (‘Is That Jazz?’) 32-bit
Writing library : libebml v1.3.9 + libmatroska v1.5.2

Video
ID : 1
Format : HEVC
Format/Info : High Efficiency Video Coding
Format profile : [email protected]@Main
Codec ID : V_MPEGH/ISO/HEVC
Duration : 42 min 53 s
Bit rate : 482 kb/s
Width : 1 280 pixels
Height : 640 pixels
Display aspect ratio : 2.000
Frame rate mode : Constant
Frame rate : 23.976 (24000/1001) FPS
Color space : YUV
Chroma subsampling : 4:2:0
Bit depth : 8 bits
Bits/(Pixel*Frame) : 0.025
Stream size : 148 MiB (88%)
Default : Yes
Forced : No

Audio
ID : 2
Format : AAC LC SBR
Commercial name : HE-AAC
Format settings : Explicit
Codec ID : A_AAC-2
Duration : 42 min 53 s
Bit rate : 62.5 kb/s
Channel(s) : 2 channels
Channel layout : L R
Sampling rate : 48.0 kHz
Frame rate : 23.438 FPS (2048 SPF)
Compression mode : Lossy
Delay relative to video : 23 ms
Stream size : 19.2 MiB (11%)
Language : English
Default : Yes
Forced : No

Text
ID : 3
Format : UTF-8
Codec ID : S_TEXT/UTF8
Codec ID/Info : UTF-8 Plain Text
Duration : 42 min 50 s
Bit rate : 113 b/s
Count of elements : 1135
Stream size : 35.7 KiB (0%)
Language : English
Default : Yes
Forced : No

Download

Direct download files get automatically deleted after a month or so. Posted on : 08/15/2019

[collapse]
Media Info and Download Links | S01E04

General
Format : Matroska
Format version : Version 4
File size : 189 MiB
Duration : 42 min 47 s
Overall bit rate : 617 kb/s
Movie name : Pearson.S01E04.The.Deputy.Mayor.720p.WEBRip.2CH.x265.HEVC
Encoded date : UTC 2019-08-08 14:34:35
Writing application : mkvmerge v35.0.0 (‘All The Love In The World’) 32-bit
Writing library : libebml v1.3.9 + libmatroska v1.5.2

Video
ID : 1
Format : HEVC
Format/Info : High Efficiency Video Coding
Format profile : [email protected]@Main
Codec ID : V_MPEGH/ISO/HEVC
Duration : 42 min 47 s
Bit rate : 552 kb/s
Width : 1 280 pixels
Height : 640 pixels
Display aspect ratio : 2.000
Frame rate mode : Constant
Frame rate : 23.976 (24000/1001) FPS
Color space : YUV
Chroma subsampling : 4:2:0
Bit depth : 8 bits
Bits/(Pixel*Frame) : 0.028
Stream size : 169 MiB (89%)
Default : Yes
Forced : No

Audio
ID : 2
Format : AAC LC SBR
Commercial name : HE-AAC
Format settings : Explicit
Codec ID : A_AAC-2
Duration : 42 min 47 s
Bit rate : 63.4 kb/s
Channel(s) : 2 channels
Channel layout : L R
Sampling rate : 48.0 kHz
Frame rate : 23.438 FPS (2048 SPF)
Compression mode : Lossy
Delay relative to video : 23 ms
Stream size : 19.4 MiB (10%)
Language : English
Default : Yes
Forced : No

Text
ID : 3
Format : UTF-8
Codec ID : S_TEXT/UTF8
Codec ID/Info : UTF-8 Plain Text
Duration : 42 min 44 s
Bit rate : 105 b/s
Count of elements : 1079
Stream size : 33.0 KiB (0%)
Language : English
Default : Yes
Forced : No

Download

Direct download files get automatically deleted after a month or so. Posted on : 08/08/2019

[collapse]
Media Info and Download Links | S01E03

General
Format : Matroska
Format version : Version 4
File size : 179 MiB
Duration : 42 min 29 s
Overall bit rate : 589 kb/s
Movie name : Pearson.S01E03.The.Union.Leader.720p.WEBRip.2CH.x265.HEVC
Encoded date : UTC 2019-08-01 13:59:45
Writing application : mkvmerge v35.0.0 (‘All The Love In The World’) 32-bit
Writing library : libebml v1.3.9 + libmatroska v1.5.2

Video
ID : 1
Format : HEVC
Format/Info : High Efficiency Video Coding
Format profile : [email protected]@Main
Codec ID : V_MPEGH/ISO/HEVC
Duration : 42 min 29 s
Bit rate : 525 kb/s
Width : 1 280 pixels
Height : 640 pixels
Display aspect ratio : 2.000
Frame rate mode : Constant
Frame rate : 23.976 (24000/1001) FPS
Color space : YUV
Chroma subsampling : 4:2:0
Bit depth : 8 bits
Bits/(Pixel*Frame) : 0.027
Stream size : 159 MiB (89%)
Default : Yes
Forced : No

Audio
ID : 2
Format : AAC LC SBR
Commercial name : HE-AAC
Format settings : Explicit
Codec ID : A_AAC-2
Duration : 42 min 29 s
Bit rate : 62.8 kb/s
Channel(s) : 2 channels
Channel layout : L R
Sampling rate : 48.0 kHz
Frame rate : 23.438 FPS (2048 SPF)
Compression mode : Lossy
Delay relative to video : 23 ms
Stream size : 19.1 MiB (11%)
Language : English
Default : Yes
Forced : No

Text
ID : 3
Format : UTF-8
Codec ID : S_TEXT/UTF8
Codec ID/Info : UTF-8 Plain Text
Duration : 42 min 26 s
Bit rate : 105 b/s
Count of elements : 1019
Stream size : 32.7 KiB (0%)
Language : English
Default : Yes
Forced : No

Download

Direct download files get automatically deleted after a month or so. Posted on : 08/01/2019

[collapse]
Media Info and Download Links | S01E02

General
Format : Matroska
Format version : Version 4
File size : 177 MiB
Duration : 41 min 27 s
Overall bit rate : 598 kb/s
Movie name : Pearson.S01E02.The.Superintendent.720p.WEBRip.2CH.x265.HEVC
Encoded date : UTC 2019-07-25 20:31:00
Writing application : mkvmerge v35.0.0 (‘All The Love In The World’) 32-bit
Writing library : libebml v1.3.9 + libmatroska v1.5.2

Video
ID : 1
Format : HEVC
Format/Info : High Efficiency Video Coding
Format profile : [email protected]@Main
Codec ID : V_MPEGH/ISO/HEVC
Duration : 41 min 27 s
Bit rate : 534 kb/s
Width : 1 280 pixels
Height : 640 pixels
Display aspect ratio : 2.000
Frame rate mode : Constant
Frame rate : 23.976 (24000/1001) FPS
Color space : YUV
Chroma subsampling : 4:2:0
Bit depth : 8 bits
Bits/(Pixel*Frame) : 0.027
Stream size : 158 MiB (89%)
Default : Yes
Forced : No

Audio
ID : 2
Format : AAC LC SBR
Commercial name : HE-AAC
Format settings : Explicit
Codec ID : A_AAC-2
Duration : 41 min 27 s
Bit rate : 61.9 kb/s
Channel(s) : 2 channels
Channel layout : L R
Sampling rate : 48.0 kHz
Frame rate : 23.438 FPS (2048 SPF)
Compression mode : Lossy
Delay relative to video : 23 ms
Stream size : 18.3 MiB (10%)
Language : English
Default : Yes
Forced : No

Text
ID : 3
Format : UTF-8
Codec ID : S_TEXT/UTF8
Codec ID/Info : UTF-8 Plain Text
Duration : 41 min 24 s
Bit rate : 108 b/s
Count of elements : 992
Stream size : 32.9 KiB (0%)
Language : English
Default : Yes
Forced : No

Download

Direct download files get automatically deleted after a month or so. Posted on : 07/25/2019

[collapse]
Media Info and Download Links | S01E01

General
Format : Matroska
Format version : Version 4
File size : 189 MiB
Duration : 44 min 28 s
Overall bit rate : 595 kb/s
Movie name : Pearson.S01E01.The.Alderman.720p.WEBRip.2CH.x265.HEVC
Encoded date : UTC 2019-07-21 11:23:03
Writing application : mkvmerge v35.0.0 (‘All The Love In The World’) 32-bit
Writing library : libebml v1.3.9 + libmatroska v1.5.2

Video
ID : 1
Format : HEVC
Format/Info : High Efficiency Video Coding
Format profile : [email protected]@Main
Codec ID : V_MPEGH/ISO/HEVC
Duration : 44 min 28 s
Bit rate : 530 kb/s
Width : 1 280 pixels
Height : 640 pixels
Display aspect ratio : 2.000
Frame rate mode : Constant
Frame rate : 23.976 (24000/1001) FPS
Color space : YUV
Chroma subsampling : 4:2:0
Bit depth : 8 bits
Bits/(Pixel*Frame) : 0.027
Stream size : 168 MiB (89%)
Default : Yes
Forced : No

Audio
ID : 2
Format : AAC LC SBR
Commercial name : HE-AAC
Format settings : Explicit
Codec ID : A_AAC-2
Duration : 44 min 28 s
Bit rate : 63.7 kb/s
Channel(s) : 2 channels
Channel layout : L R
Sampling rate : 48.0 kHz
Frame rate : 23.438 FPS (2048 SPF)
Compression mode : Lossy
Delay relative to video : 23 ms
Stream size : 20.3 MiB (11%)
Language : English
Default : Yes
Forced : No

Text
ID : 3
Format : UTF-8
Codec ID : S_TEXT/UTF8
Codec ID/Info : UTF-8 Plain Text
Duration : 44 min 19 s
Bit rate : 107 b/s
Count of elements : 1087
Stream size : 35.0 KiB (0%)
Language : English
Default : Yes
Forced : No

Download

Direct download files get automatically deleted after a month or so. Posted on : 07/21/2019

[collapse]

You may also like...

error: nah :p~