Preacher

TV-MA | 1h | Adventure, Drama, Fantasy | TV Series (2016– )

After a supernatural event at his church, a preacher enlists the help of a vampire to find God.

Watch trailer

Media Info and Download Links | S04E10

General
Format : Matroska
Format version : Version 4
File size : 265 MiB
Duration : 54 min 58 s
Overall bit rate : 675 kb/s
Movie name : Preacher.S04E10.End.of.the.World.720p.WEBRip.2CH.x265.HEVC
Encoded date : UTC 2019-09-30 10:23:19
Writing application : mkvmerge v37.0.0 (‘Leave It’) 32-bit
Writing library : libebml v1.3.9 + libmatroska v1.5.2

Video
ID : 1
Format : HEVC
Format/Info : High Efficiency Video Coding
Format profile : [email protected]@Main
Codec ID : V_MPEGH/ISO/HEVC
Duration : 54 min 58 s
Bit rate : 603 kb/s
Width : 1 280 pixels
Height : 720 pixels
Display aspect ratio : 16:9
Frame rate mode : Constant
Frame rate : 23.976 (24000/1001) FPS
Color space : YUV
Chroma subsampling : 4:2:0
Bit depth : 8 bits
Bits/(Pixel*Frame) : 0.027
Stream size : 237 MiB (89%)
Default : Yes
Forced : No
Color range : Limited
Color primaries : BT.709
Transfer characteristics : BT.709
Matrix coefficients : BT.709

Audio
ID : 2
Format : AAC LC SBR
Commercial name : HE-AAC
Format settings : Explicit
Codec ID : A_AAC-2
Duration : 54 min 58 s
Bit rate : 66.2 kb/s
Channel(s) : 2 channels
Channel layout : L R
Sampling rate : 48.0 kHz
Frame rate : 23.438 FPS (2048 SPF)
Compression mode : Lossy
Delay relative to video : 23 ms
Stream size : 26.4 MiB (10%)
Language : English
Default : Yes
Forced : No

Text #1
ID : 3
Format : UTF-8
Codec ID : S_TEXT/UTF8
Codec ID/Info : UTF-8 Plain Text
Duration : 19 min 13 s
Bit rate : 6 b/s
Count of elements : 49
Stream size : 897 Bytes (0%)
Title : Forced
Language : English
Default : Yes
Forced : Yes

Text #2
ID : 4
Format : UTF-8
Codec ID : S_TEXT/UTF8
Codec ID/Info : UTF-8 Plain Text
Duration : 54 min 47 s
Bit rate : 45 b/s
Count of elements : 698
Stream size : 18.1 KiB (0%)
Language : English
Default : No
Forced : No

Text #3
ID : 5
Format : UTF-8
Codec ID : S_TEXT/UTF8
Codec ID/Info : UTF-8 Plain Text
Duration : 54 min 51 s
Bit rate : 49 b/s
Count of elements : 804
Stream size : 20.0 KiB (0%)
Title : SDH
Language : English
Default : No
Forced : No

Text #4
ID : 6
Format : UTF-8
Codec ID : S_TEXT/UTF8
Codec ID/Info : UTF-8 Plain Text
Duration : 54 min 48 s
Bit rate : 67 b/s
Count of elements : 607
Stream size : 27.3 KiB (0%)
Language : Arabic
Default : No
Forced : No

Text #5
ID : 7
Format : UTF-8
Codec ID : S_TEXT/UTF8
Codec ID/Info : UTF-8 Plain Text
Duration : 54 min 48 s
Bit rate : 115 b/s
Count of elements : 612
Stream size : 46.5 KiB (0%)
Language : Bengali
Default : No
Forced : No

Text #6
ID : 8
Format : UTF-8
Codec ID : S_TEXT/UTF8
Codec ID/Info : UTF-8 Plain Text
Duration : 54 min 48 s
Bit rate : 45 b/s
Count of elements : 608
Stream size : 18.1 KiB (0%)
Language : German
Default : No
Forced : No

Text #7
ID : 9
Format : UTF-8
Codec ID : S_TEXT/UTF8
Codec ID/Info : UTF-8 Plain Text
Duration : 54 min 48 s
Bit rate : 40 b/s
Count of elements : 612
Stream size : 16.4 KiB (0%)
Title : Latinoamérica
Language : Spanish
Default : No
Forced : No

Text #8
ID : 10
Format : UTF-8
Codec ID : S_TEXT/UTF8
Codec ID/Info : UTF-8 Plain Text
Duration : 54 min 48 s
Bit rate : 42 b/s
Count of elements : 611
Stream size : 16.9 KiB (0%)
Title : España
Language : Spanish
Default : No
Forced : No

Text #9
ID : 11
Format : UTF-8
Codec ID : S_TEXT/UTF8
Codec ID/Info : UTF-8 Plain Text
Duration : 54 min 48 s
Bit rate : 46 b/s
Count of elements : 613
Stream size : 18.6 KiB (0%)
Language : French
Default : No
Forced : No

Text #10
ID : 12
Format : UTF-8
Codec ID : S_TEXT/UTF8
Codec ID/Info : UTF-8 Plain Text
Duration : 54 min 48 s
Bit rate : 115 b/s
Count of elements : 617
Stream size : 46.6 KiB (0%)
Language : Hindi
Default : No
Forced : No

Text #11
ID : 13
Format : UTF-8
Codec ID : S_TEXT/UTF8
Codec ID/Info : UTF-8 Plain Text
Duration : 54 min 48 s
Bit rate : 40 b/s
Count of elements : 614
Stream size : 16.2 KiB (0%)
Language : Indonesian
Default : No
Forced : No

Text #12
ID : 14
Format : UTF-8
Codec ID : S_TEXT/UTF8
Codec ID/Info : UTF-8 Plain Text
Duration : 54 min 48 s
Bit rate : 42 b/s
Count of elements : 599
Stream size : 17.0 KiB (0%)
Language : Italian
Default : No
Forced : No

Text #13
ID : 15
Format : UTF-8
Codec ID : S_TEXT/UTF8
Codec ID/Info : UTF-8 Plain Text
Duration : 54 min 52 s
Bit rate : 40 b/s
Count of elements : 651
Stream size : 16.2 KiB (0%)
Language : Japanese
Default : No
Forced : No

Text #14
ID : 16
Format : UTF-8
Codec ID : S_TEXT/UTF8
Codec ID/Info : UTF-8 Plain Text
Duration : 54 min 43 s
Bit rate : 45 b/s
Count of elements : 617
Stream size : 18.4 KiB (0%)
Language : Korean
Default : No
Forced : No

Text #15
ID : 17
Format : UTF-8
Codec ID : S_TEXT/UTF8
Codec ID/Info : UTF-8 Plain Text
Duration : 54 min 48 s
Bit rate : 104 b/s
Count of elements : 616
Stream size : 41.8 KiB (0%)
Language : Marathi
Default : No
Forced : No

Text #16
ID : 18
Format : UTF-8
Codec ID : S_TEXT/UTF8
Codec ID/Info : UTF-8 Plain Text
Duration : 53 min 31 s
Bit rate : 42 b/s
Count of elements : 608
Stream size : 16.6 KiB (0%)
Language : Dutch
Default : No
Forced : No

Text #17
ID : 19
Format : UTF-8
Codec ID : S_TEXT/UTF8
Codec ID/Info : UTF-8 Plain Text
Duration : 54 min 48 s
Bit rate : 40 b/s
Count of elements : 612
Stream size : 16.1 KiB (0%)
Language : Polish
Default : No
Forced : No

Text #18
ID : 20
Format : UTF-8
Codec ID : S_TEXT/UTF8
Codec ID/Info : UTF-8 Plain Text
Duration : 54 min 48 s
Bit rate : 43 b/s
Count of elements : 613
Stream size : 17.3 KiB (0%)
Title : Brasil
Language : Portuguese
Default : No
Forced : No

Text #19
ID : 21
Format : UTF-8
Codec ID : S_TEXT/UTF8
Codec ID/Info : UTF-8 Plain Text
Duration : 54 min 46 s
Bit rate : 42 b/s
Count of elements : 612
Stream size : 17.1 KiB (0%)
Title : Portugal
Language : Portuguese
Default : No
Forced : No

Text #20
ID : 22
Format : UTF-8
Codec ID : S_TEXT/UTF8
Codec ID/Info : UTF-8 Plain Text
Duration : 54 min 48 s
Bit rate : 72 b/s
Count of elements : 614
Stream size : 29.0 KiB (0%)
Language : Russian
Default : No
Forced : No

Text #21
ID : 23
Format : UTF-8
Codec ID : S_TEXT/UTF8
Codec ID/Info : UTF-8 Plain Text
Duration : 54 min 48 s
Bit rate : 112 b/s
Count of elements : 606
Stream size : 45.0 KiB (0%)
Language : Telugu
Default : No
Forced : No

Text #22
ID : 24
Format : UTF-8
Codec ID : S_TEXT/UTF8
Codec ID/Info : UTF-8 Plain Text
Duration : 54 min 48 s
Bit rate : 39 b/s
Count of elements : 614
Stream size : 16.0 KiB (0%)
Language : Turkish
Default : No
Forced : No

Text #23
ID : 25
Format : UTF-8
Codec ID : S_TEXT/UTF8
Codec ID/Info : UTF-8 Plain Text
Duration : 54 min 46 s
Bit rate : 37 b/s
Count of elements : 616
Stream size : 15.1 KiB (0%)
Title : 中文(简体)
Language : Chinese
Default : No
Forced : No

Text #24
ID : 26
Format : UTF-8
Codec ID : S_TEXT/UTF8
Codec ID/Info : UTF-8 Plain Text
Duration : 54 min 46 s
Bit rate : 38 b/s
Count of elements : 616
Stream size : 15.4 KiB (0%)
Title : 中文(繁體)
Language : Chinese
Default : No
Forced : No

Download

Direct download files get automatically deleted after a month or so. Posted on : 09/30/2019

[collapse]
Media Info and Download Links | S04E09

General
Format : Matroska
Format version : Version 4
File size : 202 MiB
Duration : 45 min 9 s
Overall bit rate : 626 kb/s
Movie name : Preacher.S04E09.Overture.720p.WEBRip.2CH.x265.HEVC
Encoded date : UTC 2019-09-23 10:42:22
Writing application : mkvmerge v37.0.0 (‘Leave It’) 32-bit
Writing library : libebml v1.3.9 + libmatroska v1.5.2

Video
ID : 1
Format : HEVC
Format/Info : High Efficiency Video Coding
Format profile : [email protected]@Main
Codec ID : V_MPEGH/ISO/HEVC
Duration : 45 min 9 s
Bit rate : 553 kb/s
Width : 1 280 pixels
Height : 720 pixels
Display aspect ratio : 16:9
Frame rate mode : Constant
Frame rate : 23.976 (24000/1001) FPS
Color space : YUV
Chroma subsampling : 4:2:0
Bit depth : 8 bits
Bits/(Pixel*Frame) : 0.025
Stream size : 179 MiB (88%)
Default : Yes
Forced : No
Color range : Limited
Color primaries : BT.709
Transfer characteristics : BT.709
Matrix coefficients : BT.709

Audio
ID : 2
Format : AAC LC SBR
Commercial name : HE-AAC
Format settings : Explicit
Codec ID : A_AAC-2
Duration : 45 min 9 s
Bit rate : 68.3 kb/s
Channel(s) : 2 channels
Channel layout : L R
Sampling rate : 48.0 kHz
Frame rate : 23.438 FPS (2048 SPF)
Compression mode : Lossy
Delay relative to video : 23 ms
Stream size : 22.1 MiB (11%)
Language : English
Default : Yes
Forced : No

Text #1
ID : 3
Format : UTF-8
Codec ID : S_TEXT/UTF8
Codec ID/Info : UTF-8 Plain Text
Duration : 43 min 59 s
Bit rate : 42 b/s
Count of elements : 537
Stream size : 13.7 KiB (0%)
Language : English
Default : Yes
Forced : No

Text #2
ID : 4
Format : UTF-8
Codec ID : S_TEXT/UTF8
Codec ID/Info : UTF-8 Plain Text
Duration : 1 min 25 s
Bit rate : 32 b/s
Count of elements : 16
Stream size : 348 Bytes (0%)
Title : Forced
Language : English
Default : No
Forced : Yes

Text #3
ID : 5
Format : UTF-8
Codec ID : S_TEXT/UTF8
Codec ID/Info : UTF-8 Plain Text
Duration : 44 min 26 s
Bit rate : 46 b/s
Count of elements : 616
Stream size : 15.1 KiB (0%)
Title : SDH
Language : English
Default : No
Forced : No

Text #4
ID : 6
Format : UTF-8
Codec ID : S_TEXT/UTF8
Codec ID/Info : UTF-8 Plain Text
Duration : 44 min 47 s
Bit rate : 63 b/s
Count of elements : 489
Stream size : 20.9 KiB (0%)
Language : Arabic
Default : No
Forced : No

Text #5
ID : 7
Format : UTF-8
Codec ID : S_TEXT/UTF8
Codec ID/Info : UTF-8 Plain Text
Duration : 44 min 47 s
Bit rate : 109 b/s
Count of elements : 499
Stream size : 35.9 KiB (0%)
Language : Bengali
Default : No
Forced : No

Text #6
ID : 8
Format : UTF-8
Codec ID : S_TEXT/UTF8
Codec ID/Info : UTF-8 Plain Text
Duration : 44 min 47 s
Bit rate : 43 b/s
Count of elements : 497
Stream size : 14.4 KiB (0%)
Language : German
Default : No
Forced : No

Text #7
ID : 9
Format : UTF-8
Codec ID : S_TEXT/UTF8
Codec ID/Info : UTF-8 Plain Text
Duration : 44 min 47 s
Bit rate : 39 b/s
Count of elements : 494
Stream size : 13.0 KiB (0%)
Title : Latinoamérica
Language : Spanish
Default : No
Forced : No

Text #8
ID : 10
Format : UTF-8
Codec ID : S_TEXT/UTF8
Codec ID/Info : UTF-8 Plain Text
Duration : 44 min 47 s
Bit rate : 40 b/s
Count of elements : 497
Stream size : 13.2 KiB (0%)
Title : España
Language : Spanish
Default : No
Forced : No

Text #9
ID : 11
Format : UTF-8
Codec ID : S_TEXT/UTF8
Codec ID/Info : UTF-8 Plain Text
Duration : 44 min 47 s
Bit rate : 43 b/s
Count of elements : 493
Stream size : 14.1 KiB (0%)
Language : French
Default : No
Forced : No

Text #10
ID : 12
Format : UTF-8
Codec ID : S_TEXT/UTF8
Codec ID/Info : UTF-8 Plain Text
Duration : 44 min 45 s
Bit rate : 100 b/s
Count of elements : 498
Stream size : 33.1 KiB (0%)
Language : Hindi
Default : No
Forced : No

Text #11
ID : 13
Format : UTF-8
Codec ID : S_TEXT/UTF8
Codec ID/Info : UTF-8 Plain Text
Duration : 44 min 47 s
Bit rate : 36 b/s
Count of elements : 498
Stream size : 12.1 KiB (0%)
Language : Indonesian
Default : No
Forced : No

Text #12
ID : 14
Format : UTF-8
Codec ID : S_TEXT/UTF8
Codec ID/Info : UTF-8 Plain Text
Duration : 44 min 45 s
Bit rate : 40 b/s
Count of elements : 492
Stream size : 13.4 KiB (0%)
Language : Italian
Default : No
Forced : No

Text #13
ID : 15
Format : UTF-8
Codec ID : S_TEXT/UTF8
Codec ID/Info : UTF-8 Plain Text
Duration : 44 min 51 s
Bit rate : 39 b/s
Count of elements : 508
Stream size : 12.9 KiB (0%)
Language : Japanese
Default : No
Forced : No

Text #14
ID : 16
Format : UTF-8
Codec ID : S_TEXT/UTF8
Codec ID/Info : UTF-8 Plain Text
Duration : 44 min 47 s
Bit rate : 45 b/s
Count of elements : 499
Stream size : 14.9 KiB (0%)
Language : Korean
Default : No
Forced : No

Text #15
ID : 17
Format : UTF-8
Codec ID : S_TEXT/UTF8
Codec ID/Info : UTF-8 Plain Text
Duration : 44 min 47 s
Bit rate : 98 b/s
Count of elements : 498
Stream size : 32.5 KiB (0%)
Language : Marathi
Default : No
Forced : No

Text #16
ID : 18
Format : UTF-8
Codec ID : S_TEXT/UTF8
Codec ID/Info : UTF-8 Plain Text
Duration : 44 min 47 s
Bit rate : 37 b/s
Count of elements : 487
Stream size : 12.4 KiB (0%)
Language : Dutch
Default : No
Forced : No

Text #17
ID : 19
Format : UTF-8
Codec ID : S_TEXT/UTF8
Codec ID/Info : UTF-8 Plain Text
Duration : 44 min 47 s
Bit rate : 36 b/s
Count of elements : 490
Stream size : 11.8 KiB (0%)
Language : Polish
Default : No
Forced : No

Text #18
ID : 20
Format : UTF-8
Codec ID : S_TEXT/UTF8
Codec ID/Info : UTF-8 Plain Text
Duration : 44 min 47 s
Bit rate : 40 b/s
Count of elements : 493
Stream size : 13.3 KiB (0%)
Title : Brasil
Language : Portuguese
Default : No
Forced : No

Text #19
ID : 21
Format : UTF-8
Codec ID : S_TEXT/UTF8
Codec ID/Info : UTF-8 Plain Text
Duration : 44 min 47 s
Bit rate : 40 b/s
Count of elements : 490
Stream size : 13.4 KiB (0%)
Title : Portugal
Language : Portuguese
Default : No
Forced : No

Text #20
ID : 22
Format : UTF-8
Codec ID : S_TEXT/UTF8
Codec ID/Info : UTF-8 Plain Text
Duration : 44 min 47 s
Bit rate : 67 b/s
Count of elements : 499
Stream size : 22.1 KiB (0%)
Language : Russian
Default : No
Forced : No

Text #21
ID : 23
Format : UTF-8
Codec ID : S_TEXT/UTF8
Codec ID/Info : UTF-8 Plain Text
Duration : 44 min 47 s
Bit rate : 112 b/s
Count of elements : 498
Stream size : 36.9 KiB (0%)
Language : Telugu
Default : No
Forced : No

Text #22
ID : 24
Format : UTF-8
Codec ID : S_TEXT/UTF8
Codec ID/Info : UTF-8 Plain Text
Duration : 44 min 47 s
Bit rate : 40 b/s
Count of elements : 497
Stream size : 13.2 KiB (0%)
Language : Turkish
Default : No
Forced : No

Text #23
ID : 25
Format : UTF-8
Codec ID : S_TEXT/UTF8
Codec ID/Info : UTF-8 Plain Text
Duration : 44 min 47 s
Bit rate : 36 b/s
Count of elements : 498
Stream size : 11.9 KiB (0%)
Title : 中文(简体)
Language : Chinese
Default : No
Forced : No

Text #24
ID : 26
Format : UTF-8
Codec ID : S_TEXT/UTF8
Codec ID/Info : UTF-8 Plain Text
Duration : 44 min 45 s
Bit rate : 36 b/s
Count of elements : 498
Stream size : 11.9 KiB (0%)
Title : 中文(繁體)
Language : Chinese
Default : No
Forced : No

Download

Direct download files get automatically deleted after a month or so. Posted on : 09/23/2019

[collapse]
Media Info and Download Links | S04E08

General
Format : Matroska
Format version : Version 4
File size : 206 MiB
Duration : 42 min 3 s
Overall bit rate : 683 kb/s
Movie name : Preacher.S04E08.Fear.of.the.Lord.720p.WEBRip.2CH.x265.HEVC
Encoded date : UTC 2019-09-16 10:47:01
Writing application : mkvmerge v37.0.0 (‘Leave It’) 32-bit
Writing library : libebml v1.3.9 + libmatroska v1.5.2

Video
ID : 1
Format : HEVC
Format/Info : High Efficiency Video Coding
Format profile : [email protected]@Main
Codec ID : V_MPEGH/ISO/HEVC
Duration : 41 min 44 s
Bit rate : 616 kb/s
Width : 1 280 pixels
Height : 720 pixels
Display aspect ratio : 16:9
Frame rate mode : Constant
Frame rate : 23.976 (24000/1001) FPS
Color space : YUV
Chroma subsampling : 4:2:0
Bit depth : 8 bits
Bits/(Pixel*Frame) : 0.028
Stream size : 184 MiB (90%)
Default : Yes
Forced : No
Color range : Limited
Color primaries : BT.709
Transfer characteristics : BT.709
Matrix coefficients : BT.709

Audio
ID : 2
Format : AAC LC SBR
Commercial name : HE-AAC
Format settings : Explicit
Codec ID : A_AAC-2
Duration : 41 min 44 s
Bit rate : 68.0 kb/s
Channel(s) : 2 channels
Channel layout : L R
Sampling rate : 48.0 kHz
Frame rate : 23.438 FPS (2048 SPF)
Compression mode : Lossy
Delay relative to video : 23 ms
Stream size : 20.3 MiB (10%)
Language : English
Default : Yes
Forced : No

Text #1
ID : 3
Format : UTF-8
Codec ID : S_TEXT/UTF8
Codec ID/Info : UTF-8 Plain Text
Duration : 40 min 44 s
Bit rate : 39 b/s
Count of elements : 425
Stream size : 11.7 KiB (0%)
Language : English
Default : Yes
Forced : No

Text #2
ID : 4
Format : UTF-8
Codec ID : S_TEXT/UTF8
Codec ID/Info : UTF-8 Plain Text
Duration : 40 min 32 s
Bit rate : 0 b/s
Count of elements : 8
Stream size : 106 Bytes (0%)
Title : Forced
Language : English
Default : No
Forced : Yes

Text #3
ID : 5
Format : UTF-8
Codec ID : S_TEXT/UTF8
Codec ID/Info : UTF-8 Plain Text
Duration : 41 min 13 s
Bit rate : 44 b/s
Count of elements : 520
Stream size : 13.3 KiB (0%)
Title : SDH
Language : English
Default : No
Forced : No

Text #4
ID : 6
Format : UTF-8
Codec ID : S_TEXT/UTF8
Codec ID/Info : UTF-8 Plain Text
Duration : 41 min 22 s
Bit rate : 56 b/s
Count of elements : 378
Stream size : 17.1 KiB (0%)
Language : Arabic
Default : No
Forced : No

Text #5
ID : 7
Format : UTF-8
Codec ID : S_TEXT/UTF8
Codec ID/Info : UTF-8 Plain Text
Duration : 41 min 22 s
Bit rate : 96 b/s
Count of elements : 372
Stream size : 29.1 KiB (0%)
Language : Bengali
Default : No
Forced : No

Text #6
ID : 8
Format : UTF-8
Codec ID : S_TEXT/UTF8
Codec ID/Info : UTF-8 Plain Text
Duration : 41 min 22 s
Bit rate : 38 b/s
Count of elements : 377
Stream size : 11.8 KiB (0%)
Language : German
Default : No
Forced : No

Text #7
ID : 9
Format : UTF-8
Codec ID : S_TEXT/UTF8
Codec ID/Info : UTF-8 Plain Text
Duration : 41 min 22 s
Bit rate : 34 b/s
Count of elements : 378
Stream size : 10.5 KiB (0%)
Title : Latinoamérica
Language : Spanish
Default : No
Forced : No

Text #8
ID : 10
Format : UTF-8
Codec ID : S_TEXT/UTF8
Codec ID/Info : UTF-8 Plain Text
Duration : 41 min 22 s
Bit rate : 37 b/s
Count of elements : 377
Stream size : 11.2 KiB (0%)
Title : España
Language : Spanish
Default : No
Forced : No

Text #9
ID : 11
Format : UTF-8
Codec ID : S_TEXT/UTF8
Codec ID/Info : UTF-8 Plain Text
Duration : 41 min 22 s
Bit rate : 37 b/s
Count of elements : 368
Stream size : 11.5 KiB (0%)
Language : French
Default : No
Forced : No

Text #10
ID : 12
Format : UTF-8
Codec ID : S_TEXT/UTF8
Codec ID/Info : UTF-8 Plain Text
Duration : 41 min 22 s
Bit rate : 92 b/s
Count of elements : 378
Stream size : 28.0 KiB (0%)
Language : Hindi
Default : No
Forced : No

Text #11
ID : 13
Format : UTF-8
Codec ID : S_TEXT/UTF8
Codec ID/Info : UTF-8 Plain Text
Duration : 41 min 22 s
Bit rate : 35 b/s
Count of elements : 378
Stream size : 10.6 KiB (0%)
Language : Indonesian
Default : No
Forced : No

Text #12
ID : 14
Format : UTF-8
Codec ID : S_TEXT/UTF8
Codec ID/Info : UTF-8 Plain Text
Duration : 41 min 22 s
Bit rate : 36 b/s
Count of elements : 372
Stream size : 11.0 KiB (0%)
Language : Italian
Default : No
Forced : No

Text #13
ID : 15
Format : UTF-8
Codec ID : S_TEXT/UTF8
Codec ID/Info : UTF-8 Plain Text
Duration : 41 min 29 s
Bit rate : 34 b/s
Count of elements : 391
Stream size : 10.5 KiB (0%)
Language : Japanese
Default : No
Forced : No

Text #14
ID : 16
Format : UTF-8
Codec ID : S_TEXT/UTF8
Codec ID/Info : UTF-8 Plain Text
Duration : 41 min 22 s
Bit rate : 38 b/s
Count of elements : 379
Stream size : 11.6 KiB (0%)
Language : Korean
Default : No
Forced : No

Text #15
ID : 17
Format : UTF-8
Codec ID : S_TEXT/UTF8
Codec ID/Info : UTF-8 Plain Text
Duration : 41 min 22 s
Bit rate : 88 b/s
Count of elements : 377
Stream size : 26.8 KiB (0%)
Language : Marathi
Default : No
Forced : No

Text #16
ID : 18
Format : UTF-8
Codec ID : S_TEXT/UTF8
Codec ID/Info : UTF-8 Plain Text
Duration : 41 min 22 s
Bit rate : 35 b/s
Count of elements : 377
Stream size : 10.6 KiB (0%)
Language : Dutch
Default : No
Forced : No

Text #17
ID : 19
Format : UTF-8
Codec ID : S_TEXT/UTF8
Codec ID/Info : UTF-8 Plain Text
Duration : 41 min 22 s
Bit rate : 32 b/s
Count of elements : 376
Stream size : 9.83 KiB (0%)
Language : Polish
Default : No
Forced : No

Text #18
ID : 20
Format : UTF-8
Codec ID : S_TEXT/UTF8
Codec ID/Info : UTF-8 Plain Text
Duration : 41 min 22 s
Bit rate : 36 b/s
Count of elements : 378
Stream size : 11.0 KiB (0%)
Title : Brasil
Language : Portuguese
Default : No
Forced : No

Text #19
ID : 21
Format : UTF-8
Codec ID : S_TEXT/UTF8
Codec ID/Info : UTF-8 Plain Text
Duration : 41 min 22 s
Bit rate : 34 b/s
Count of elements : 376
Stream size : 10.5 KiB (0%)
Title : Portugal
Language : Portuguese
Default : No
Forced : No

Text #20
ID : 22
Format : UTF-8
Codec ID : S_TEXT/UTF8
Codec ID/Info : UTF-8 Plain Text
Duration : 41 min 22 s
Bit rate : 62 b/s
Count of elements : 374
Stream size : 19.0 KiB (0%)
Language : Russian
Default : No
Forced : No

Text #21
ID : 23
Format : UTF-8
Codec ID : S_TEXT/UTF8
Codec ID/Info : UTF-8 Plain Text
Duration : 41 min 22 s
Bit rate : 96 b/s
Count of elements : 377
Stream size : 29.2 KiB (0%)
Language : Telugu
Default : No
Forced : No

Text #22
ID : 24
Format : UTF-8
Codec ID : S_TEXT/UTF8
Codec ID/Info : UTF-8 Plain Text
Duration : 41 min 22 s
Bit rate : 35 b/s
Count of elements : 377
Stream size : 10.8 KiB (0%)
Language : Turkish
Default : No
Forced : No

Text #23
ID : 25
Format : UTF-8
Codec ID : S_TEXT/UTF8
Codec ID/Info : UTF-8 Plain Text
Duration : 41 min 22 s
Bit rate : 30 b/s
Count of elements : 377
Stream size : 9.33 KiB (0%)
Title : 中文(简体)
Language : Chinese
Default : No
Forced : No

Text #24
ID : 26
Format : UTF-8
Codec ID : S_TEXT/UTF8
Codec ID/Info : UTF-8 Plain Text
Duration : 41 min 22 s
Bit rate : 32 b/s
Count of elements : 377
Stream size : 9.85 KiB (0%)
Title : 中文(繁體)
Language : Chinese
Default : No
Forced : No

Download

Direct download files get automatically deleted after a month or so. Posted on : 09/16/2019

[collapse]
Media Info and Download Links | S04E07

General
Format : Matroska
Format version : Version 4
File size : 206 MiB
Duration : 40 min 45 s
Overall bit rate : 707 kb/s
Movie name : Preacher.S04E07.Messiahs.720p.WEBRip.2CH.x265.HEVC
Encoded date : UTC 2019-09-09 10:33:05
Writing application : mkvmerge v37.0.0 (‘Leave It’) 32-bit
Writing library : libebml v1.3.9 + libmatroska v1.5.2

Video
ID : 1
Format : HEVC
Format/Info : High Efficiency Video Coding
Format profile : [email protected]@Main
Codec ID : V_MPEGH/ISO/HEVC
Duration : 40 min 45 s
Bit rate : 635 kb/s
Width : 1 280 pixels
Height : 720 pixels
Display aspect ratio : 16:9
Frame rate mode : Constant
Frame rate : 23.976 (24000/1001) FPS
Color space : YUV
Chroma subsampling : 4:2:0
Bit depth : 8 bits
Bits/(Pixel*Frame) : 0.029
Stream size : 185 MiB (90%)
Default : Yes
Forced : No
Color range : Limited
Color primaries : BT.709
Transfer characteristics : BT.709
Matrix coefficients : BT.709

Audio
ID : 2
Format : AAC LC SBR
Commercial name : HE-AAC
Format settings : Explicit
Codec ID : A_AAC-2
Duration : 40 min 45 s
Bit rate : 67.6 kb/s
Channel(s) : 2 channels
Channel layout : L R
Sampling rate : 48.0 kHz
Frame rate : 23.438 FPS (2048 SPF)
Compression mode : Lossy
Delay relative to video : 23 ms
Stream size : 19.7 MiB (10%)
Language : English
Default : Yes
Forced : No

Text #1
ID : 3
Format : UTF-8
Codec ID : S_TEXT/UTF8
Codec ID/Info : UTF-8 Plain Text
Duration : 39 min 12 s
Bit rate : 44 b/s
Count of elements : 489
Stream size : 12.7 KiB (0%)
Language : English
Default : Yes
Forced : No

Text #2
ID : 4
Format : UTF-8
Codec ID : S_TEXT/UTF8
Codec ID/Info : UTF-8 Plain Text
Duration : 40 min 15 s
Bit rate : 50 b/s
Count of elements : 624
Stream size : 14.8 KiB (0%)
Title : SDH
Language : English
Default : No
Forced : No

Text #3
ID : 5
Format : UTF-8
Codec ID : S_TEXT/UTF8
Codec ID/Info : UTF-8 Plain Text
Duration : 39 min 43 s
Bit rate : 68 b/s
Count of elements : 402
Stream size : 20.0 KiB (0%)
Language : Arabic
Default : No
Forced : No

Text #4
ID : 6
Format : UTF-8
Codec ID : S_TEXT/UTF8
Codec ID/Info : UTF-8 Plain Text
Duration : 39 min 43 s
Bit rate : 94 b/s
Count of elements : 402
Stream size : 27.4 KiB (0%)
Language : Bengali
Default : No
Forced : No

Text #5
ID : 7
Format : UTF-8
Codec ID : S_TEXT/UTF8
Codec ID/Info : UTF-8 Plain Text
Duration : 39 min 43 s
Bit rate : 45 b/s
Count of elements : 391
Stream size : 13.3 KiB (0%)
Language : German
Default : No
Forced : No

Text #6
ID : 8
Format : UTF-8
Codec ID : S_TEXT/UTF8
Codec ID/Info : UTF-8 Plain Text
Duration : 39 min 43 s
Bit rate : 40 b/s
Count of elements : 397
Stream size : 11.7 KiB (0%)
Title : Latinoamérica
Language : Spanish
Default : No
Forced : No

Text #7
ID : 9
Format : UTF-8
Codec ID : S_TEXT/UTF8
Codec ID/Info : UTF-8 Plain Text
Duration : 39 min 43 s
Bit rate : 41 b/s
Count of elements : 396
Stream size : 12.0 KiB (0%)
Title : España
Language : Spanish
Default : No
Forced : No

Text #8
ID : 10
Format : UTF-8
Codec ID : S_TEXT/UTF8
Codec ID/Info : UTF-8 Plain Text
Duration : 39 min 43 s
Bit rate : 41 b/s
Count of elements : 395
Stream size : 12.2 KiB (0%)
Language : French
Default : No
Forced : No

Text #9
ID : 11
Format : UTF-8
Codec ID : S_TEXT/UTF8
Codec ID/Info : UTF-8 Plain Text
Duration : 39 min 43 s
Bit rate : 105 b/s
Count of elements : 402
Stream size : 30.7 KiB (0%)
Language : Hindi
Default : No
Forced : No

Text #10
ID : 12
Format : UTF-8
Codec ID : S_TEXT/UTF8
Codec ID/Info : UTF-8 Plain Text
Duration : 39 min 43 s
Bit rate : 40 b/s
Count of elements : 393
Stream size : 11.7 KiB (0%)
Language : Indonesian
Default : No
Forced : No

Text #11
ID : 13
Format : UTF-8
Codec ID : S_TEXT/UTF8
Codec ID/Info : UTF-8 Plain Text
Duration : 39 min 43 s
Bit rate : 41 b/s
Count of elements : 394
Stream size : 12.0 KiB (0%)
Language : Italian
Default : No
Forced : No

Text #12
ID : 14
Format : UTF-8
Codec ID : S_TEXT/UTF8
Codec ID/Info : UTF-8 Plain Text
Duration : 39 min 43 s
Bit rate : 36 b/s
Count of elements : 397
Stream size : 10.7 KiB (0%)
Language : Japanese
Default : No
Forced : No

Text #13
ID : 15
Format : UTF-8
Codec ID : S_TEXT/UTF8
Codec ID/Info : UTF-8 Plain Text
Duration : 39 min 43 s
Bit rate : 41 b/s
Count of elements : 403
Stream size : 12.2 KiB (0%)
Language : Korean
Default : No
Forced : No

Text #14
ID : 16
Format : UTF-8
Codec ID : S_TEXT/UTF8
Codec ID/Info : UTF-8 Plain Text
Duration : 39 min 43 s
Bit rate : 102 b/s
Count of elements : 402
Stream size : 29.8 KiB (0%)
Language : Marathi
Default : No
Forced : No

Text #15
ID : 17
Format : UTF-8
Codec ID : S_TEXT/UTF8
Codec ID/Info : UTF-8 Plain Text
Duration : 39 min 43 s
Bit rate : 38 b/s
Count of elements : 392
Stream size : 11.3 KiB (0%)
Language : Dutch
Default : No
Forced : No

Text #16
ID : 18
Format : UTF-8
Codec ID : S_TEXT/UTF8
Codec ID/Info : UTF-8 Plain Text
Duration : 39 min 43 s
Bit rate : 34 b/s
Count of elements : 398
Stream size : 10.2 KiB (0%)
Language : Polish
Default : No
Forced : No

Text #17
ID : 19
Format : UTF-8
Codec ID : S_TEXT/UTF8
Codec ID/Info : UTF-8 Plain Text
Duration : 39 min 43 s
Bit rate : 40 b/s
Count of elements : 396
Stream size : 11.8 KiB (0%)
Title : Brasil
Language : Portuguese
Default : No
Forced : No

Text #18
ID : 20
Format : UTF-8
Codec ID : S_TEXT/UTF8
Codec ID/Info : UTF-8 Plain Text
Duration : 39 min 43 s
Bit rate : 40 b/s
Count of elements : 397
Stream size : 11.7 KiB (0%)
Title : Portugal
Language : Portuguese
Default : No
Forced : No

Text #19
ID : 21
Format : UTF-8
Codec ID : S_TEXT/UTF8
Codec ID/Info : UTF-8 Plain Text
Duration : 39 min 43 s
Bit rate : 67 b/s
Count of elements : 403
Stream size : 19.6 KiB (0%)
Language : Russian
Default : No
Forced : No

Text #20
ID : 22
Format : UTF-8
Codec ID : S_TEXT/UTF8
Codec ID/Info : UTF-8 Plain Text
Duration : 39 min 43 s
Bit rate : 109 b/s
Count of elements : 402
Stream size : 31.9 KiB (0%)
Language : Telugu
Default : No
Forced : No

Text #21
ID : 23
Format : UTF-8
Codec ID : S_TEXT/UTF8
Codec ID/Info : UTF-8 Plain Text
Duration : 39 min 43 s
Bit rate : 41 b/s
Count of elements : 396
Stream size : 12.0 KiB (0%)
Language : Turkish
Default : No
Forced : No

Text #22
ID : 24
Format : UTF-8
Codec ID : S_TEXT/UTF8
Codec ID/Info : UTF-8 Plain Text
Duration : 39 min 43 s
Bit rate : 36 b/s
Count of elements : 402
Stream size : 10.5 KiB (0%)
Title : 中文(简体)
Language : Chinese
Default : No
Forced : No

Text #23
ID : 25
Format : UTF-8
Codec ID : S_TEXT/UTF8
Codec ID/Info : UTF-8 Plain Text
Duration : 39 min 43 s
Bit rate : 36 b/s
Count of elements : 402
Stream size : 10.6 KiB (0%)
Title : 中文(繁體)
Language : Chinese
Default : No
Forced : No

Download

Direct download files get automatically deleted after a month or so. Posted on : 09/09/2019

[collapse]
Media Info and Download Links | S04E06

General
Format : Matroska
Format version : Version 4
File size : 198 MiB
Duration : 40 min 16 s
Overall bit rate : 686 kb/s
Movie name : Preacher.S04E06.The.Lost.Apostle.720p.WEBRip.2CH.x265.HEVC
Encoded date : UTC 2019-09-02 10:33:01
Writing application : mkvmerge v37.0.0 (‘Leave It’) 32-bit
Writing library : libebml v1.3.9 + libmatroska v1.5.2

Video
ID : 1
Format : HEVC
Format/Info : High Efficiency Video Coding
Format profile : [email protected]@Main
Codec ID : V_MPEGH/ISO/HEVC
Duration : 40 min 16 s
Bit rate : 614 kb/s
Width : 1 280 pixels
Height : 720 pixels
Display aspect ratio : 16:9
Frame rate mode : Constant
Frame rate : 23.976 (24000/1001) FPS
Color space : YUV
Chroma subsampling : 4:2:0
Bit depth : 8 bits
Bits/(Pixel*Frame) : 0.028
Stream size : 177 MiB (90%)
Default : Yes
Forced : No
Color range : Limited
Color primaries : BT.709
Transfer characteristics : BT.709
Matrix coefficients : BT.709

Audio
ID : 2
Format : AAC LC SBR
Commercial name : HE-AAC
Format settings : Explicit
Codec ID : A_AAC-2
Duration : 40 min 16 s
Bit rate : 66.2 kb/s
Channel(s) : 2 channels
Channel layout : L R
Sampling rate : 48.0 kHz
Frame rate : 23.438 FPS (2048 SPF)
Compression mode : Lossy
Delay relative to video : 23 ms
Stream size : 19.3 MiB (10%)
Language : English
Default : Yes
Forced : No

Text #1
ID : 3
Format : UTF-8
Codec ID : S_TEXT/UTF8
Codec ID/Info : UTF-8 Plain Text
Duration : 38 min 23 s
Bit rate : 40 b/s
Count of elements : 401
Stream size : 11.3 KiB (0%)
Language : English
Default : Yes
Forced : No

Text #2
ID : 4
Format : UTF-8
Codec ID : S_TEXT/UTF8
Codec ID/Info : UTF-8 Plain Text
Duration : 59 s 476 ms
Bit rate : 16 b/s
Count of elements : 6
Stream size : 120 Bytes (0%)
Title : Forced
Language : English
Default : No
Forced : Yes

Text #3
ID : 5
Format : UTF-8
Codec ID : S_TEXT/UTF8
Codec ID/Info : UTF-8 Plain Text
Duration : 39 min 46 s
Bit rate : 43 b/s
Count of elements : 467
Stream size : 12.7 KiB (0%)
Title : SDH
Language : English
Default : No
Forced : No

Text #4
ID : 6
Format : UTF-8
Codec ID : S_TEXT/UTF8
Codec ID/Info : UTF-8 Plain Text
Duration : 40 min 1 s
Bit rate : 65 b/s
Count of elements : 402
Stream size : 19.2 KiB (0%)
Language : Arabic
Default : No
Forced : No

Text #5
ID : 7
Format : UTF-8
Codec ID : S_TEXT/UTF8
Codec ID/Info : UTF-8 Plain Text
Duration : 40 min 1 s
Bit rate : 88 b/s
Count of elements : 402
Stream size : 25.9 KiB (0%)
Language : Bengali
Default : No
Forced : No

Text #6
ID : 8
Format : UTF-8
Codec ID : S_TEXT/UTF8
Codec ID/Info : UTF-8 Plain Text
Duration : 40 min 1 s
Bit rate : 40 b/s
Count of elements : 400
Stream size : 11.9 KiB (0%)
Language : German
Default : No
Forced : No

Text #7
ID : 9
Format : UTF-8
Codec ID : S_TEXT/UTF8
Codec ID/Info : UTF-8 Plain Text
Duration : 40 min 1 s
Bit rate : 38 b/s
Count of elements : 401
Stream size : 11.3 KiB (0%)
Title : Latinoamérica
Language : Spanish
Default : No
Forced : No

Text #8
ID : 10
Format : UTF-8
Codec ID : S_TEXT/UTF8
Codec ID/Info : UTF-8 Plain Text
Duration : 40 min 1 s
Bit rate : 37 b/s
Count of elements : 399
Stream size : 11.1 KiB (0%)
Title : España
Language : Spanish
Default : No
Forced : No

Text #9
ID : 11
Format : UTF-8
Codec ID : S_TEXT/UTF8
Codec ID/Info : UTF-8 Plain Text
Duration : 40 min 1 s
Bit rate : 39 b/s
Count of elements : 400
Stream size : 11.5 KiB (0%)
Language : French
Default : No
Forced : No

Text #10
ID : 12
Format : UTF-8
Codec ID : S_TEXT/UTF8
Codec ID/Info : UTF-8 Plain Text
Duration : 40 min 1 s
Bit rate : 102 b/s
Count of elements : 402
Stream size : 30.1 KiB (0%)
Language : Hindi
Default : No
Forced : No

Text #11
ID : 13
Format : UTF-8
Codec ID : S_TEXT/UTF8
Codec ID/Info : UTF-8 Plain Text
Duration : 40 min 1 s
Bit rate : 38 b/s
Count of elements : 400
Stream size : 11.2 KiB (0%)
Language : Indonesian
Default : No
Forced : No

Text #12
ID : 14
Format : UTF-8
Codec ID : S_TEXT/UTF8
Codec ID/Info : UTF-8 Plain Text
Duration : 40 min 1 s
Bit rate : 38 b/s
Count of elements : 399
Stream size : 11.4 KiB (0%)
Language : Italian
Default : No
Forced : No

Text #13
ID : 15
Format : UTF-8
Codec ID : S_TEXT/UTF8
Codec ID/Info : UTF-8 Plain Text
Duration : 40 min 7 s
Bit rate : 33 b/s
Count of elements : 385
Stream size : 9.97 KiB (0%)
Language : Japanese
Default : No
Forced : No

Text #14
ID : 16
Format : UTF-8
Codec ID : S_TEXT/UTF8
Codec ID/Info : UTF-8 Plain Text
Duration : 40 min 1 s
Bit rate : 46 b/s
Count of elements : 403
Stream size : 13.6 KiB (0%)
Language : Korean
Default : No
Forced : No

Text #15
ID : 17
Format : UTF-8
Codec ID : S_TEXT/UTF8
Codec ID/Info : UTF-8 Plain Text
Duration : 40 min 1 s
Bit rate : 93 b/s
Count of elements : 402
Stream size : 27.4 KiB (0%)
Language : Marathi
Default : No
Forced : No

Text #16
ID : 18
Format : UTF-8
Codec ID : S_TEXT/UTF8
Codec ID/Info : UTF-8 Plain Text
Duration : 40 min 1 s
Bit rate : 37 b/s
Count of elements : 388
Stream size : 11.1 KiB (0%)
Language : Dutch
Default : No
Forced : No

Text #17
ID : 19
Format : UTF-8
Codec ID : S_TEXT/UTF8
Codec ID/Info : UTF-8 Plain Text
Duration : 40 min 1 s
Bit rate : 34 b/s
Count of elements : 383
Stream size : 10.0 KiB (0%)
Language : Polish
Default : No
Forced : No

Text #18
ID : 20
Format : UTF-8
Codec ID : S_TEXT/UTF8
Codec ID/Info : UTF-8 Plain Text
Duration : 40 min 1 s
Bit rate : 37 b/s
Count of elements : 402
Stream size : 11.0 KiB (0%)
Title : Brasil
Language : Portuguese
Default : No
Forced : No

Text #19
ID : 21
Format : UTF-8
Codec ID : S_TEXT/UTF8
Codec ID/Info : UTF-8 Plain Text
Duration : 40 min 1 s
Bit rate : 39 b/s
Count of elements : 398
Stream size : 11.5 KiB (0%)
Title : Portugal
Language : Portuguese
Default : No
Forced : No

Text #20
ID : 22
Format : UTF-8
Codec ID : S_TEXT/UTF8
Codec ID/Info : UTF-8 Plain Text
Duration : 40 min 1 s
Bit rate : 65 b/s
Count of elements : 403
Stream size : 19.2 KiB (0%)
Language : Russian
Default : No
Forced : No

Text #21
ID : 23
Format : UTF-8
Codec ID : S_TEXT/UTF8
Codec ID/Info : UTF-8 Plain Text
Duration : 40 min 1 s
Bit rate : 109 b/s
Count of elements : 402
Stream size : 32.1 KiB (0%)
Language : Telugu
Default : No
Forced : No

Text #22
ID : 24
Format : UTF-8
Codec ID : S_TEXT/UTF8
Codec ID/Info : UTF-8 Plain Text
Duration : 40 min 1 s
Bit rate : 38 b/s
Count of elements : 401
Stream size : 11.3 KiB (0%)
Language : Turkish
Default : No
Forced : No

Text #23
ID : 25
Format : UTF-8
Codec ID : S_TEXT/UTF8
Codec ID/Info : UTF-8 Plain Text
Duration : 40 min 1 s
Bit rate : 36 b/s
Count of elements : 402
Stream size : 10.6 KiB (0%)
Title : 中文(简体)
Language : Chinese
Default : No
Forced : No

Text #24
ID : 26
Format : UTF-8
Codec ID : S_TEXT/UTF8
Codec ID/Info : UTF-8 Plain Text
Duration : 40 min 1 s
Bit rate : 34 b/s
Count of elements : 398
Stream size : 10.1 KiB (0%)
Title : 中文(繁體)
Language : Chinese
Default : No
Forced : No

Download

Direct download files get automatically deleted after a month or so. Posted on : 09/02/2019

[collapse]
Media Info and Download Links | S04E05

General
Format : Matroska
Format version : Version 4
File size : 195 MiB
Duration : 44 min 14 s
Overall bit rate : 617 kb/s
Movie name : Preacher.S04E05.Bleak.City.720p.WEBRip.2CH.x265.HEVC
Encoded date : UTC 2019-08-26 09:56:27
Writing application : mkvmerge v37.0.0 (‘Leave It’) 32-bit
Writing library : libebml v1.3.9 + libmatroska v1.5.2

Video
ID : 1
Format : HEVC
Format/Info : High Efficiency Video Coding
Format profile : [email protected]@Main
Codec ID : V_MPEGH/ISO/HEVC
Duration : 44 min 14 s
Bit rate : 549 kb/s
Width : 1 280 pixels
Height : 720 pixels
Display aspect ratio : 16:9
Frame rate mode : Constant
Frame rate : 23.976 (24000/1001) FPS
Color space : YUV
Chroma subsampling : 4:2:0
Bit depth : 8 bits
Bits/(Pixel*Frame) : 0.025
Stream size : 174 MiB (89%)
Default : Yes
Forced : No

Audio
ID : 2
Format : AAC LC SBR
Commercial name : HE-AAC
Format settings : Explicit
Codec ID : A_AAC-2
Duration : 44 min 14 s
Bit rate : 66.2 kb/s
Channel(s) : 2 channels
Channel layout : L R
Sampling rate : 48.0 kHz
Frame rate : 23.438 FPS (2048 SPF)
Compression mode : Lossy
Delay relative to video : 23 ms
Stream size : 20.9 MiB (11%)
Language : English
Default : Yes
Forced : No

Text
ID : 3
Format : UTF-8
Codec ID : S_TEXT/UTF8
Codec ID/Info : UTF-8 Plain Text
Duration : 43 min 45 s
Bit rate : 49 b/s
Count of elements : 676
Stream size : 15.7 KiB (0%)
Language : English
Default : Yes
Forced : No

Download

Direct download files get automatically deleted after a month or so. Posted on : 08/26/2019

[collapse]
Media Info and Download Links | S04E04

General
Format : Matroska
Format version : Version 4
File size : 180 MiB
Duration : 43 min 4 s
Overall bit rate : 584 kb/s
Movie name : Preacher.S04E04.Search.and.Rescue.INTERNAL.720p.WEBRip.2CH.x265.HEVC
Encoded date : UTC 2019-08-17 14:29:28
Writing application : mkvmerge v36.0.0 (‘Is That Jazz?’) 32-bit
Writing library : libebml v1.3.9 + libmatroska v1.5.2

Video
ID : 1
Format : HEVC
Format/Info : High Efficiency Video Coding
Format profile : [email protected]@Main
Codec ID : V_MPEGH/ISO/HEVC
Duration : 43 min 4 s
Bit rate : 514 kb/s
Width : 1 280 pixels
Height : 720 pixels
Display aspect ratio : 16:9
Frame rate mode : Constant
Frame rate : 23.976 (24000/1001) FPS
Color space : YUV
Chroma subsampling : 4:2:0
Bit depth : 8 bits
Bits/(Pixel*Frame) : 0.023
Stream size : 158 MiB (88%)
Default : Yes
Forced : No

Audio
ID : 2
Format : AAC LC SBR
Commercial name : HE-AAC
Format settings : Explicit
Codec ID : A_AAC-2
Duration : 43 min 4 s
Bit rate : 68.4 kb/s
Channel(s) : 2 channels
Channel layout : L R
Sampling rate : 48.0 kHz
Frame rate : 23.438 FPS (2048 SPF)
Compression mode : Lossy
Delay relative to video : 23 ms
Stream size : 21.1 MiB (12%)
Language : English
Default : Yes
Forced : No

Text
ID : 3
Format : UTF-8
Codec ID : S_TEXT/UTF8
Codec ID/Info : UTF-8 Plain Text
Duration : 41 min 29 s
Bit rate : 47 b/s
Count of elements : 550
Stream size : 14.4 KiB (0%)
Language : English
Default : Yes
Forced : No

Download

Direct download files get automatically deleted after a month or so. Posted on : 08/17/2019

[collapse]
Media Info and Download Links | S04E03

General
Format : Matroska
Format version : Version 4
File size : 207 MiB
Duration : 43 min 12 s
Overall bit rate : 669 kb/s
Movie name : Preacher.S04E03.Deviant.INTERNAL.720p.WEBRip.2CH.x265.HEVC
Encoded date : UTC 2019-08-10 11:20:30
Writing application : mkvmerge v35.0.0 (‘All The Love In The World’) 32-bit
Writing library : libebml v1.3.9 + libmatroska v1.5.2

Video
ID : 1
Format : HEVC
Format/Info : High Efficiency Video Coding
Format profile : [email protected]@Main
Codec ID : V_MPEGH/ISO/HEVC
Duration : 43 min 12 s
Bit rate : 598 kb/s
Width : 1 280 pixels
Height : 720 pixels
Display aspect ratio : 16:9
Frame rate mode : Constant
Frame rate : 23.976 (24000/1001) FPS
Color space : YUV
Chroma subsampling : 4:2:0
Bit depth : 8 bits
Bits/(Pixel*Frame) : 0.027
Stream size : 185 MiB (89%)
Default : Yes
Forced : No

Audio
ID : 2
Format : AAC LC SBR
Commercial name : HE-AAC
Format settings : Explicit
Codec ID : A_AAC-2
Duration : 43 min 12 s
Bit rate : 68.7 kb/s
Channel(s) : 2 channels
Channel layout : L R
Sampling rate : 48.0 kHz
Frame rate : 23.438 FPS (2048 SPF)
Compression mode : Lossy
Delay relative to video : 23 ms
Stream size : 21.2 MiB (10%)
Language : English
Default : Yes
Forced : No

Text
ID : 3
Format : UTF-8
Codec ID : S_TEXT/UTF8
Codec ID/Info : UTF-8 Plain Text
Duration : 43 min 5 s
Bit rate : 55 b/s
Count of elements : 787
Stream size : 17.5 KiB (0%)
Language : English
Default : Yes
Forced : No

Download

Direct download files get automatically deleted after a month or so. Posted on : 08/10/2019

[collapse]
Media Info and Download Links | S04E02

General
Format : Matroska
Format version : Version 4
File size : 201 MiB
Duration : 41 min 20 s
Overall bit rate : 679 kb/s
Movie name : Preacher.S04E02.Last.Supper.REPACK.INTERNAL.720p.WEBRip.2CH.x265.HEVC
Encoded date : UTC 2019-08-05 14:46:34
Writing application : mkvmerge v35.0.0 (‘All The Love In The World’) 32-bit
Writing library : libebml v1.3.9 + libmatroska v1.5.2

Video
ID : 1
Format : HEVC
Format/Info : High Efficiency Video Coding
Format profile : [email protected]@Main
Codec ID : V_MPEGH/ISO/HEVC
Duration : 41 min 20 s
Bit rate : 612 kb/s
Width : 1 280 pixels
Height : 720 pixels
Display aspect ratio : 16:9
Frame rate mode : Constant
Frame rate : 23.976 (24000/1001) FPS
Color space : YUV
Chroma subsampling : 4:2:0
Bit depth : 8 bits
Bits/(Pixel*Frame) : 0.028
Stream size : 181 MiB (90%)
Default : Yes
Forced : No

Audio
ID : 2
Format : AAC LC SBR
Commercial name : HE-AAC
Format settings : Explicit
Codec ID : A_AAC-2
Duration : 41 min 20 s
Bit rate : 66.2 kb/s
Channel(s) : 2 channels
Channel layout : L R
Sampling rate : 48.0 kHz
Frame rate : 23.438 FPS (2048 SPF)
Compression mode : Lossy
Delay relative to video : 23 ms
Stream size : 19.4 MiB (10%)
Language : English
Default : Yes
Forced : No

Text
ID : 3
Format : UTF-8
Codec ID : S_TEXT/UTF8
Codec ID/Info : UTF-8 Plain Text
Duration : 40 min 48 s
Bit rate : 41 b/s
Count of elements : 572
Stream size : 12.5 KiB (0%)
Language : English
Default : Yes
Forced : No

Download

Direct download files get automatically deleted after a month or so. Posted on : 08/05/2019

[collapse]
Media Info and Download Links | S04E01

General
Format : Matroska
Format version : Version 4
File size : 192 MiB
Duration : 41 min 29 s
Overall bit rate : 646 kb/s
Movie name : Preacher.S04E01.Masada.720p.WEBRip.2CH.x265.HEVC
Encoded date : UTC 2019-08-05 14:45:42
Writing application : mkvmerge v35.0.0 (‘All The Love In The World’) 32-bit
Writing library : libebml v1.3.9 + libmatroska v1.5.2

Video
ID : 1
Format : HEVC
Format/Info : High Efficiency Video Coding
Format profile : [email protected]@Main
Codec ID : V_MPEGH/ISO/HEVC
Duration : 41 min 29 s
Bit rate : 575 kb/s
Width : 1 280 pixels
Height : 720 pixels
Display aspect ratio : 16:9
Frame rate mode : Constant
Frame rate : 23.976 (24000/1001) FPS
Color space : YUV
Chroma subsampling : 4:2:0
Bit depth : 8 bits
Bits/(Pixel*Frame) : 0.026
Stream size : 171 MiB (89%)
Default : Yes
Forced : No

Audio
ID : 2
Format : AAC LC SBR
Commercial name : HE-AAC
Format settings : Explicit
Codec ID : A_AAC-2
Duration : 41 min 29 s
Bit rate : 69.1 kb/s
Channel(s) : 2 channels
Channel layout : L R
Sampling rate : 48.0 kHz
Frame rate : 23.438 FPS (2048 SPF)
Compression mode : Lossy
Delay relative to video : 23 ms
Stream size : 20.5 MiB (11%)
Language : English
Default : Yes
Forced : No

Text
ID : 3
Format : UTF-8
Codec ID : S_TEXT/UTF8
Codec ID/Info : UTF-8 Plain Text
Duration : 40 min 59 s
Bit rate : 43 b/s
Count of elements : 557
Stream size : 13.1 KiB (0%)
Language : English
Default : Yes
Forced : No

Download

Direct download files get automatically deleted after a month or so. Posted on : 08/05/2019

[collapse]

Media Info and Download Links | S03E10

General
Format : Matroska
Format version : Version 4 / Version 2
File size : 269 MiB
Duration : 53 min 6 s
Overall bit rate : 708 kb/s
Movie name : Preacher.S03E10.720p.HDTV.2CH.x265.HEVC
Encoded date : UTC 2018-08-27 09:24:00
Writing application : mkvmerge v26.0.0 (‘In The Game’) 32-bit
Writing library : libebml v1.3.6 + libmatroska v1.4.9

Video
ID : 1
Format : HEVC
Format/Info : High Efficiency Video Coding
Format profile : [email protected]@Main
Codec ID : V_MPEGH/ISO/HEVC
Duration : 53 min 6 s
Bit rate : 638 kb/s
Width : 1 280 pixels
Height : 720 pixels
Display aspect ratio : 16:9
Frame rate mode : Constant
Frame rate : 23.976 (24000/1001) FPS
Color space : YUV
Chroma subsampling : 4:2:0
Bit depth : 8 bits
Bits/(Pixel*Frame) : 0.029
Stream size : 242 MiB (90%)
Default : Yes
Forced : No

Audio
ID : 2
Format : AAC
Format/Info : Advanced Audio Codec
Format profile : HE-AAC / LC
Format settings : Explicit
Codec ID : A_AAC-2
Duration : 53 min 6 s
Bit rate : 68.2 kb/s
Channel(s) : 2 channels
Channel positions : Front: L R
Sampling rate : 48.0 kHz / 24.0 kHz
Frame rate : 23.438 FPS (1024 SPF)
Compression mode : Lossy
Delay relative to video : 23 ms
Stream size : 25.9 MiB (10%)
Language : English
Default : Yes
Forced : No

Text
ID : 3
Format : UTF-8
Codec ID : S_TEXT/UTF8
Codec ID/Info : UTF-8 Plain Text
Duration : 52 min 20 s
Bit rate : 49 b/s
Count of elements : 772
Stream size : 18.9 KiB (0%)
Language : English
Default : Yes
Forced : No

Download

Direct download files get automatically deleted after a month or so. Posted on : 08/27/2018

[collapse]
Media Info and Download Links | S03E09

General
Format : Matroska
Format version : Version 4 / Version 2
File size : 208 MiB
Duration : 40 min 10 s
Overall bit rate : 723 kb/s
Movie name : Preacher.S03E09.720p.HDTV.2CH.x265.HEVC
Encoded date : UTC 2018-08-20 08:07:11
Writing application : mkvmerge v25.0.0 (‘Prog Noir’) 32-bit
Writing library : libebml v1.3.6 + libmatroska v1.4.9

Video
ID : 1
Format : HEVC
Format/Info : High Efficiency Video Coding
Format profile : [email protected]@Main
Codec ID : V_MPEGH/ISO/HEVC
Duration : 40 min 10 s
Bit rate : 655 kb/s
Width : 1 280 pixels
Height : 720 pixels
Display aspect ratio : 16:9
Frame rate mode : Constant
Frame rate : 23.976 (24000/1001) FPS
Color space : YUV
Chroma subsampling : 4:2:0
Bit depth : 8 bits
Bits/(Pixel*Frame) : 0.030
Stream size : 188 MiB (91%)
Default : Yes
Forced : No

Audio
ID : 2
Format : AAC
Format/Info : Advanced Audio Codec
Format profile : HE-AAC / LC
Format settings : Explicit
Codec ID : A_AAC-2
Duration : 40 min 9 s
Bit rate : 66.2 kb/s
Channel(s) : 2 channels
Channel positions : Front: L R
Sampling rate : 48.0 kHz / 24.0 kHz
Frame rate : 23.438 FPS (1024 SPF)
Compression mode : Lossy
Delay relative to video : 23 ms
Stream size : 18.9 MiB (9%)
Language : English
Default : Yes
Forced : No

Text
ID : 3
Format : UTF-8
Codec ID : S_TEXT/UTF8
Codec ID/Info : UTF-8 Plain Text
Duration : 40 min 7 s
Bit rate : 58 b/s
Count of elements : 771
Stream size : 17.2 KiB (0%)
Default : Yes
Forced : No

Download

Direct download files get automatically deleted after a month or so. Posted on : 08/20/2018

[collapse]
Media Info and Download Links | S03E08

General
Format : Matroska
Format version : Version 4 / Version 2
File size : 208 MiB
Duration : 42 min 12 s
Overall bit rate : 688 kb/s
Movie name : Preacher.S03E08.The.Tom.Brady.720p.WEBRip.2CH.x265.HEVC
Encoded date : UTC 2018-08-13 16:22:53
Writing application : mkvmerge v25.0.0 (‘Prog Noir’) 32-bit
Writing library : libebml v1.3.6 + libmatroska v1.4.9

Video
ID : 1
Format : HEVC
Format/Info : High Efficiency Video Coding
Format profile : [email protected]@Main
Codec ID : V_MPEGH/ISO/HEVC
Duration : 42 min 12 s
Bit rate : 616 kb/s
Width : 1 280 pixels
Height : 720 pixels
Display aspect ratio : 16:9
Frame rate mode : Constant
Frame rate : 23.976 (24000/1001) FPS
Color space : YUV
Chroma subsampling : 4:2:0
Bit depth : 8 bits
Bits/(Pixel*Frame) : 0.028
Stream size : 186 MiB (90%)
Default : Yes
Forced : No

Audio
ID : 2
Format : AAC
Format/Info : Advanced Audio Codec
Format profile : HE-AAC / LC
Format settings : Explicit
Codec ID : A_AAC-2
Duration : 42 min 12 s
Bit rate : 69.6 kb/s
Channel(s) : 2 channels
Channel positions : Front: L R
Sampling rate : 48.0 kHz / 24.0 kHz
Frame rate : 23.438 FPS (1024 SPF)
Compression mode : Lossy
Delay relative to video : 23 ms
Stream size : 21.0 MiB (10%)
Language : English
Default : Yes
Forced : No

Text #1
ID : 3
Format : UTF-8
Codec ID : S_TEXT/UTF8
Codec ID/Info : UTF-8 Plain Text
Duration : 41 min 35 s
Bit rate : 55 b/s
Count of elements : 640
Stream size : 16.9 KiB (0%)
Language : English
Default : Yes
Forced : No

Text #2
ID : 4
Format : UTF-8
Codec ID : S_TEXT/UTF8
Codec ID/Info : UTF-8 Plain Text
Duration : 24 min 15 s
Bit rate : 2 b/s
Count of elements : 18
Stream size : 478 Bytes (0%)
Language : English
Default : No
Forced : Yes

Download

Direct download files get automatically deleted after a month or so. Posted on : 08/13/2018

[collapse]
Media Info and Download Links | S03E07

General
Format : Matroska
Format version : Version 4 / Version 2
File size : 207 MiB
Duration : 44 min 44 s
Overall bit rate : 648 kb/s
Movie name : Preacher.S03E07.Hilter.720p.WEBRip.2CH.x265.HEVC
Encoded date : UTC 2018-08-06 12:07:08
Writing application : mkvmerge v25.0.0 (‘Prog Noir’) 32-bit
Writing library : libebml v1.3.6 + libmatroska v1.4.9

Video
ID : 1
Format : HEVC
Format/Info : High Efficiency Video Coding
Format profile : [email protected]@Main
Codec ID : V_MPEGH/ISO/HEVC
Duration : 44 min 44 s
Bit rate : 580 kb/s
Width : 1 280 pixels
Height : 720 pixels
Display aspect ratio : 16:9
Frame rate mode : Constant
Frame rate : 23.976 (24000/1001) FPS
Color space : YUV
Chroma subsampling : 4:2:0
Bit depth : 8 bits
Bits/(Pixel*Frame) : 0.026
Stream size : 185 MiB (89%)
Default : Yes
Forced : No

Audio
ID : 2
Format : AAC
Format/Info : Advanced Audio Codec
Format profile : HE-AAC / LC
Format settings : Explicit
Codec ID : A_AAC-2
Duration : 44 min 43 s
Bit rate : 66.2 kb/s
Channel(s) : 2 channels
Channel positions : Front: L R
Sampling rate : 48.0 kHz / 24.0 kHz
Frame rate : 23.438 FPS (1024 SPF)
Compression mode : Lossy
Delay relative to video : 23 ms
Stream size : 21.2 MiB (10%)
Language : English
Default : Yes
Forced : No

Text
ID : 3
Format : UTF-8
Codec ID : S_TEXT/UTF8
Codec ID/Info : UTF-8 Plain Text
Duration : 44 min 5 s
Bit rate : 56 b/s
Count of elements : 693
Stream size : 18.2 KiB (0%)
Language : English
Default : Yes
Forced : No

Download

Direct download files get automatically deleted after a month or so. Posted on : 08/06/2018

[collapse]
Media Info and Download Links | S03E06

General
Format : Matroska
Format version : Version 4 / Version 2
File size : 168 MiB
Duration : 42 min 1 s
Overall bit rate : 558 kb/s
Movie name : Preacher.S03E06.Les.Enfants.du.Sang.720p.WEBRip.2CH.x265.HEVC
Encoded date : UTC 2018-07-30 10:19:15
Writing application : mkvmerge v25.0.0 (‘Prog Noir’) 32-bit
Writing library : libebml v1.3.6 + libmatroska v1.4.9

Video
ID : 1
Format : HEVC
Format/Info : High Efficiency Video Coding
Format profile : [email protected]@Main
Codec ID : V_MPEGH/ISO/HEVC
Duration : 42 min 1 s
Bit rate : 485 kb/s
Width : 1 280 pixels
Height : 720 pixels
Display aspect ratio : 16:9
Frame rate mode : Constant
Frame rate : 23.976 (24000/1001) FPS
Color space : YUV
Chroma subsampling : 4:2:0
Bit depth : 8 bits
Bits/(Pixel*Frame) : 0.022
Stream size : 146 MiB (87%)
Default : Yes
Forced : No

Audio
ID : 2
Format : AAC
Format/Info : Advanced Audio Codec
Format profile : HE-AAC / LC
Format settings : Explicit
Codec ID : A_AAC-2
Duration : 42 min 1 s
Bit rate : 67.5 kb/s
Channel(s) : 2 channels
Channel positions : Front: L R
Sampling rate : 48.0 kHz / 24.0 kHz
Frame rate : 23.438 FPS (1024 SPF)
Compression mode : Lossy
Delay relative to video : 23 ms
Stream size : 20.3 MiB (12%)
Language : English
Default : Yes
Forced : No

Text #1
ID : 3
Format : UTF-8
Codec ID : S_TEXT/UTF8
Codec ID/Info : UTF-8 Plain Text
Duration : 40 min 46 s
Bit rate : 63 b/s
Count of elements : 730
Stream size : 18.8 KiB (0%)
Language : English
Default : Yes
Forced : No

Text #2
ID : 4
Format : UTF-8
Codec ID : S_TEXT/UTF8
Codec ID/Info : UTF-8 Plain Text
Duration : 3 min 40 s
Bit rate : 32 b/s
Count of elements : 38
Stream size : 883 Bytes (0%)
Language : English
Default : No
Forced : Yes

Text #3
ID : 5
Format : UTF-8
Codec ID : S_TEXT/UTF8
Codec ID/Info : UTF-8 Plain Text
Duration : 41 min 15 s
Bit rate : 78 b/s
Count of elements : 575
Stream size : 23.8 KiB (0%)
Language : Arabic
Default : No
Forced : No

Text #4
ID : 6
Format : UTF-8
Codec ID : S_TEXT/UTF8
Codec ID/Info : UTF-8 Plain Text
Duration : 41 min 15 s
Bit rate : 136 b/s
Count of elements : 575
Stream size : 41.2 KiB (0%)
Language : Bengali
Default : No
Forced : No

Text #5
ID : 7
Format : UTF-8
Codec ID : S_TEXT/UTF8
Codec ID/Info : UTF-8 Plain Text
Duration : 41 min 15 s
Bit rate : 49 b/s
Count of elements : 575
Stream size : 15.0 KiB (0%)
Language : Chinese
Default : No
Forced : No

Text #6
ID : 8
Format : UTF-8
Codec ID : S_TEXT/UTF8
Codec ID/Info : UTF-8 Plain Text
Duration : 41 min 15 s
Bit rate : 49 b/s
Count of elements : 575
Stream size : 15.0 KiB (0%)
Language : Chinese
Default : No
Forced : No

Text #7
ID : 9
Format : UTF-8
Codec ID : S_TEXT/UTF8
Codec ID/Info : UTF-8 Plain Text
Duration : 41 min 15 s
Bit rate : 55 b/s
Count of elements : 571
Stream size : 16.7 KiB (0%)
Language : Dutch
Default : No
Forced : No

Text #8
ID : 10
Format : UTF-8
Codec ID : S_TEXT/UTF8
Codec ID/Info : UTF-8 Plain Text
Duration : 41 min 15 s
Bit rate : 57 b/s
Count of elements : 573
Stream size : 17.4 KiB (0%)
Language : French
Default : No
Forced : No

Text #9
ID : 11
Format : UTF-8
Codec ID : S_TEXT/UTF8
Codec ID/Info : UTF-8 Plain Text
Duration : 41 min 15 s
Bit rate : 57 b/s
Count of elements : 572
Stream size : 17.4 KiB (0%)
Language : German
Default : No
Forced : No

Text #10
ID : 12
Format : UTF-8
Codec ID : S_TEXT/UTF8
Codec ID/Info : UTF-8 Plain Text
Duration : 41 min 15 s
Bit rate : 157 b/s
Count of elements : 575
Stream size : 47.7 KiB (0%)
Language : Hindi
Default : No
Forced : No

Text #11
ID : 13
Format : UTF-8
Codec ID : S_TEXT/UTF8
Codec ID/Info : UTF-8 Plain Text
Duration : 41 min 15 s
Bit rate : 53 b/s
Count of elements : 572
Stream size : 16.2 KiB (0%)
Language : Indonesian
Default : No
Forced : No

Text #12
ID : 14
Format : UTF-8
Codec ID : S_TEXT/UTF8
Codec ID/Info : UTF-8 Plain Text
Duration : 41 min 15 s
Bit rate : 54 b/s
Count of elements : 572
Stream size : 16.4 KiB (0%)
Language : Italian
Default : No
Forced : No

Text #13
ID : 15
Format : UTF-8
Codec ID : S_TEXT/UTF8
Codec ID/Info : UTF-8 Plain Text
Duration : 41 min 17 s
Bit rate : 48 b/s
Count of elements : 549
Stream size : 14.7 KiB (0%)
Language : Japanese
Default : No
Forced : No

Text #14
ID : 16
Format : UTF-8
Codec ID : S_TEXT/UTF8
Codec ID/Info : UTF-8 Plain Text
Duration : 41 min 15 s
Bit rate : 64 b/s
Count of elements : 576
Stream size : 19.5 KiB (0%)
Language : Korean
Default : No
Forced : No

Text #15
ID : 17
Format : UTF-8
Codec ID : S_TEXT/UTF8
Codec ID/Info : UTF-8 Plain Text
Duration : 41 min 15 s
Bit rate : 130 b/s
Count of elements : 575
Stream size : 39.4 KiB (0%)
Language : Marathi
Default : No
Forced : No

Text #16
ID : 18
Format : UTF-8
Codec ID : S_TEXT/UTF8
Codec ID/Info : UTF-8 Plain Text
Duration : 41 min 15 s
Bit rate : 52 b/s
Count of elements : 566
Stream size : 16.0 KiB (0%)
Language : Polish
Default : No
Forced : No

Text #17
ID : 19
Format : UTF-8
Codec ID : S_TEXT/UTF8
Codec ID/Info : UTF-8 Plain Text
Duration : 41 min 15 s
Bit rate : 53 b/s
Count of elements : 572
Stream size : 16.2 KiB (0%)
Language : Portuguese
Default : No
Forced : No

Text #18
ID : 20
Format : UTF-8
Codec ID : S_TEXT/UTF8
Codec ID/Info : UTF-8 Plain Text
Duration : 41 min 15 s
Bit rate : 52 b/s
Count of elements : 574
Stream size : 15.9 KiB (0%)
Language : Portuguese
Default : No
Forced : No

Text #19
ID : 21
Format : UTF-8
Codec ID : S_TEXT/UTF8
Codec ID/Info : UTF-8 Plain Text
Duration : 41 min 15 s
Bit rate : 85 b/s
Count of elements : 575
Stream size : 25.8 KiB (0%)
Language : Russian
Default : No
Forced : No

Text #20
ID : 22
Format : UTF-8
Codec ID : S_TEXT/UTF8
Codec ID/Info : UTF-8 Plain Text
Duration : 41 min 15 s
Bit rate : 53 b/s
Count of elements : 573
Stream size : 16.2 KiB (0%)
Language : Spanish
Default : No
Forced : No

Text #21
ID : 23
Format : UTF-8
Codec ID : S_TEXT/UTF8
Codec ID/Info : UTF-8 Plain Text
Duration : 41 min 15 s
Bit rate : 57 b/s
Count of elements : 575
Stream size : 17.4 KiB (0%)
Language : Spanish
Default : No
Forced : No

Text #22
ID : 24
Format : UTF-8
Codec ID : S_TEXT/UTF8
Codec ID/Info : UTF-8 Plain Text
Duration : 41 min 15 s
Bit rate : 141 b/s
Count of elements : 575
Stream size : 42.8 KiB (0%)
Language : Telugu
Default : No
Forced : No

Text #23
ID : 25
Format : UTF-8
Codec ID : S_TEXT/UTF8
Codec ID/Info : UTF-8 Plain Text
Duration : 41 min 15 s
Bit rate : 56 b/s
Count of elements : 573
Stream size : 17.1 KiB (0%)
Language : Turkish
Default : No
Forced : No

Download

Direct download files get automatically deleted after a month or so. Posted on : 07/30/2018

[collapse]
Media Info and Download Links | S03E05

General
Format : Matroska
Format version : Version 4 / Version 2
File size : 202 MiB
Duration : 45 min 13 s
Overall bit rate : 624 kb/s
Movie name : Preacher.S03E05.The.Coffin.720p.WEBRip.2CH.x265.HEVC
Encoded date : UTC 2018-07-23 11:43:19
Writing application : mkvmerge v25.0.0 (‘Prog Noir’) 32-bit
Writing library : libebml v1.3.6 + libmatroska v1.4.9

Video
ID : 1
Format : HEVC
Format/Info : High Efficiency Video Coding
Format profile : [email protected]@Main
Codec ID : V_MPEGH/ISO/HEVC
Duration : 45 min 13 s
Bit rate : 551 kb/s
Width : 1 280 pixels
Height : 720 pixels
Display aspect ratio : 16:9
Frame rate mode : Constant
Frame rate : 23.976 (24000/1001) FPS
Color space : YUV
Chroma subsampling : 4:2:0
Bit depth : 8 bits
Bits/(Pixel*Frame) : 0.025
Stream size : 178 MiB (88%)
Default : Yes
Forced : No

Audio
ID : 2
Format : AAC
Format/Info : Advanced Audio Codec
Format profile : HE-AAC / LC
Format settings : Explicit
Codec ID : A_AAC-2
Duration : 45 min 12 s
Bit rate : 69.3 kb/s
Channel(s) : 2 channels
Channel positions : Front: L R
Sampling rate : 48.0 kHz / 24.0 kHz
Frame rate : 23.438 FPS (1024 SPF)
Compression mode : Lossy
Delay relative to video : 23 ms
Stream size : 22.4 MiB (11%)
Language : English
Default : Yes
Forced : No

Text #1
ID : 3
Format : UTF-8
Codec ID : S_TEXT/UTF8
Codec ID/Info : UTF-8 Plain Text
Duration : 44 min 35 s
Bit rate : 51 b/s
Count of elements : 719
Stream size : 16.7 KiB (0%)
Language : English
Default : Yes
Forced : No

Text #2
ID : 4
Format : UTF-8
Codec ID : S_TEXT/UTF8
Codec ID/Info : UTF-8 Plain Text
Duration : 44 min 12 s
Bit rate : 58 b/s
Count of elements : 424
Stream size : 18.9 KiB (0%)
Language : Arabic
Default : No
Forced : No

Text #3
ID : 5
Format : UTF-8
Codec ID : S_TEXT/UTF8
Codec ID/Info : UTF-8 Plain Text
Duration : 44 min 12 s
Bit rate : 104 b/s
Count of elements : 426
Stream size : 33.8 KiB (0%)
Language : Bengali
Default : No
Forced : No

Text #4
ID : 6
Format : UTF-8
Codec ID : S_TEXT/UTF8
Codec ID/Info : UTF-8 Plain Text
Duration : 44 min 12 s
Bit rate : 36 b/s
Count of elements : 426
Stream size : 11.9 KiB (0%)
Language : Chinese
Default : No
Forced : No

Text #5
ID : 7
Format : UTF-8
Codec ID : S_TEXT/UTF8
Codec ID/Info : UTF-8 Plain Text
Duration : 44 min 12 s
Bit rate : 33 b/s
Count of elements : 425
Stream size : 10.9 KiB (0%)
Language : Chinese
Default : No
Forced : No

Text #6
ID : 8
Format : UTF-8
Codec ID : S_TEXT/UTF8
Codec ID/Info : UTF-8 Plain Text
Duration : 44 min 12 s
Bit rate : 37 b/s
Count of elements : 413
Stream size : 12.3 KiB (0%)
Language : Dutch
Default : No
Forced : No

Text #7
ID : 9
Format : UTF-8
Codec ID : S_TEXT/UTF8
Codec ID/Info : UTF-8 Plain Text
Duration : 44 min 12 s
Bit rate : 42 b/s
Count of elements : 422
Stream size : 13.8 KiB (0%)
Language : French
Default : No
Forced : No

Text #8
ID : 10
Format : UTF-8
Codec ID : S_TEXT/UTF8
Codec ID/Info : UTF-8 Plain Text
Duration : 44 min 12 s
Bit rate : 42 b/s
Count of elements : 421
Stream size : 13.8 KiB (0%)
Language : German
Default : No
Forced : No

Text #9
ID : 11
Format : UTF-8
Codec ID : S_TEXT/UTF8
Codec ID/Info : UTF-8 Plain Text
Duration : 44 min 12 s
Bit rate : 95 b/s
Count of elements : 426
Stream size : 30.9 KiB (0%)
Language : Hindi
Default : No
Forced : No

Text #10
ID : 12
Format : UTF-8
Codec ID : S_TEXT/UTF8
Codec ID/Info : UTF-8 Plain Text
Duration : 44 min 12 s
Bit rate : 37 b/s
Count of elements : 422
Stream size : 12.1 KiB (0%)
Language : Indonesian
Default : No
Forced : No

Text #11
ID : 13
Format : UTF-8
Codec ID : S_TEXT/UTF8
Codec ID/Info : UTF-8 Plain Text
Duration : 44 min 12 s
Bit rate : 39 b/s
Count of elements : 422
Stream size : 12.8 KiB (0%)
Language : Italian
Default : No
Forced : No

Text #12
ID : 14
Format : UTF-8
Codec ID : S_TEXT/UTF8
Codec ID/Info : UTF-8 Plain Text
Duration : 44 min 3 s
Bit rate : 38 b/s
Count of elements : 472
Stream size : 12.4 KiB (0%)
Language : Japanese
Default : No
Forced : No

Text #13
ID : 15
Format : UTF-8
Codec ID : S_TEXT/UTF8
Codec ID/Info : UTF-8 Plain Text
Duration : 44 min 12 s
Bit rate : 43 b/s
Count of elements : 427
Stream size : 14.2 KiB (0%)
Language : Korean
Default : No
Forced : No

Text #14
ID : 16
Format : UTF-8
Codec ID : S_TEXT/UTF8
Codec ID/Info : UTF-8 Plain Text
Duration : 44 min 12 s
Bit rate : 100 b/s
Count of elements : 426
Stream size : 32.7 KiB (0%)
Language : Marathi
Default : No
Forced : No

Text #15
ID : 17
Format : UTF-8
Codec ID : S_TEXT/UTF8
Codec ID/Info : UTF-8 Plain Text
Duration : 44 min 12 s
Bit rate : 36 b/s
Count of elements : 420
Stream size : 11.7 KiB (0%)
Language : Polish
Default : No
Forced : No

Text #16
ID : 18
Format : UTF-8
Codec ID : S_TEXT/UTF8
Codec ID/Info : UTF-8 Plain Text
Duration : 44 min 12 s
Bit rate : 38 b/s
Count of elements : 420
Stream size : 12.4 KiB (0%)
Language : Portuguese
Default : No
Forced : No

Text #17
ID : 19
Format : UTF-8
Codec ID : S_TEXT/UTF8
Codec ID/Info : UTF-8 Plain Text
Duration : 44 min 12 s
Bit rate : 40 b/s
Count of elements : 421
Stream size : 13.3 KiB (0%)
Language : Portuguese
Default : No
Forced : No

Text #18
ID : 20
Format : UTF-8
Codec ID : S_TEXT/UTF8
Codec ID/Info : UTF-8 Plain Text
Duration : 44 min 12 s
Bit rate : 65 b/s
Count of elements : 427
Stream size : 21.3 KiB (0%)
Language : Russian
Default : No
Forced : No

Text #19
ID : 21
Format : UTF-8
Codec ID : S_TEXT/UTF8
Codec ID/Info : UTF-8 Plain Text
Duration : 44 min 12 s
Bit rate : 38 b/s
Count of elements : 411
Stream size : 12.6 KiB (0%)
Language : Spanish
Default : No
Forced : No

Text #20
ID : 22
Format : UTF-8
Codec ID : S_TEXT/UTF8
Codec ID/Info : UTF-8 Plain Text
Duration : 44 min 12 s
Bit rate : 41 b/s
Count of elements : 424
Stream size : 13.3 KiB (0%)
Language : Spanish
Default : No
Forced : No

Text #21
ID : 23
Format : UTF-8
Codec ID : S_TEXT/UTF8
Codec ID/Info : UTF-8 Plain Text
Duration : 44 min 12 s
Bit rate : 101 b/s
Count of elements : 426
Stream size : 32.9 KiB (0%)
Language : Telugu
Default : No
Forced : No

Text #22
ID : 24
Format : UTF-8
Codec ID : S_TEXT/UTF8
Codec ID/Info : UTF-8 Plain Text
Duration : 44 min 12 s
Bit rate : 42 b/s
Count of elements : 422
Stream size : 13.9 KiB (0%)
Language : Turkish
Default : No
Forced : No

Download

Direct download files get automatically deleted after a month or so. Posted on : 07/23/2018

[collapse]
Media Info and Download Links | S03E04

General
Format : Matroska
Format version : Version 4 / Version 2
File size : 190 MiB
Duration : 42 min 27 s
Overall bit rate : 625 kb/s
Movie name : Preacher.S03E04.The.Tombs.720p.WEBRip.2CH.x265.HEVC
Encoded date : UTC 2018-07-16 10:25:15
Writing application : mkvmerge v25.0.0 (‘Prog Noir’) 32-bit
Writing library : libebml v1.3.6 + libmatroska v1.4.9

Video
ID : 1
Format : HEVC
Format/Info : High Efficiency Video Coding
Format profile : [email protected]@Main
Codec ID : V_MPEGH/ISO/HEVC
Duration : 42 min 27 s
Bit rate : 558 kb/s
Width : 1 280 pixels
Height : 720 pixels
Display aspect ratio : 16:9
Frame rate mode : Constant
Frame rate : 23.976 (24000/1001) FPS
Color space : YUV
Chroma subsampling : 4:2:0
Bit depth : 8 bits
Bits/(Pixel*Frame) : 0.025
Stream size : 169 MiB (89%)
Default : Yes
Forced : No

Audio
ID : 2
Format : AAC
Format/Info : Advanced Audio Codec
Format profile : HE-AAC / LC
Format settings : Explicit
Codec ID : A_AAC-2
Duration : 42 min 27 s
Bit rate : 66.2 kb/s
Channel(s) : 2 channels
Channel positions : Front: L R
Sampling rate : 48.0 kHz / 24.0 kHz
Frame rate : 23.438 FPS (1024 SPF)
Compression mode : Lossy
Delay relative to video : 23 ms
Stream size : 19.9 MiB (10%)
Language : English
Default : Yes
Forced : No

Text
ID : 3
Format : UTF-8
Codec ID : S_TEXT/UTF8
Codec ID/Info : UTF-8 Plain Text
Duration : 41 min 22 s
Bit rate : 55 b/s
Count of elements : 654
Stream size : 16.7 KiB (0%)
Language : English
Default : Yes
Forced : No

Download

Direct download files get automatically deleted after a month or so. Posted on : 07/16/2018

[collapse]
Media Info and Download Links | S03E03

General
Format : Matroska
Format version : Version 4 / Version 2
File size : 191 MiB
Duration : 43 min 1 s
Overall bit rate : 621 kb/s
Movie name : Preacher.S03E03.Gonna.Hurt.720p.WEBRip.2CH.x265.HEVC
Encoded date : UTC 2018-07-09 10:39:59
Writing application : mkvmerge v24.0.0 (‘Beyond The Pale’) 32-bit
Writing library : libebml v1.3.6 + libmatroska v1.4.9

Video
ID : 1
Format : HEVC
Format/Info : High Efficiency Video Coding
Format profile : [email protected]@Main
Codec ID : V_MPEGH/ISO/HEVC
Duration : 43 min 1 s
Bit rate : 546 kb/s
Width : 1 280 pixels
Height : 720 pixels
Display aspect ratio : 16:9
Frame rate mode : Constant
Frame rate : 23.976 (24000/1001) FPS
Color space : YUV
Chroma subsampling : 4:2:0
Bit depth : 8 bits
Bits/(Pixel*Frame) : 0.025
Stream size : 168 MiB (88%)
Default : Yes
Forced : No

Audio
ID : 2
Format : AAC
Format/Info : Advanced Audio Codec
Format profile : HE-AAC / LC
Format settings : Explicit
Codec ID : A_AAC-2
Duration : 43 min 0 s
Bit rate : 69.7 kb/s
Channel(s) : 2 channels
Channel positions : Front: L R
Sampling rate : 48.0 kHz / 24.0 kHz
Frame rate : 23.438 FPS (1024 SPF)
Compression mode : Lossy
Delay relative to video : 23 ms
Stream size : 21.4 MiB (11%)
Language : English
Default : Yes
Forced : No

Text #1
ID : 3
Format : UTF-8
Codec ID : S_TEXT/UTF8
Codec ID/Info : UTF-8 Plain Text
Duration : 42 min 23 s
Bit rate : 52 b/s
Count of elements : 585
Stream size : 16.2 KiB (0%)
Language : English
Default : Yes
Forced : No

Download

Direct download files get automatically deleted after a month or so. Posted on : 07/09/2018

[collapse]
Media Info and Download Links | S03E02

General
Format : Matroska
Format version : Version 4 / Version 2
File size : 222 MiB
Duration : 43 min 31 s
Overall bit rate : 714 kb/s
Movie name : Preacher.S03E02.Sonsabitches.720p.WEBRip.2CH.x265.HEVC
Encoded date : UTC 2018-07-02 11:42:28
Writing application : mkvmerge v24.0.0 (‘Beyond The Pale’) 32-bit
Writing library : libebml v1.3.6 + libmatroska v1.4.9

Video
ID : 1
Format : HEVC
Format/Info : High Efficiency Video Coding
Format profile : [email protected]@Main
Codec ID : V_MPEGH/ISO/HEVC
Duration : 43 min 31 s
Bit rate : 644 kb/s
Width : 1 280 pixels
Height : 720 pixels
Display aspect ratio : 16:9
Frame rate mode : Constant
Frame rate : 23.976 (24000/1001) FPS
Color space : YUV
Chroma subsampling : 4:2:0
Bit depth : 8 bits
Bits/(Pixel*Frame) : 0.029
Stream size : 201 MiB (90%)
Default : Yes
Forced : No

Audio
ID : 2
Format : AAC
Format/Info : Advanced Audio Codec
Format profile : HE-AAC / LC
Format settings : Explicit
Codec ID : A_AAC-2
Duration : 43 min 31 s
Bit rate : 68.2 kb/s
Channel(s) : 2 channels
Channel positions : Front: L R
Sampling rate : 48.0 kHz / 24.0 kHz
Frame rate : 23.438 FPS (1024 SPF)
Compression mode : Lossy
Delay relative to video : 23 ms
Stream size : 21.2 MiB (10%)
Language : English
Default : Yes
Forced : No

Text
ID : 3
Format : UTF-8
Codec ID : S_TEXT/UTF8
Codec ID/Info : UTF-8 Plain Text
Duration : 43 min 1 s
Bit rate : 60 b/s
Count of elements : 638
Stream size : 19.0 KiB (0%)
Language : English
Default : Yes
Forced : No

Download

Direct download files get automatically deleted after a month or so. Posted on : 07/02/2018

[collapse]
Media Info and Download Links | S03E01

General
Format : Matroska
Format version : Version 4 / Version 2
File size : 214 MiB
Duration : 41 min 55 s
Overall bit rate : 715 kb/s
Movie name : Preacher.S03E01.Angelville.720p.WEBRip.2CH.x265.HEVC
Encoded date : UTC 2018-06-25 12:54:58
Writing application : mkvmerge v24.0.0 (‘Beyond The Pale’) 32-bit
Writing library : libebml v1.3.6 + libmatroska v1.4.9

Video
ID : 1
Format : HEVC
Format/Info : High Efficiency Video Coding
Format profile : [email protected]@Main
Codec ID : V_MPEGH/ISO/HEVC
Duration : 41 min 55 s
Bit rate : 640 kb/s
Width : 1 280 pixels
Height : 720 pixels
Display aspect ratio : 16:9
Frame rate mode : Constant
Frame rate : 23.976 (24000/1001) FPS
Color space : YUV
Chroma subsampling : 4:2:0
Bit depth : 8 bits
Bits/(Pixel*Frame) : 0.029
Stream size : 192 MiB (89%)
Default : Yes
Forced : No

Audio
ID : 2
Format : AAC
Format/Info : Advanced Audio Codec
Format profile : HE-AAC / LC
Format settings : Explicit
Codec ID : A_AAC-2
Duration : 41 min 55 s
Bit rate : 72.0 kb/s
Channel(s) : 2 channels
Channel positions : Front: L R
Sampling rate : 48.0 kHz / 24.0 kHz
Frame rate : 23.438 FPS (1024 SPF)
Compression mode : Lossy
Delay relative to video : 23 ms
Stream size : 21.9 MiB (10%)
Language : English
Default : Yes
Forced : No

Text
ID : 3
Format : UTF-8
Codec ID : S_TEXT/UTF8
Codec ID/Info : UTF-8 Plain Text
Duration : 40 min 28 s
Bit rate : 45 b/s
Count of elements : 472
Stream size : 13.6 KiB (0%)
Language : English
Default : Yes
Forced : No

Download

Direct download files get automatically deleted after a month or so. Posted on : 06/25/2018

[collapse]

Magnet: Season02

Magnet

Preacher Season 2 (S02) Complete 1080p DD5.1 – 2.0 x264 Phun Psyz-6.3 GB

[collapse]
Magnet: Season01

Magnet

Preacher Season 1 S01 1080p WEB-DL 5.1 HEVC x265-GIRAYS-4.3 GB

[collapse]

You may also like...

error: nah :p~