Preacher

TV-MA | 1h | Adventure, Drama, Fantasy | TV Series (2016– )

After a supernatural event at his church, a preacher enlists the help of a vampire to find God.

Watch trailer

Details and Download | S03E10

General
Format : Matroska
Format version : Version 4 / Version 2
File size : 269 MiB
Duration : 53 min 6 s
Overall bit rate : 708 kb/s
Movie name : Preacher.S03E10.720p.HDTV.2CH.x265.HEVC
Encoded date : UTC 2018-08-27 09:24:00
Writing application : mkvmerge v26.0.0 (‘In The Game’) 32-bit
Writing library : libebml v1.3.6 + libmatroska v1.4.9

Video
ID : 1
Format : HEVC
Format/Info : High Efficiency Video Coding
Format profile : [email protected]@Main
Codec ID : V_MPEGH/ISO/HEVC
Duration : 53 min 6 s
Bit rate : 638 kb/s
Width : 1 280 pixels
Height : 720 pixels
Display aspect ratio : 16:9
Frame rate mode : Constant
Frame rate : 23.976 (24000/1001) FPS
Color space : YUV
Chroma subsampling : 4:2:0
Bit depth : 8 bits
Bits/(Pixel*Frame) : 0.029
Stream size : 242 MiB (90%)
Default : Yes
Forced : No

Audio
ID : 2
Format : AAC
Format/Info : Advanced Audio Codec
Format profile : HE-AAC / LC
Format settings : Explicit
Codec ID : A_AAC-2
Duration : 53 min 6 s
Bit rate : 68.2 kb/s
Channel(s) : 2 channels
Channel positions : Front: L R
Sampling rate : 48.0 kHz / 24.0 kHz
Frame rate : 23.438 FPS (1024 SPF)
Compression mode : Lossy
Delay relative to video : 23 ms
Stream size : 25.9 MiB (10%)
Language : English
Default : Yes
Forced : No

Text
ID : 3
Format : UTF-8
Codec ID : S_TEXT/UTF8
Codec ID/Info : UTF-8 Plain Text
Duration : 52 min 20 s
Bit rate : 49 b/s
Count of elements : 772
Stream size : 18.9 KiB (0%)
Language : English
Default : Yes
Forced : No

Download

Direct download files get automatically deleted after a month or so. Posted on : 08/27/2018

[collapse]
Details and Download | S03E09

General
Format : Matroska
Format version : Version 4 / Version 2
File size : 208 MiB
Duration : 40 min 10 s
Overall bit rate : 723 kb/s
Movie name : Preacher.S03E09.720p.HDTV.2CH.x265.HEVC
Encoded date : UTC 2018-08-20 08:07:11
Writing application : mkvmerge v25.0.0 (‘Prog Noir’) 32-bit
Writing library : libebml v1.3.6 + libmatroska v1.4.9

Video
ID : 1
Format : HEVC
Format/Info : High Efficiency Video Coding
Format profile : [email protected]@Main
Codec ID : V_MPEGH/ISO/HEVC
Duration : 40 min 10 s
Bit rate : 655 kb/s
Width : 1 280 pixels
Height : 720 pixels
Display aspect ratio : 16:9
Frame rate mode : Constant
Frame rate : 23.976 (24000/1001) FPS
Color space : YUV
Chroma subsampling : 4:2:0
Bit depth : 8 bits
Bits/(Pixel*Frame) : 0.030
Stream size : 188 MiB (91%)
Default : Yes
Forced : No

Audio
ID : 2
Format : AAC
Format/Info : Advanced Audio Codec
Format profile : HE-AAC / LC
Format settings : Explicit
Codec ID : A_AAC-2
Duration : 40 min 9 s
Bit rate : 66.2 kb/s
Channel(s) : 2 channels
Channel positions : Front: L R
Sampling rate : 48.0 kHz / 24.0 kHz
Frame rate : 23.438 FPS (1024 SPF)
Compression mode : Lossy
Delay relative to video : 23 ms
Stream size : 18.9 MiB (9%)
Language : English
Default : Yes
Forced : No

Text
ID : 3
Format : UTF-8
Codec ID : S_TEXT/UTF8
Codec ID/Info : UTF-8 Plain Text
Duration : 40 min 7 s
Bit rate : 58 b/s
Count of elements : 771
Stream size : 17.2 KiB (0%)
Default : Yes
Forced : No

Download

Direct download files get automatically deleted after a month or so. Posted on : 08/20/2018

[collapse]
Details and Download | S03E08

General
Format : Matroska
Format version : Version 4 / Version 2
File size : 208 MiB
Duration : 42 min 12 s
Overall bit rate : 688 kb/s
Movie name : Preacher.S03E08.The.Tom.Brady.720p.WEBRip.2CH.x265.HEVC
Encoded date : UTC 2018-08-13 16:22:53
Writing application : mkvmerge v25.0.0 (‘Prog Noir’) 32-bit
Writing library : libebml v1.3.6 + libmatroska v1.4.9

Video
ID : 1
Format : HEVC
Format/Info : High Efficiency Video Coding
Format profile : [email protected]@Main
Codec ID : V_MPEGH/ISO/HEVC
Duration : 42 min 12 s
Bit rate : 616 kb/s
Width : 1 280 pixels
Height : 720 pixels
Display aspect ratio : 16:9
Frame rate mode : Constant
Frame rate : 23.976 (24000/1001) FPS
Color space : YUV
Chroma subsampling : 4:2:0
Bit depth : 8 bits
Bits/(Pixel*Frame) : 0.028
Stream size : 186 MiB (90%)
Default : Yes
Forced : No

Audio
ID : 2
Format : AAC
Format/Info : Advanced Audio Codec
Format profile : HE-AAC / LC
Format settings : Explicit
Codec ID : A_AAC-2
Duration : 42 min 12 s
Bit rate : 69.6 kb/s
Channel(s) : 2 channels
Channel positions : Front: L R
Sampling rate : 48.0 kHz / 24.0 kHz
Frame rate : 23.438 FPS (1024 SPF)
Compression mode : Lossy
Delay relative to video : 23 ms
Stream size : 21.0 MiB (10%)
Language : English
Default : Yes
Forced : No

Text #1
ID : 3
Format : UTF-8
Codec ID : S_TEXT/UTF8
Codec ID/Info : UTF-8 Plain Text
Duration : 41 min 35 s
Bit rate : 55 b/s
Count of elements : 640
Stream size : 16.9 KiB (0%)
Language : English
Default : Yes
Forced : No

Text #2
ID : 4
Format : UTF-8
Codec ID : S_TEXT/UTF8
Codec ID/Info : UTF-8 Plain Text
Duration : 24 min 15 s
Bit rate : 2 b/s
Count of elements : 18
Stream size : 478 Bytes (0%)
Language : English
Default : No
Forced : Yes

Download

Direct download files get automatically deleted after a month or so. Posted on : 08/13/2018

[collapse]
Details and Download | S03E07

General
Format : Matroska
Format version : Version 4 / Version 2
File size : 207 MiB
Duration : 44 min 44 s
Overall bit rate : 648 kb/s
Movie name : Preacher.S03E07.Hilter.720p.WEBRip.2CH.x265.HEVC
Encoded date : UTC 2018-08-06 12:07:08
Writing application : mkvmerge v25.0.0 (‘Prog Noir’) 32-bit
Writing library : libebml v1.3.6 + libmatroska v1.4.9

Video
ID : 1
Format : HEVC
Format/Info : High Efficiency Video Coding
Format profile : [email protected]@Main
Codec ID : V_MPEGH/ISO/HEVC
Duration : 44 min 44 s
Bit rate : 580 kb/s
Width : 1 280 pixels
Height : 720 pixels
Display aspect ratio : 16:9
Frame rate mode : Constant
Frame rate : 23.976 (24000/1001) FPS
Color space : YUV
Chroma subsampling : 4:2:0
Bit depth : 8 bits
Bits/(Pixel*Frame) : 0.026
Stream size : 185 MiB (89%)
Default : Yes
Forced : No

Audio
ID : 2
Format : AAC
Format/Info : Advanced Audio Codec
Format profile : HE-AAC / LC
Format settings : Explicit
Codec ID : A_AAC-2
Duration : 44 min 43 s
Bit rate : 66.2 kb/s
Channel(s) : 2 channels
Channel positions : Front: L R
Sampling rate : 48.0 kHz / 24.0 kHz
Frame rate : 23.438 FPS (1024 SPF)
Compression mode : Lossy
Delay relative to video : 23 ms
Stream size : 21.2 MiB (10%)
Language : English
Default : Yes
Forced : No

Text
ID : 3
Format : UTF-8
Codec ID : S_TEXT/UTF8
Codec ID/Info : UTF-8 Plain Text
Duration : 44 min 5 s
Bit rate : 56 b/s
Count of elements : 693
Stream size : 18.2 KiB (0%)
Language : English
Default : Yes
Forced : No

Download

Direct download files get automatically deleted after a month or so. Posted on : 08/06/2018

[collapse]
Details and Download | S03E06

General
Format : Matroska
Format version : Version 4 / Version 2
File size : 168 MiB
Duration : 42 min 1 s
Overall bit rate : 558 kb/s
Movie name : Preacher.S03E06.Les.Enfants.du.Sang.720p.WEBRip.2CH.x265.HEVC
Encoded date : UTC 2018-07-30 10:19:15
Writing application : mkvmerge v25.0.0 (‘Prog Noir’) 32-bit
Writing library : libebml v1.3.6 + libmatroska v1.4.9

Video
ID : 1
Format : HEVC
Format/Info : High Efficiency Video Coding
Format profile : [email protected]@Main
Codec ID : V_MPEGH/ISO/HEVC
Duration : 42 min 1 s
Bit rate : 485 kb/s
Width : 1 280 pixels
Height : 720 pixels
Display aspect ratio : 16:9
Frame rate mode : Constant
Frame rate : 23.976 (24000/1001) FPS
Color space : YUV
Chroma subsampling : 4:2:0
Bit depth : 8 bits
Bits/(Pixel*Frame) : 0.022
Stream size : 146 MiB (87%)
Default : Yes
Forced : No

Audio
ID : 2
Format : AAC
Format/Info : Advanced Audio Codec
Format profile : HE-AAC / LC
Format settings : Explicit
Codec ID : A_AAC-2
Duration : 42 min 1 s
Bit rate : 67.5 kb/s
Channel(s) : 2 channels
Channel positions : Front: L R
Sampling rate : 48.0 kHz / 24.0 kHz
Frame rate : 23.438 FPS (1024 SPF)
Compression mode : Lossy
Delay relative to video : 23 ms
Stream size : 20.3 MiB (12%)
Language : English
Default : Yes
Forced : No

Text #1
ID : 3
Format : UTF-8
Codec ID : S_TEXT/UTF8
Codec ID/Info : UTF-8 Plain Text
Duration : 40 min 46 s
Bit rate : 63 b/s
Count of elements : 730
Stream size : 18.8 KiB (0%)
Language : English
Default : Yes
Forced : No

Text #2
ID : 4
Format : UTF-8
Codec ID : S_TEXT/UTF8
Codec ID/Info : UTF-8 Plain Text
Duration : 3 min 40 s
Bit rate : 32 b/s
Count of elements : 38
Stream size : 883 Bytes (0%)
Language : English
Default : No
Forced : Yes

Text #3
ID : 5
Format : UTF-8
Codec ID : S_TEXT/UTF8
Codec ID/Info : UTF-8 Plain Text
Duration : 41 min 15 s
Bit rate : 78 b/s
Count of elements : 575
Stream size : 23.8 KiB (0%)
Language : Arabic
Default : No
Forced : No

Text #4
ID : 6
Format : UTF-8
Codec ID : S_TEXT/UTF8
Codec ID/Info : UTF-8 Plain Text
Duration : 41 min 15 s
Bit rate : 136 b/s
Count of elements : 575
Stream size : 41.2 KiB (0%)
Language : Bengali
Default : No
Forced : No

Text #5
ID : 7
Format : UTF-8
Codec ID : S_TEXT/UTF8
Codec ID/Info : UTF-8 Plain Text
Duration : 41 min 15 s
Bit rate : 49 b/s
Count of elements : 575
Stream size : 15.0 KiB (0%)
Language : Chinese
Default : No
Forced : No

Text #6
ID : 8
Format : UTF-8
Codec ID : S_TEXT/UTF8
Codec ID/Info : UTF-8 Plain Text
Duration : 41 min 15 s
Bit rate : 49 b/s
Count of elements : 575
Stream size : 15.0 KiB (0%)
Language : Chinese
Default : No
Forced : No

Text #7
ID : 9
Format : UTF-8
Codec ID : S_TEXT/UTF8
Codec ID/Info : UTF-8 Plain Text
Duration : 41 min 15 s
Bit rate : 55 b/s
Count of elements : 571
Stream size : 16.7 KiB (0%)
Language : Dutch
Default : No
Forced : No

Text #8
ID : 10
Format : UTF-8
Codec ID : S_TEXT/UTF8
Codec ID/Info : UTF-8 Plain Text
Duration : 41 min 15 s
Bit rate : 57 b/s
Count of elements : 573
Stream size : 17.4 KiB (0%)
Language : French
Default : No
Forced : No

Text #9
ID : 11
Format : UTF-8
Codec ID : S_TEXT/UTF8
Codec ID/Info : UTF-8 Plain Text
Duration : 41 min 15 s
Bit rate : 57 b/s
Count of elements : 572
Stream size : 17.4 KiB (0%)
Language : German
Default : No
Forced : No

Text #10
ID : 12
Format : UTF-8
Codec ID : S_TEXT/UTF8
Codec ID/Info : UTF-8 Plain Text
Duration : 41 min 15 s
Bit rate : 157 b/s
Count of elements : 575
Stream size : 47.7 KiB (0%)
Language : Hindi
Default : No
Forced : No

Text #11
ID : 13
Format : UTF-8
Codec ID : S_TEXT/UTF8
Codec ID/Info : UTF-8 Plain Text
Duration : 41 min 15 s
Bit rate : 53 b/s
Count of elements : 572
Stream size : 16.2 KiB (0%)
Language : Indonesian
Default : No
Forced : No

Text #12
ID : 14
Format : UTF-8
Codec ID : S_TEXT/UTF8
Codec ID/Info : UTF-8 Plain Text
Duration : 41 min 15 s
Bit rate : 54 b/s
Count of elements : 572
Stream size : 16.4 KiB (0%)
Language : Italian
Default : No
Forced : No

Text #13
ID : 15
Format : UTF-8
Codec ID : S_TEXT/UTF8
Codec ID/Info : UTF-8 Plain Text
Duration : 41 min 17 s
Bit rate : 48 b/s
Count of elements : 549
Stream size : 14.7 KiB (0%)
Language : Japanese
Default : No
Forced : No

Text #14
ID : 16
Format : UTF-8
Codec ID : S_TEXT/UTF8
Codec ID/Info : UTF-8 Plain Text
Duration : 41 min 15 s
Bit rate : 64 b/s
Count of elements : 576
Stream size : 19.5 KiB (0%)
Language : Korean
Default : No
Forced : No

Text #15
ID : 17
Format : UTF-8
Codec ID : S_TEXT/UTF8
Codec ID/Info : UTF-8 Plain Text
Duration : 41 min 15 s
Bit rate : 130 b/s
Count of elements : 575
Stream size : 39.4 KiB (0%)
Language : Marathi
Default : No
Forced : No

Text #16
ID : 18
Format : UTF-8
Codec ID : S_TEXT/UTF8
Codec ID/Info : UTF-8 Plain Text
Duration : 41 min 15 s
Bit rate : 52 b/s
Count of elements : 566
Stream size : 16.0 KiB (0%)
Language : Polish
Default : No
Forced : No

Text #17
ID : 19
Format : UTF-8
Codec ID : S_TEXT/UTF8
Codec ID/Info : UTF-8 Plain Text
Duration : 41 min 15 s
Bit rate : 53 b/s
Count of elements : 572
Stream size : 16.2 KiB (0%)
Language : Portuguese
Default : No
Forced : No

Text #18
ID : 20
Format : UTF-8
Codec ID : S_TEXT/UTF8
Codec ID/Info : UTF-8 Plain Text
Duration : 41 min 15 s
Bit rate : 52 b/s
Count of elements : 574
Stream size : 15.9 KiB (0%)
Language : Portuguese
Default : No
Forced : No

Text #19
ID : 21
Format : UTF-8
Codec ID : S_TEXT/UTF8
Codec ID/Info : UTF-8 Plain Text
Duration : 41 min 15 s
Bit rate : 85 b/s
Count of elements : 575
Stream size : 25.8 KiB (0%)
Language : Russian
Default : No
Forced : No

Text #20
ID : 22
Format : UTF-8
Codec ID : S_TEXT/UTF8
Codec ID/Info : UTF-8 Plain Text
Duration : 41 min 15 s
Bit rate : 53 b/s
Count of elements : 573
Stream size : 16.2 KiB (0%)
Language : Spanish
Default : No
Forced : No

Text #21
ID : 23
Format : UTF-8
Codec ID : S_TEXT/UTF8
Codec ID/Info : UTF-8 Plain Text
Duration : 41 min 15 s
Bit rate : 57 b/s
Count of elements : 575
Stream size : 17.4 KiB (0%)
Language : Spanish
Default : No
Forced : No

Text #22
ID : 24
Format : UTF-8
Codec ID : S_TEXT/UTF8
Codec ID/Info : UTF-8 Plain Text
Duration : 41 min 15 s
Bit rate : 141 b/s
Count of elements : 575
Stream size : 42.8 KiB (0%)
Language : Telugu
Default : No
Forced : No

Text #23
ID : 25
Format : UTF-8
Codec ID : S_TEXT/UTF8
Codec ID/Info : UTF-8 Plain Text
Duration : 41 min 15 s
Bit rate : 56 b/s
Count of elements : 573
Stream size : 17.1 KiB (0%)
Language : Turkish
Default : No
Forced : No

Download

Direct download files get automatically deleted after a month or so. Posted on : 07/30/2018

[collapse]
Details and Download | S03E05

General
Format : Matroska
Format version : Version 4 / Version 2
File size : 202 MiB
Duration : 45 min 13 s
Overall bit rate : 624 kb/s
Movie name : Preacher.S03E05.The.Coffin.720p.WEBRip.2CH.x265.HEVC
Encoded date : UTC 2018-07-23 11:43:19
Writing application : mkvmerge v25.0.0 (‘Prog Noir’) 32-bit
Writing library : libebml v1.3.6 + libmatroska v1.4.9

Video
ID : 1
Format : HEVC
Format/Info : High Efficiency Video Coding
Format profile : [email protected]@Main
Codec ID : V_MPEGH/ISO/HEVC
Duration : 45 min 13 s
Bit rate : 551 kb/s
Width : 1 280 pixels
Height : 720 pixels
Display aspect ratio : 16:9
Frame rate mode : Constant
Frame rate : 23.976 (24000/1001) FPS
Color space : YUV
Chroma subsampling : 4:2:0
Bit depth : 8 bits
Bits/(Pixel*Frame) : 0.025
Stream size : 178 MiB (88%)
Default : Yes
Forced : No

Audio
ID : 2
Format : AAC
Format/Info : Advanced Audio Codec
Format profile : HE-AAC / LC
Format settings : Explicit
Codec ID : A_AAC-2
Duration : 45 min 12 s
Bit rate : 69.3 kb/s
Channel(s) : 2 channels
Channel positions : Front: L R
Sampling rate : 48.0 kHz / 24.0 kHz
Frame rate : 23.438 FPS (1024 SPF)
Compression mode : Lossy
Delay relative to video : 23 ms
Stream size : 22.4 MiB (11%)
Language : English
Default : Yes
Forced : No

Text #1
ID : 3
Format : UTF-8
Codec ID : S_TEXT/UTF8
Codec ID/Info : UTF-8 Plain Text
Duration : 44 min 35 s
Bit rate : 51 b/s
Count of elements : 719
Stream size : 16.7 KiB (0%)
Language : English
Default : Yes
Forced : No

Text #2
ID : 4
Format : UTF-8
Codec ID : S_TEXT/UTF8
Codec ID/Info : UTF-8 Plain Text
Duration : 44 min 12 s
Bit rate : 58 b/s
Count of elements : 424
Stream size : 18.9 KiB (0%)
Language : Arabic
Default : No
Forced : No

Text #3
ID : 5
Format : UTF-8
Codec ID : S_TEXT/UTF8
Codec ID/Info : UTF-8 Plain Text
Duration : 44 min 12 s
Bit rate : 104 b/s
Count of elements : 426
Stream size : 33.8 KiB (0%)
Language : Bengali
Default : No
Forced : No

Text #4
ID : 6
Format : UTF-8
Codec ID : S_TEXT/UTF8
Codec ID/Info : UTF-8 Plain Text
Duration : 44 min 12 s
Bit rate : 36 b/s
Count of elements : 426
Stream size : 11.9 KiB (0%)
Language : Chinese
Default : No
Forced : No

Text #5
ID : 7
Format : UTF-8
Codec ID : S_TEXT/UTF8
Codec ID/Info : UTF-8 Plain Text
Duration : 44 min 12 s
Bit rate : 33 b/s
Count of elements : 425
Stream size : 10.9 KiB (0%)
Language : Chinese
Default : No
Forced : No

Text #6
ID : 8
Format : UTF-8
Codec ID : S_TEXT/UTF8
Codec ID/Info : UTF-8 Plain Text
Duration : 44 min 12 s
Bit rate : 37 b/s
Count of elements : 413
Stream size : 12.3 KiB (0%)
Language : Dutch
Default : No
Forced : No

Text #7
ID : 9
Format : UTF-8
Codec ID : S_TEXT/UTF8
Codec ID/Info : UTF-8 Plain Text
Duration : 44 min 12 s
Bit rate : 42 b/s
Count of elements : 422
Stream size : 13.8 KiB (0%)
Language : French
Default : No
Forced : No

Text #8
ID : 10
Format : UTF-8
Codec ID : S_TEXT/UTF8
Codec ID/Info : UTF-8 Plain Text
Duration : 44 min 12 s
Bit rate : 42 b/s
Count of elements : 421
Stream size : 13.8 KiB (0%)
Language : German
Default : No
Forced : No

Text #9
ID : 11
Format : UTF-8
Codec ID : S_TEXT/UTF8
Codec ID/Info : UTF-8 Plain Text
Duration : 44 min 12 s
Bit rate : 95 b/s
Count of elements : 426
Stream size : 30.9 KiB (0%)
Language : Hindi
Default : No
Forced : No

Text #10
ID : 12
Format : UTF-8
Codec ID : S_TEXT/UTF8
Codec ID/Info : UTF-8 Plain Text
Duration : 44 min 12 s
Bit rate : 37 b/s
Count of elements : 422
Stream size : 12.1 KiB (0%)
Language : Indonesian
Default : No
Forced : No

Text #11
ID : 13
Format : UTF-8
Codec ID : S_TEXT/UTF8
Codec ID/Info : UTF-8 Plain Text
Duration : 44 min 12 s
Bit rate : 39 b/s
Count of elements : 422
Stream size : 12.8 KiB (0%)
Language : Italian
Default : No
Forced : No

Text #12
ID : 14
Format : UTF-8
Codec ID : S_TEXT/UTF8
Codec ID/Info : UTF-8 Plain Text
Duration : 44 min 3 s
Bit rate : 38 b/s
Count of elements : 472
Stream size : 12.4 KiB (0%)
Language : Japanese
Default : No
Forced : No

Text #13
ID : 15
Format : UTF-8
Codec ID : S_TEXT/UTF8
Codec ID/Info : UTF-8 Plain Text
Duration : 44 min 12 s
Bit rate : 43 b/s
Count of elements : 427
Stream size : 14.2 KiB (0%)
Language : Korean
Default : No
Forced : No

Text #14
ID : 16
Format : UTF-8
Codec ID : S_TEXT/UTF8
Codec ID/Info : UTF-8 Plain Text
Duration : 44 min 12 s
Bit rate : 100 b/s
Count of elements : 426
Stream size : 32.7 KiB (0%)
Language : Marathi
Default : No
Forced : No

Text #15
ID : 17
Format : UTF-8
Codec ID : S_TEXT/UTF8
Codec ID/Info : UTF-8 Plain Text
Duration : 44 min 12 s
Bit rate : 36 b/s
Count of elements : 420
Stream size : 11.7 KiB (0%)
Language : Polish
Default : No
Forced : No

Text #16
ID : 18
Format : UTF-8
Codec ID : S_TEXT/UTF8
Codec ID/Info : UTF-8 Plain Text
Duration : 44 min 12 s
Bit rate : 38 b/s
Count of elements : 420
Stream size : 12.4 KiB (0%)
Language : Portuguese
Default : No
Forced : No

Text #17
ID : 19
Format : UTF-8
Codec ID : S_TEXT/UTF8
Codec ID/Info : UTF-8 Plain Text
Duration : 44 min 12 s
Bit rate : 40 b/s
Count of elements : 421
Stream size : 13.3 KiB (0%)
Language : Portuguese
Default : No
Forced : No

Text #18
ID : 20
Format : UTF-8
Codec ID : S_TEXT/UTF8
Codec ID/Info : UTF-8 Plain Text
Duration : 44 min 12 s
Bit rate : 65 b/s
Count of elements : 427
Stream size : 21.3 KiB (0%)
Language : Russian
Default : No
Forced : No

Text #19
ID : 21
Format : UTF-8
Codec ID : S_TEXT/UTF8
Codec ID/Info : UTF-8 Plain Text
Duration : 44 min 12 s
Bit rate : 38 b/s
Count of elements : 411
Stream size : 12.6 KiB (0%)
Language : Spanish
Default : No
Forced : No

Text #20
ID : 22
Format : UTF-8
Codec ID : S_TEXT/UTF8
Codec ID/Info : UTF-8 Plain Text
Duration : 44 min 12 s
Bit rate : 41 b/s
Count of elements : 424
Stream size : 13.3 KiB (0%)
Language : Spanish
Default : No
Forced : No

Text #21
ID : 23
Format : UTF-8
Codec ID : S_TEXT/UTF8
Codec ID/Info : UTF-8 Plain Text
Duration : 44 min 12 s
Bit rate : 101 b/s
Count of elements : 426
Stream size : 32.9 KiB (0%)
Language : Telugu
Default : No
Forced : No

Text #22
ID : 24
Format : UTF-8
Codec ID : S_TEXT/UTF8
Codec ID/Info : UTF-8 Plain Text
Duration : 44 min 12 s
Bit rate : 42 b/s
Count of elements : 422
Stream size : 13.9 KiB (0%)
Language : Turkish
Default : No
Forced : No

Download

Direct download files get automatically deleted after a month or so. Posted on : 07/23/2018

[collapse]
Details and Download | S03E04

General
Format : Matroska
Format version : Version 4 / Version 2
File size : 190 MiB
Duration : 42 min 27 s
Overall bit rate : 625 kb/s
Movie name : Preacher.S03E04.The.Tombs.720p.WEBRip.2CH.x265.HEVC
Encoded date : UTC 2018-07-16 10:25:15
Writing application : mkvmerge v25.0.0 (‘Prog Noir’) 32-bit
Writing library : libebml v1.3.6 + libmatroska v1.4.9

Video
ID : 1
Format : HEVC
Format/Info : High Efficiency Video Coding
Format profile : [email protected]@Main
Codec ID : V_MPEGH/ISO/HEVC
Duration : 42 min 27 s
Bit rate : 558 kb/s
Width : 1 280 pixels
Height : 720 pixels
Display aspect ratio : 16:9
Frame rate mode : Constant
Frame rate : 23.976 (24000/1001) FPS
Color space : YUV
Chroma subsampling : 4:2:0
Bit depth : 8 bits
Bits/(Pixel*Frame) : 0.025
Stream size : 169 MiB (89%)
Default : Yes
Forced : No

Audio
ID : 2
Format : AAC
Format/Info : Advanced Audio Codec
Format profile : HE-AAC / LC
Format settings : Explicit
Codec ID : A_AAC-2
Duration : 42 min 27 s
Bit rate : 66.2 kb/s
Channel(s) : 2 channels
Channel positions : Front: L R
Sampling rate : 48.0 kHz / 24.0 kHz
Frame rate : 23.438 FPS (1024 SPF)
Compression mode : Lossy
Delay relative to video : 23 ms
Stream size : 19.9 MiB (10%)
Language : English
Default : Yes
Forced : No

Text
ID : 3
Format : UTF-8
Codec ID : S_TEXT/UTF8
Codec ID/Info : UTF-8 Plain Text
Duration : 41 min 22 s
Bit rate : 55 b/s
Count of elements : 654
Stream size : 16.7 KiB (0%)
Language : English
Default : Yes
Forced : No

Download

Direct download files get automatically deleted after a month or so. Posted on : 07/16/2018

[collapse]
Details and Download | S03E03

General
Format : Matroska
Format version : Version 4 / Version 2
File size : 191 MiB
Duration : 43 min 1 s
Overall bit rate : 621 kb/s
Movie name : Preacher.S03E03.Gonna.Hurt.720p.WEBRip.2CH.x265.HEVC
Encoded date : UTC 2018-07-09 10:39:59
Writing application : mkvmerge v24.0.0 (‘Beyond The Pale’) 32-bit
Writing library : libebml v1.3.6 + libmatroska v1.4.9

Video
ID : 1
Format : HEVC
Format/Info : High Efficiency Video Coding
Format profile : [email protected]@Main
Codec ID : V_MPEGH/ISO/HEVC
Duration : 43 min 1 s
Bit rate : 546 kb/s
Width : 1 280 pixels
Height : 720 pixels
Display aspect ratio : 16:9
Frame rate mode : Constant
Frame rate : 23.976 (24000/1001) FPS
Color space : YUV
Chroma subsampling : 4:2:0
Bit depth : 8 bits
Bits/(Pixel*Frame) : 0.025
Stream size : 168 MiB (88%)
Default : Yes
Forced : No

Audio
ID : 2
Format : AAC
Format/Info : Advanced Audio Codec
Format profile : HE-AAC / LC
Format settings : Explicit
Codec ID : A_AAC-2
Duration : 43 min 0 s
Bit rate : 69.7 kb/s
Channel(s) : 2 channels
Channel positions : Front: L R
Sampling rate : 48.0 kHz / 24.0 kHz
Frame rate : 23.438 FPS (1024 SPF)
Compression mode : Lossy
Delay relative to video : 23 ms
Stream size : 21.4 MiB (11%)
Language : English
Default : Yes
Forced : No

Text #1
ID : 3
Format : UTF-8
Codec ID : S_TEXT/UTF8
Codec ID/Info : UTF-8 Plain Text
Duration : 42 min 23 s
Bit rate : 52 b/s
Count of elements : 585
Stream size : 16.2 KiB (0%)
Language : English
Default : Yes
Forced : No

Download

Direct download files get automatically deleted after a month or so. Posted on : 07/09/2018

[collapse]
Details and Download | S03E02

General
Format : Matroska
Format version : Version 4 / Version 2
File size : 222 MiB
Duration : 43 min 31 s
Overall bit rate : 714 kb/s
Movie name : Preacher.S03E02.Sonsabitches.720p.WEBRip.2CH.x265.HEVC
Encoded date : UTC 2018-07-02 11:42:28
Writing application : mkvmerge v24.0.0 (‘Beyond The Pale’) 32-bit
Writing library : libebml v1.3.6 + libmatroska v1.4.9

Video
ID : 1
Format : HEVC
Format/Info : High Efficiency Video Coding
Format profile : [email protected]@Main
Codec ID : V_MPEGH/ISO/HEVC
Duration : 43 min 31 s
Bit rate : 644 kb/s
Width : 1 280 pixels
Height : 720 pixels
Display aspect ratio : 16:9
Frame rate mode : Constant
Frame rate : 23.976 (24000/1001) FPS
Color space : YUV
Chroma subsampling : 4:2:0
Bit depth : 8 bits
Bits/(Pixel*Frame) : 0.029
Stream size : 201 MiB (90%)
Default : Yes
Forced : No

Audio
ID : 2
Format : AAC
Format/Info : Advanced Audio Codec
Format profile : HE-AAC / LC
Format settings : Explicit
Codec ID : A_AAC-2
Duration : 43 min 31 s
Bit rate : 68.2 kb/s
Channel(s) : 2 channels
Channel positions : Front: L R
Sampling rate : 48.0 kHz / 24.0 kHz
Frame rate : 23.438 FPS (1024 SPF)
Compression mode : Lossy
Delay relative to video : 23 ms
Stream size : 21.2 MiB (10%)
Language : English
Default : Yes
Forced : No

Text
ID : 3
Format : UTF-8
Codec ID : S_TEXT/UTF8
Codec ID/Info : UTF-8 Plain Text
Duration : 43 min 1 s
Bit rate : 60 b/s
Count of elements : 638
Stream size : 19.0 KiB (0%)
Language : English
Default : Yes
Forced : No

Download

Direct download files get automatically deleted after a month or so. Posted on : 07/02/2018

[collapse]
Details and Download | S03E01

General
Format : Matroska
Format version : Version 4 / Version 2
File size : 214 MiB
Duration : 41 min 55 s
Overall bit rate : 715 kb/s
Movie name : Preacher.S03E01.Angelville.720p.WEBRip.2CH.x265.HEVC
Encoded date : UTC 2018-06-25 12:54:58
Writing application : mkvmerge v24.0.0 (‘Beyond The Pale’) 32-bit
Writing library : libebml v1.3.6 + libmatroska v1.4.9

Video
ID : 1
Format : HEVC
Format/Info : High Efficiency Video Coding
Format profile : [email protected]@Main
Codec ID : V_MPEGH/ISO/HEVC
Duration : 41 min 55 s
Bit rate : 640 kb/s
Width : 1 280 pixels
Height : 720 pixels
Display aspect ratio : 16:9
Frame rate mode : Constant
Frame rate : 23.976 (24000/1001) FPS
Color space : YUV
Chroma subsampling : 4:2:0
Bit depth : 8 bits
Bits/(Pixel*Frame) : 0.029
Stream size : 192 MiB (89%)
Default : Yes
Forced : No

Audio
ID : 2
Format : AAC
Format/Info : Advanced Audio Codec
Format profile : HE-AAC / LC
Format settings : Explicit
Codec ID : A_AAC-2
Duration : 41 min 55 s
Bit rate : 72.0 kb/s
Channel(s) : 2 channels
Channel positions : Front: L R
Sampling rate : 48.0 kHz / 24.0 kHz
Frame rate : 23.438 FPS (1024 SPF)
Compression mode : Lossy
Delay relative to video : 23 ms
Stream size : 21.9 MiB (10%)
Language : English
Default : Yes
Forced : No

Text
ID : 3
Format : UTF-8
Codec ID : S_TEXT/UTF8
Codec ID/Info : UTF-8 Plain Text
Duration : 40 min 28 s
Bit rate : 45 b/s
Count of elements : 472
Stream size : 13.6 KiB (0%)
Language : English
Default : Yes
Forced : No

Download

Direct download files get automatically deleted after a month or so. Posted on : 06/25/2018

[collapse]

Magnet: Season02

Magnet

Preacher Season 2 (S02) Complete 1080p DD5.1 – 2.0 x264 Phun Psyz-6.3 GB

[collapse]
Magnet: Season01

Magnet

Preacher Season 1 S01 1080p WEB-DL 5.1 HEVC x265-GIRAYS-4.3 GB

[collapse]

You may also like...

error: nah :p~