Savage X Fenty Show (2019)

TV-MA | Biography, Music | TV Special 20 September 2019

The Savage X Fenty Show gives a look into Rihanna’s creative process for her latest lingerie collection. Modeled by incredible, diverse talent; celebrating all genders and sizes; and featuring performances by the hottest music artists.

Official Website

Watch trailer

Media information

General
Format : Matroska
Format version : Version 4
File size : 453 MiB
Duration : 50 min 53 s
Overall bit rate : 1 245 kb/s
Movie name : Savage.X.Fenty.Show.2019.720p.WEB-DL.2CH.x264.AVC
Encoded date : UTC 2019-09-29 18:19:57
Writing application : mkvmerge v37.0.0 (‘Leave It’) 32-bit
Writing library : libebml v1.3.9 + libmatroska v1.5.2

Video
ID : 1
Format : AVC
Format/Info : Advanced Video Codec
Format profile : [email protected]
Format settings : CABAC / 4 Ref Frames
Format settings, CABAC : Yes
Format settings, Reference frames : 4 frames
Codec ID : V_MPEG4/ISO/AVC
Duration : 50 min 53 s
Bit rate : 1 100 kb/s
Width : 1 280 pixels
Height : 720 pixels
Display aspect ratio : 16:9
Frame rate mode : Constant
Frame rate : 23.976 (24000/1001) FPS
Color space : YUV
Chroma subsampling : 4:2:0
Bit depth : 8 bits
Scan type : Progressive
Bits/(Pixel*Frame) : 0.050
Stream size : 406 MiB (90%)
Default : Yes
Forced : No
Color range : Limited
Color primaries : BT.709
Transfer characteristics : BT.709
Matrix coefficients : BT.709

Audio
ID : 2
Format : AAC LC
Codec ID : A_AAC-2
Duration : 50 min 53 s
Bit rate : 128 kb/s
Channel(s) : 2 channels
Channel layout : L R
Sampling rate : 48.0 kHz
Frame rate : 46.875 FPS (1024 SPF)
Compression mode : Lossy
Delay relative to video : -21 ms
Stream size : 46.5 MiB (10%)
Language : English
Default : Yes
Forced : No

Text
ID : 3
Format : ASS
Codec ID : S_TEXT/ASS
Duration : 50 min 27 s
Bit rate : 184 b/s
Count of elements : 1296
Compression mode : Lossless
Stream size : 68.2 KiB (0%)
Language : English
Default : Yes
Forced : No

[collapse]
Download Link(s)

Download

Direct download files get automatically deleted after a month or so. Posted on : 09/29/2019

[collapse]
Magnet Link

Magnet

Savage.X.Fenty.Show.2019.1080p.AMZN.WEBRip.DDP5.1.x264-NTG-3.61 GB

[collapse]

You may also like...

error: nah :p~