Succession

Drama | TV Series (2018– )

Succession that follows a dysfunctional American global-media family.

Watch trailer

Media Info and Download Links | S02E02

General
Format : Matroska
Format version : Version 4
File size : 325 MiB
Duration : 1 h 0 min
Overall bit rate : 758 kb/s
Movie name : Succession.S02E02.Vaulter.720p.WEBRip.2CH.x265.HEVC
Encoded date : UTC 2019-08-19 19:46:53
Writing application : mkvmerge v36.0.0 (‘Is That Jazz?’) 32-bit
Writing library : libebml v1.3.9 + libmatroska v1.5.2

Video
ID : 1
Format : HEVC
Format/Info : High Efficiency Video Coding
Format profile : [email protected]@Main
Codec ID : V_MPEGH/ISO/HEVC
Duration : 1 h 0 min
Bit rate : 692 kb/s
Width : 1 280 pixels
Height : 720 pixels
Display aspect ratio : 16:9
Frame rate mode : Constant
Frame rate : 23.976 (24000/1001) FPS
Color space : YUV
Chroma subsampling : 4:2:0
Bit depth : 8 bits
Bits/(Pixel*Frame) : 0.031
Stream size : 297 MiB (91%)
Default : Yes
Forced : No

Audio
ID : 2
Format : AAC LC SBR
Commercial name : HE-AAC
Format settings : Explicit
Codec ID : A_AAC-2
Duration : 1 h 0 min
Bit rate : 63.7 kb/s
Channel(s) : 2 channels
Channel layout : L R
Sampling rate : 48.0 kHz
Frame rate : 23.438 FPS (2048 SPF)
Compression mode : Lossy
Delay relative to video : 23 ms
Stream size : 27.4 MiB (8%)
Language : English
Default : Yes
Forced : No

Text
ID : 3
Format : UTF-8
Codec ID : S_TEXT/UTF8
Codec ID/Info : UTF-8 Plain Text
Duration : 1 h 0 min
Bit rate : 96 b/s
Count of elements : 1437
Stream size : 42.5 KiB (0%)
Language : English
Default : Yes
Forced : No

Download

Direct download files get automatically deleted after a month or so. Posted on : 08/19/2019

[collapse]
Media Info and Download Links | S02E01

General
Format : Matroska
Format version : Version 4
File size : 312 MiB
Duration : 1 h 5 min
Overall bit rate : 670 kb/s
Movie name : Succession.S02E01.The.Summer.Palace.720p.WEBRip.2CH.x265.HEVC
Encoded date : UTC 2019-08-12 06:18:08
Writing application : mkvmerge v36.0.0 (‘Is That Jazz?’) 32-bit
Writing library : libebml v1.3.9 + libmatroska v1.5.2

Video
ID : 1
Format : HEVC
Format/Info : High Efficiency Video Coding
Format profile : [email protected]@Main
Codec ID : V_MPEGH/ISO/HEVC
Duration : 1 h 5 min
Bit rate : 603 kb/s
Width : 1 280 pixels
Height : 720 pixels
Display aspect ratio : 16:9
Frame rate mode : Constant
Frame rate : 23.976 (24000/1001) FPS
Color space : YUV
Chroma subsampling : 4:2:0
Bit depth : 8 bits
Bits/(Pixel*Frame) : 0.027
Stream size : 281 MiB (90%)
Default : Yes
Forced : No

Audio
ID : 2
Format : AAC LC SBR
Commercial name : HE-AAC
Format settings : Explicit
Codec ID : A_AAC-2
Duration : 1 h 5 min
Bit rate : 66.2 kb/s
Channel(s) : 2 channels
Channel layout : L R
Sampling rate : 48.0 kHz
Frame rate : 23.438 FPS (2048 SPF)
Compression mode : Lossy
Delay relative to video : 23 ms
Stream size : 30.4 MiB (10%)
Language : English
Default : Yes
Forced : No

Text
ID : 3
Format : UTF-8
Codec ID : S_TEXT/UTF8
Codec ID/Info : UTF-8 Plain Text
Duration : 1 h 5 min
Bit rate : 84 b/s
Count of elements : 1230
Stream size : 40.3 KiB (0%)
Language : English
Default : Yes
Forced : No

Download

Direct download files get automatically deleted after a month or so. Posted on : 08/12/2019

[collapse]

Media Info and Download Links | S01 COMPLETE

Average Media Info:
General
Format : Matroska
Format version : Version 4 / Version 2
Overall bit rate : 663 kb/s
Encoded date : UTC 2018-07-02 08:54:50
Writing application : mkvmerge v24.0.0 (‘Beyond The Pale’) 32-bit
Writing library : libebml v1.3.6 + libmatroska v1.4.9

Video
ID : 1
Format : HEVC
Format/Info : High Efficiency Video Coding
Format profile : [email protected]@Main
Codec ID : V_MPEGH/ISO/HEVC
Bit rate : 597 kb/s
Width : 1 280 pixels
Height : 720 pixels
Display aspect ratio : 16:9
Frame rate mode : Constant
Frame rate : 23.976 (24000/1001) FPS
Color space : YUV
Chroma subsampling : 4:2:0
Bit depth : 8 bits
Bits/(Pixel*Frame) : 0.027
Default : Yes
Forced : No

Audio
ID : 2
Format : AAC
Format/Info : Advanced Audio Codec
Format profile : HE-AAC / LC
Format settings : Explicit
Codec ID : A_AAC-2
Bit rate : 64.6 kb/s
Channel(s) : 2 channels
Channel positions : Front: L R
Sampling rate : 48.0 kHz / 24.0 kHz
Frame rate : 23.438 FPS (1024 SPF)
Compression mode : Lossy
Delay relative to video : 23 ms
Language : English
Default : Yes
Forced : No

Text
ID : 3
Format : UTF-8
Codec ID : S_TEXT/UTF8
Codec ID/Info : UTF-8 Plain Text
Bit rate : 86 b/s
Count of elements : 1167
Language : English
Default : Yes
Forced : No

Part01 Part02 Part03

Direct download files get automatically deleted after a month or so. Posted on : 08/13/2019

File size : 2.75 GB (2,953,715,712 bytes)

[collapse]
Magnet

Magnet

Succession.S01.720p.AMZN.WEBRip.DDP5.1.x264-NTb-13.41 GB

[collapse]

You may also like...

error: nah :p~