Tehran

TV-MA | 45min | Drama, Thriller | TV Series (2020– )

A Mossad agent embarks on her first mission as a computer hacker in her home town of Tehran.

Watch trailer

Media Info and Download Links | S01E06

General
Format : Matroska
Format version : Version 4
File size : 226 MiB
Duration : 47 min 46 s
Overall bit rate : 662 kb/s
Movie name : Tehran.S01E06.The.Engineer.720p.10bit.WEBRip.2CH.x265.HEVC

Video
ID : 1
Format : HEVC
Format/Info : High Efficiency Video Coding
Format profile : Main [email protected]@Main
Codec ID : V_MPEGH/ISO/HEVC
Duration : 47 min 46 s
Bit rate : 501 kb/s
Width : 1 280 pixels
Height : 536 pixels
Display aspect ratio : 2.40:1
Frame rate mode : Constant
Frame rate : 23.976 (24000/1001) FPS
Color space : YUV
Chroma subsampling : 4:2:0
Bit depth : 10 bits
Bits/(Pixel*Frame) : 0.030
Stream size : 171 MiB (76%)
Default : Yes
Forced : No
Color range : Limited
Color primaries : BT.709
Transfer characteristics : BT.709
Matrix coefficients : BT.709

Audio
ID : 2
Format : AAC LC
Codec ID : A_AAC-2
Duration : 47 min 46 s
Bit rate : 159 kb/s
Channel(s) : 2 channels
Channel layout : L R
Sampling rate : 48.0 kHz
Frame rate : 46.875 FPS (1024 SPF)
Compression mode : Lossy
Delay relative to video : -21 ms
Stream size : 54.3 MiB (24%)
Language : Hebrew
Default : Yes
Forced : No

Text
ID : 3
Format : UTF-8
Codec ID : S_TEXT/UTF8
Codec ID/Info : UTF-8 Plain Text
Duration : 44 min 23 s
Bit rate : 38 b/s
Count of elements : 391
Stream size : 12.4 KiB (0%)
Language : English
Default : Yes
Forced : No

Download

Direct download files get automatically deleted after a month or so. Posted on : 10/20/2020

[collapse]
Media Info and Download Links | S01E05

General
Format : Matroska
Format version : Version 4
File size : 235 MiB
Duration : 49 min 32 s
Overall bit rate : 662 kb/s
Movie name : Tehran.S01E05.The.Other.Iran.720p.10bit.WEBRip.2CH.x265.HEVC

Video
ID : 1
Format : HEVC
Format/Info : High Efficiency Video Coding
Format profile : Main [email protected]@Main
Codec ID : V_MPEGH/ISO/HEVC
Duration : 49 min 32 s
Bit rate : 501 kb/s
Width : 1 280 pixels
Height : 536 pixels
Display aspect ratio : 2.40:1
Frame rate mode : Constant
Frame rate : 23.976 (24000/1001) FPS
Color space : YUV
Chroma subsampling : 4:2:0
Bit depth : 10 bits
Bits/(Pixel*Frame) : 0.030
Stream size : 178 MiB (76%)
Default : Yes
Forced : No
Color range : Limited
Color primaries : BT.709
Transfer characteristics : BT.709
Matrix coefficients : BT.709

Audio
ID : 2
Format : AAC LC
Codec ID : A_AAC-2
Duration : 49 min 32 s
Bit rate : 159 kb/s
Channel(s) : 2 channels
Channel layout : L R
Sampling rate : 48.0 kHz
Frame rate : 46.875 FPS (1024 SPF)
Compression mode : Lossy
Delay relative to video : -21 ms
Stream size : 56.4 MiB (24%)
Language : Hebrew
Default : Yes
Forced : No

Text
ID : 3
Format : UTF-8
Codec ID : S_TEXT/UTF8
Codec ID/Info : UTF-8 Plain Text
Duration : 46 min 28 s
Bit rate : 27 b/s
Count of elements : 336
Stream size : 9.50 KiB (0%)
Language : English
Default : Yes
Forced : No

Download

Direct download files get automatically deleted after a month or so. Posted on : 10/20/2020

[collapse]
Media Info and Download Links | S01E04

General
Format : Matroska
Format version : Version 4
File size : 228 MiB
Duration : 47 min 50 s
Overall bit rate : 668 kb/s
Movie name : Tehran.S01E04.Shakira.and.Sickboy.720p.10bit.WEBRip.2CH.x265.HEVC

Video
ID : 1
Format : HEVC
Format/Info : High Efficiency Video Coding
Format profile : Main [email protected]@Main
Codec ID : V_MPEGH/ISO/HEVC
Duration : 47 min 50 s
Bit rate : 501 kb/s
Width : 1 280 pixels
Height : 536 pixels
Display aspect ratio : 2.40:1
Frame rate mode : Constant
Frame rate : 23.976 (24000/1001) FPS
Color space : YUV
Chroma subsampling : 4:2:0
Bit depth : 10 bits
Bits/(Pixel*Frame) : 0.030
Stream size : 171 MiB (75%)
Default : Yes
Forced : No
Color range : Limited
Color primaries : BT.709
Transfer characteristics : BT.709
Matrix coefficients : BT.709

Audio
ID : 2
Format : AAC LC
Codec ID : A_AAC-2
Duration : 47 min 50 s
Bit rate : 159 kb/s
Channel(s) : 2 channels
Channel layout : L R
Sampling rate : 48.0 kHz
Frame rate : 46.875 FPS (1024 SPF)
Compression mode : Lossy
Delay relative to video : -21 ms
Stream size : 54.4 MiB (24%)
Language : Hebrew
Default : Yes
Forced : No

Text #1
ID : 3
Format : ASS
Codec ID : S_TEXT/ASS
Duration : 44 min 31 s
Bit rate : 53 b/s
Count of elements : 358
Compression mode : Lossless
Stream size : 17.4 KiB (0%)
Title : Forced
Language : Hebrew
Default : No
Forced : No

Text #2
ID : 4
Format : ASS
Codec ID : S_TEXT/ASS
Duration : 47 min 9 s
Bit rate : 82 b/s
Count of elements : 486
Compression mode : Lossless
Stream size : 28.7 KiB (0%)
Language : Arabic
Default : No
Forced : No

Text #3
ID : 5
Format : ASS
Codec ID : S_TEXT/ASS
Duration : 47 min 9 s
Bit rate : 88 b/s
Count of elements : 482
Compression mode : Lossless
Stream size : 30.4 KiB (0%)
Language : Bulgarian
Default : No
Forced : No

Text #4
ID : 6
Format : ASS
Codec ID : S_TEXT/ASS
Duration : 47 min 9 s
Bit rate : 62 b/s
Count of elements : 487
Compression mode : Lossless
Stream size : 21.7 KiB (0%)
Title : Simplified Mandarin
Language : Chinese
Default : No
Forced : No

Text #5
ID : 7
Format : ASS
Codec ID : S_TEXT/ASS
Duration : 47 min 9 s
Bit rate : 62 b/s
Count of elements : 490
Compression mode : Lossless
Stream size : 21.7 KiB (0%)
Title : Traditional Mandarin
Language : Chinese
Default : No
Forced : No

Text #6
ID : 8
Format : ASS
Codec ID : S_TEXT/ASS
Duration : 47 min 9 s
Bit rate : 65 b/s
Count of elements : 471
Compression mode : Lossless
Stream size : 22.6 KiB (0%)
Language : Czech
Default : No
Forced : No

Text #7
ID : 9
Format : ASS
Codec ID : S_TEXT/ASS
Duration : 47 min 9 s
Bit rate : 68 b/s
Count of elements : 487
Compression mode : Lossless
Stream size : 23.6 KiB (0%)
Language : Danish
Default : No
Forced : No

Text #8
ID : 10
Format : ASS
Codec ID : S_TEXT/ASS
Duration : 46 min 49 s
Bit rate : 67 b/s
Count of elements : 487
Compression mode : Lossless
Stream size : 23.2 KiB (0%)
Language : German
Default : No
Forced : No

Text #9
ID : 11
Format : ASS
Codec ID : S_TEXT/ASS
Duration : 47 min 9 s
Bit rate : 95 b/s
Count of elements : 473
Compression mode : Lossless
Stream size : 33.1 KiB (0%)
Language : Greek
Default : No
Forced : No

Text #10
ID : 12
Format : ASS
Codec ID : S_TEXT/ASS
Duration : 45 min 20 s
Bit rate : 70 b/s
Count of elements : 482
Compression mode : Lossless
Stream size : 23.4 KiB (0%)
Language : English
Default : Yes
Forced : No

Text #11
ID : 13
Format : ASS
Codec ID : S_TEXT/ASS
Duration : 47 min 9 s
Bit rate : 69 b/s
Count of elements : 495
Compression mode : Lossless
Stream size : 23.9 KiB (0%)
Title : Latin America
Language : Spanish
Default : No
Forced : No

Text #12
ID : 14
Format : ASS
Codec ID : S_TEXT/ASS
Duration : 47 min 35 s
Bit rate : 67 b/s
Count of elements : 478
Compression mode : Lossless
Stream size : 23.5 KiB (0%)
Title : Spain
Language : Spanish
Default : No
Forced : No

Text #13
ID : 15
Format : ASS
Codec ID : S_TEXT/ASS
Duration : 47 min 9 s
Bit rate : 65 b/s
Count of elements : 476
Compression mode : Lossless
Stream size : 22.6 KiB (0%)
Language : Estonian
Default : No
Forced : No

Text #14
ID : 16
Format : ASS
Codec ID : S_TEXT/ASS
Duration : 47 min 9 s
Bit rate : 65 b/s
Count of elements : 487
Compression mode : Lossless
Stream size : 22.7 KiB (0%)
Language : Finnish
Default : No
Forced : No

Text #15
ID : 17
Format : ASS
Codec ID : S_TEXT/ASS
Duration : 46 min 49 s
Bit rate : 67 b/s
Count of elements : 476
Compression mode : Lossless
Stream size : 23.2 KiB (0%)
Title : Canada
Language : French
Default : No
Forced : No

Text #16
ID : 18
Format : ASS
Codec ID : S_TEXT/ASS
Duration : 46 min 49 s
Bit rate : 67 b/s
Count of elements : 476
Compression mode : Lossless
Stream size : 23.2 KiB (0%)
Title : France
Language : French
Default : No
Forced : No

Text #17
ID : 19
Format : ASS
Codec ID : S_TEXT/ASS
Duration : 47 min 9 s
Bit rate : 80 b/s
Count of elements : 479
Compression mode : Lossless
Stream size : 27.7 KiB (0%)
Language : Hebrew
Default : No
Forced : No

Text #18
ID : 20
Format : ASS
Codec ID : S_TEXT/ASS
Duration : 47 min 9 s
Bit rate : 92 b/s
Count of elements : 556
Compression mode : Lossless
Stream size : 31.9 KiB (0%)
Title : SDH
Language : Hebrew
Default : No
Forced : No

Text #19
ID : 21
Format : ASS
Codec ID : S_TEXT/ASS
Duration : 47 min 9 s
Bit rate : 128 b/s
Count of elements : 490
Compression mode : Lossless
Stream size : 44.3 KiB (0%)
Language : Hindi
Default : No
Forced : No

Text #20
ID : 22
Format : ASS
Codec ID : S_TEXT/ASS
Duration : 47 min 9 s
Bit rate : 68 b/s
Count of elements : 488
Compression mode : Lossless
Stream size : 23.7 KiB (0%)
Language : Hungarian
Default : No
Forced : No

Text #21
ID : 23
Format : ASS
Codec ID : S_TEXT/ASS
Duration : 47 min 9 s
Bit rate : 68 b/s
Count of elements : 486
Compression mode : Lossless
Stream size : 23.8 KiB (0%)
Language : Indonesian
Default : No
Forced : No

Text #22
ID : 24
Format : ASS
Codec ID : S_TEXT/ASS
Duration : 47 min 11 s
Bit rate : 69 b/s
Count of elements : 491
Compression mode : Lossless
Stream size : 24.0 KiB (0%)
Language : Italian
Default : No
Forced : No

Text #23
ID : 25
Format : ASS
Codec ID : S_TEXT/ASS
Duration : 47 min 9 s
Bit rate : 73 b/s
Count of elements : 504
Compression mode : Lossless
Stream size : 25.3 KiB (0%)
Language : Japanese
Default : No
Forced : No

Text #24
ID : 26
Format : ASS
Codec ID : S_TEXT/ASS
Duration : 47 min 9 s
Bit rate : 69 b/s
Count of elements : 492
Compression mode : Lossless
Stream size : 23.9 KiB (0%)
Language : Korean
Default : No
Forced : No

Text #25
ID : 27
Format : ASS
Codec ID : S_TEXT/ASS
Duration : 47 min 9 s
Bit rate : 67 b/s
Count of elements : 487
Compression mode : Lossless
Stream size : 23.2 KiB (0%)
Language : Lithuanian
Default : No
Forced : No

Text #26
ID : 28
Format : ASS
Codec ID : S_TEXT/ASS
Duration : 47 min 9 s
Bit rate : 70 b/s
Count of elements : 489
Compression mode : Lossless
Stream size : 24.4 KiB (0%)
Language : Latvian
Default : No
Forced : No

Text #27
ID : 29
Format : ASS
Codec ID : S_TEXT/ASS
Duration : 47 min 9 s
Bit rate : 70 b/s
Count of elements : 488
Compression mode : Lossless
Stream size : 24.3 KiB (0%)
Default : No
Forced : No

Text #28
ID : 30
Format : ASS
Codec ID : S_TEXT/ASS
Duration : 47 min 9 s
Bit rate : 62 b/s
Count of elements : 429
Compression mode : Lossless
Stream size : 21.7 KiB (0%)
Language : Dutch
Default : No
Forced : No

Text #29
ID : 31
Format : ASS
Codec ID : S_TEXT/ASS
Duration : 47 min 9 s
Bit rate : 66 b/s
Count of elements : 478
Compression mode : Lossless
Stream size : 23.1 KiB (0%)
Language : Norwegian
Default : No
Forced : No

Text #30
ID : 32
Format : ASS
Codec ID : S_TEXT/ASS
Duration : 47 min 9 s
Bit rate : 64 b/s
Count of elements : 486
Compression mode : Lossless
Stream size : 22.4 KiB (0%)
Language : Polish
Default : No
Forced : No

Text #31
ID : 33
Format : ASS
Codec ID : S_TEXT/ASS
Duration : 47 min 9 s
Bit rate : 67 b/s
Count of elements : 488
Compression mode : Lossless
Stream size : 23.5 KiB (0%)
Language : Portuguese
Default : No
Forced : No

Text #32
ID : 34
Format : ASS
Codec ID : S_TEXT/ASS
Duration : 47 min 9 s
Bit rate : 65 b/s
Count of elements : 468
Compression mode : Lossless
Stream size : 22.5 KiB (0%)
Title : Brazil
Language : Portuguese
Default : No
Forced : No

Text #33
ID : 35
Format : ASS
Codec ID : S_TEXT/ASS
Duration : 47 min 9 s
Bit rate : 92 b/s
Count of elements : 492
Compression mode : Lossless
Stream size : 31.8 KiB (0%)
Language : Russian
Default : No
Forced : No

Text #34
ID : 36
Format : ASS
Codec ID : S_TEXT/ASS
Duration : 47 min 9 s
Bit rate : 65 b/s
Count of elements : 489
Compression mode : Lossless
Stream size : 22.5 KiB (0%)
Language : Slovak
Default : No
Forced : No

Text #35
ID : 37
Format : ASS
Codec ID : S_TEXT/ASS
Duration : 47 min 9 s
Bit rate : 63 b/s
Count of elements : 485
Compression mode : Lossless
Stream size : 22.0 KiB (0%)
Language : Slovenian
Default : No
Forced : No

Text #36
ID : 38
Format : ASS
Codec ID : S_TEXT/ASS
Duration : 47 min 9 s
Bit rate : 67 b/s
Count of elements : 488
Compression mode : Lossless
Stream size : 23.3 KiB (0%)
Language : Swedish
Default : No
Forced : No

Text #37
ID : 39
Format : ASS
Codec ID : S_TEXT/ASS
Duration : 47 min 9 s
Bit rate : 158 b/s
Count of elements : 489
Compression mode : Lossless
Stream size : 54.8 KiB (0%)
Language : Tamil
Default : No
Forced : No

Text #38
ID : 40
Format : ASS
Codec ID : S_TEXT/ASS
Duration : 47 min 9 s
Bit rate : 136 b/s
Count of elements : 487
Compression mode : Lossless
Stream size : 47.0 KiB (0%)
Language : Telugu
Default : No
Forced : No

Text #39
ID : 41
Format : ASS
Codec ID : S_TEXT/ASS
Duration : 47 min 9 s
Bit rate : 122 b/s
Count of elements : 489
Compression mode : Lossless
Stream size : 42.3 KiB (0%)
Language : Thai
Default : No
Forced : No

Text #40
ID : 42
Format : ASS
Codec ID : S_TEXT/ASS
Duration : 47 min 9 s
Bit rate : 68 b/s
Count of elements : 485
Compression mode : Lossless
Stream size : 23.6 KiB (0%)
Language : Turkish
Default : No
Forced : No

Text #41
ID : 43
Format : ASS
Codec ID : S_TEXT/ASS
Duration : 47 min 9 s
Bit rate : 89 b/s
Count of elements : 491
Compression mode : Lossless
Stream size : 31.0 KiB (0%)
Language : Ukrainian
Default : No
Forced : No

Text #42
ID : 44
Format : ASS
Codec ID : S_TEXT/ASS
Duration : 47 min 9 s
Bit rate : 81 b/s
Count of elements : 488
Compression mode : Lossless
Stream size : 28.1 KiB (0%)
Language : Vietnamese
Default : No
Forced : No

Text #43
ID : 45
Format : ASS
Codec ID : S_TEXT/ASS
Duration : 47 min 9 s
Bit rate : 64 b/s
Count of elements : 490
Compression mode : Lossless
Stream size : 22.1 KiB (0%)
Title : Cantonese
Language : Chinese
Default : No
Forced : No

Download

Direct download files get automatically deleted after a month or so. Posted on : 10/05/2020

[collapse]
Media Info and Download Links | S01E03

General
Format : Matroska
Format version : Version 4
File size : 227 MiB
Duration : 47 min 26 s
Overall bit rate : 669 kb/s
Movie name : Tehran.S01E03.Yasamins.Girl.720p.10bit.WEBRip.2CH.x265.HEVC

Video
ID : 1
Format : HEVC
Format/Info : High Efficiency Video Coding
Format profile : Main [email protected]@Main
Codec ID : V_MPEGH/ISO/HEVC
Duration : 47 min 26 s
Bit rate : 501 kb/s
Width : 1 280 pixels
Height : 536 pixels
Display aspect ratio : 2.40:1
Frame rate mode : Constant
Frame rate : 23.976 (24000/1001) FPS
Color space : YUV
Chroma subsampling : 4:2:0
Bit depth : 10 bits
Bits/(Pixel*Frame) : 0.030
Stream size : 170 MiB (75%)
Default : Yes
Forced : No
Color range : Limited
Color primaries : BT.709
Transfer characteristics : BT.709
Matrix coefficients : BT.709

Audio
ID : 2
Format : AAC LC
Codec ID : A_AAC-2
Duration : 47 min 26 s
Bit rate : 159 kb/s
Channel(s) : 2 channels
Channel layout : L R
Sampling rate : 48.0 kHz
Frame rate : 46.875 FPS (1024 SPF)
Compression mode : Lossy
Delay relative to video : -21 ms
Stream size : 53.9 MiB (24%)
Language : Hebrew
Default : Yes
Forced : No

Text #1
ID : 3
Format : ASS
Codec ID : S_TEXT/ASS
Duration : 44 min 48 s
Bit rate : 75 b/s
Count of elements : 498
Compression mode : Lossless
Stream size : 24.7 KiB (0%)
Title : Forced
Language : Hebrew
Default : No
Forced : No

Text #2
ID : 4
Format : ASS
Codec ID : S_TEXT/ASS
Duration : 46 min 45 s
Bit rate : 108 b/s
Count of elements : 612
Compression mode : Lossless
Stream size : 37.1 KiB (0%)
Language : Arabic
Default : No
Forced : No

Text #3
ID : 5
Format : ASS
Codec ID : S_TEXT/ASS
Duration : 46 min 45 s
Bit rate : 115 b/s
Count of elements : 611
Compression mode : Lossless
Stream size : 39.4 KiB (0%)
Language : Bulgarian
Default : No
Forced : No

Text #4
ID : 6
Format : ASS
Codec ID : S_TEXT/ASS
Duration : 46 min 45 s
Bit rate : 81 b/s
Count of elements : 614
Compression mode : Lossless
Stream size : 27.9 KiB (0%)
Title : Simplified Mandarin
Language : Chinese
Default : No
Forced : No

Text #5
ID : 7
Format : ASS
Codec ID : S_TEXT/ASS
Duration : 46 min 45 s
Bit rate : 80 b/s
Count of elements : 616
Compression mode : Lossless
Stream size : 27.6 KiB (0%)
Title : Traditional Mandarin
Language : Chinese
Default : No
Forced : No

Text #6
ID : 8
Format : ASS
Codec ID : S_TEXT/ASS
Duration : 46 min 45 s
Bit rate : 85 b/s
Count of elements : 601
Compression mode : Lossless
Stream size : 29.3 KiB (0%)
Language : Czech
Default : No
Forced : No

Text #7
ID : 9
Format : ASS
Codec ID : S_TEXT/ASS
Duration : 46 min 45 s
Bit rate : 88 b/s
Count of elements : 614
Compression mode : Lossless
Stream size : 30.5 KiB (0%)
Language : Danish
Default : No
Forced : No

Text #8
ID : 10
Format : ASS
Codec ID : S_TEXT/ASS
Duration : 46 min 1 s
Bit rate : 89 b/s
Count of elements : 613
Compression mode : Lossless
Stream size : 30.0 KiB (0%)
Language : German
Default : No
Forced : No

Text #9
ID : 11
Format : ASS
Codec ID : S_TEXT/ASS
Duration : 46 min 45 s
Bit rate : 124 b/s
Count of elements : 592
Compression mode : Lossless
Stream size : 42.6 KiB (0%)
Language : Greek
Default : No
Forced : No

Text #10
ID : 12
Format : ASS
Codec ID : S_TEXT/ASS
Duration : 44 min 48 s
Bit rate : 91 b/s
Count of elements : 604
Compression mode : Lossless
Stream size : 30.0 KiB (0%)
Language : English
Default : Yes
Forced : No

Text #11
ID : 13
Format : ASS
Codec ID : S_TEXT/ASS
Duration : 46 min 45 s
Bit rate : 91 b/s
Count of elements : 624
Compression mode : Lossless
Stream size : 31.2 KiB (0%)
Title : Latin America
Language : Spanish
Default : No
Forced : No

Text #12
ID : 14
Format : ASS
Codec ID : S_TEXT/ASS
Duration : 47 min 11 s
Bit rate : 89 b/s
Count of elements : 595
Compression mode : Lossless
Stream size : 31.0 KiB (0%)
Title : Spain
Language : Spanish
Default : No
Forced : No

Text #13
ID : 15
Format : ASS
Codec ID : S_TEXT/ASS
Duration : 46 min 45 s
Bit rate : 83 b/s
Count of elements : 563
Compression mode : Lossless
Stream size : 28.5 KiB (0%)
Language : Estonian
Default : No
Forced : No

Text #14
ID : 16
Format : ASS
Codec ID : S_TEXT/ASS
Duration : 46 min 45 s
Bit rate : 84 b/s
Count of elements : 611
Compression mode : Lossless
Stream size : 28.8 KiB (0%)
Language : Finnish
Default : No
Forced : No

Text #15
ID : 17
Format : ASS
Codec ID : S_TEXT/ASS
Duration : 46 min 1 s
Bit rate : 90 b/s
Count of elements : 614
Compression mode : Lossless
Stream size : 30.5 KiB (0%)
Title : Canada
Language : French
Default : No
Forced : No

Text #16
ID : 18
Format : ASS
Codec ID : S_TEXT/ASS
Duration : 46 min 1 s
Bit rate : 90 b/s
Count of elements : 614
Compression mode : Lossless
Stream size : 30.5 KiB (0%)
Title : France
Language : French
Default : No
Forced : No

Text #17
ID : 19
Format : ASS
Codec ID : S_TEXT/ASS
Duration : 46 min 45 s
Bit rate : 98 b/s
Count of elements : 572
Compression mode : Lossless
Stream size : 33.8 KiB (0%)
Language : Hebrew
Default : No
Forced : No

Text #18
ID : 20
Format : ASS
Codec ID : S_TEXT/ASS
Duration : 46 min 45 s
Bit rate : 120 b/s
Count of elements : 684
Compression mode : Lossless
Stream size : 41.1 KiB (0%)
Title : SDH
Language : Hebrew
Default : No
Forced : No

Text #19
ID : 21
Format : ASS
Codec ID : S_TEXT/ASS
Duration : 46 min 45 s
Bit rate : 167 b/s
Count of elements : 624
Compression mode : Lossless
Stream size : 57.2 KiB (0%)
Language : Hindi
Default : No
Forced : No

Text #20
ID : 22
Format : ASS
Codec ID : S_TEXT/ASS
Duration : 46 min 45 s
Bit rate : 88 b/s
Count of elements : 617
Compression mode : Lossless
Stream size : 30.4 KiB (0%)
Language : Hungarian
Default : No
Forced : No

Text #21
ID : 23
Format : ASS
Codec ID : S_TEXT/ASS
Duration : 46 min 45 s
Bit rate : 90 b/s
Count of elements : 617
Compression mode : Lossless
Stream size : 31.1 KiB (0%)
Language : Indonesian
Default : No
Forced : No

Text #22
ID : 24
Format : ASS
Codec ID : S_TEXT/ASS
Duration : 46 min 47 s
Bit rate : 88 b/s
Count of elements : 623
Compression mode : Lossless
Stream size : 30.4 KiB (0%)
Language : Italian
Default : No
Forced : No

Text #23
ID : 25
Format : ASS
Codec ID : S_TEXT/ASS
Duration : 46 min 45 s
Bit rate : 90 b/s
Count of elements : 619
Compression mode : Lossless
Stream size : 30.9 KiB (0%)
Language : Japanese
Default : No
Forced : No

Text #24
ID : 26
Format : ASS
Codec ID : S_TEXT/ASS
Duration : 46 min 45 s
Bit rate : 92 b/s
Count of elements : 624
Compression mode : Lossless
Stream size : 31.7 KiB (0%)
Language : Korean
Default : No
Forced : No

Text #25
ID : 27
Format : ASS
Codec ID : S_TEXT/ASS
Duration : 46 min 45 s
Bit rate : 86 b/s
Count of elements : 616
Compression mode : Lossless
Stream size : 29.7 KiB (0%)
Language : Lithuanian
Default : No
Forced : No

Text #26
ID : 28
Format : ASS
Codec ID : S_TEXT/ASS
Duration : 46 min 45 s
Bit rate : 90 b/s
Count of elements : 618
Compression mode : Lossless
Stream size : 31.1 KiB (0%)
Language : Latvian
Default : No
Forced : No

Text #27
ID : 29
Format : ASS
Codec ID : S_TEXT/ASS
Duration : 46 min 45 s
Bit rate : 92 b/s
Count of elements : 617
Compression mode : Lossless
Stream size : 31.8 KiB (0%)
Default : No
Forced : No

Text #28
ID : 30
Format : ASS
Codec ID : S_TEXT/ASS
Duration : 46 min 45 s
Bit rate : 78 b/s
Count of elements : 505
Compression mode : Lossless
Stream size : 27.1 KiB (0%)
Language : Dutch
Default : No
Forced : No

Text #29
ID : 31
Format : ASS
Codec ID : S_TEXT/ASS
Duration : 46 min 45 s
Bit rate : 86 b/s
Count of elements : 593
Compression mode : Lossless
Stream size : 29.6 KiB (0%)
Language : Norwegian
Default : No
Forced : No

Text #30
ID : 32
Format : ASS
Codec ID : S_TEXT/ASS
Duration : 46 min 45 s
Bit rate : 84 b/s
Count of elements : 614
Compression mode : Lossless
Stream size : 29.0 KiB (0%)
Language : Polish
Default : No
Forced : No

Text #31
ID : 33
Format : ASS
Codec ID : S_TEXT/ASS
Duration : 46 min 45 s
Bit rate : 89 b/s
Count of elements : 618
Compression mode : Lossless
Stream size : 30.8 KiB (0%)
Language : Portuguese
Default : No
Forced : No

Text #32
ID : 34
Format : ASS
Codec ID : S_TEXT/ASS
Duration : 46 min 45 s
Bit rate : 85 b/s
Count of elements : 582
Compression mode : Lossless
Stream size : 29.3 KiB (0%)
Title : Brazil
Language : Portuguese
Default : No
Forced : No

Text #33
ID : 35
Format : ASS
Codec ID : S_TEXT/ASS
Duration : 46 min 45 s
Bit rate : 119 b/s
Count of elements : 623
Compression mode : Lossless
Stream size : 40.9 KiB (0%)
Language : Russian
Default : No
Forced : No

Text #34
ID : 36
Format : ASS
Codec ID : S_TEXT/ASS
Duration : 46 min 45 s
Bit rate : 84 b/s
Count of elements : 620
Compression mode : Lossless
Stream size : 28.9 KiB (0%)
Language : Slovak
Default : No
Forced : No

Text #35
ID : 37
Format : ASS
Codec ID : S_TEXT/ASS
Duration : 46 min 45 s
Bit rate : 82 b/s
Count of elements : 618
Compression mode : Lossless
Stream size : 28.4 KiB (0%)
Language : Slovenian
Default : No
Forced : No

Text #36
ID : 38
Format : ASS
Codec ID : S_TEXT/ASS
Duration : 46 min 45 s
Bit rate : 89 b/s
Count of elements : 621
Compression mode : Lossless
Stream size : 30.5 KiB (0%)
Language : Swedish
Default : No
Forced : No

Text #37
ID : 39
Format : ASS
Codec ID : S_TEXT/ASS
Duration : 46 min 45 s
Bit rate : 205 b/s
Count of elements : 622
Compression mode : Lossless
Stream size : 70.5 KiB (0%)
Language : Tamil
Default : No
Forced : No

Text #38
ID : 40
Format : ASS
Codec ID : S_TEXT/ASS
Duration : 46 min 45 s
Bit rate : 182 b/s
Count of elements : 619
Compression mode : Lossless
Stream size : 62.6 KiB (0%)
Language : Telugu
Default : No
Forced : No

Text #39
ID : 41
Format : ASS
Codec ID : S_TEXT/ASS
Duration : 46 min 45 s
Bit rate : 164 b/s
Count of elements : 622
Compression mode : Lossless
Stream size : 56.4 KiB (0%)
Language : Thai
Default : No
Forced : No

Text #40
ID : 42
Format : ASS
Codec ID : S_TEXT/ASS
Duration : 46 min 45 s
Bit rate : 88 b/s
Count of elements : 615
Compression mode : Lossless
Stream size : 30.3 KiB (0%)
Language : Turkish
Default : No
Forced : No

Text #41
ID : 43
Format : ASS
Codec ID : S_TEXT/ASS
Duration : 46 min 45 s
Bit rate : 116 b/s
Count of elements : 623
Compression mode : Lossless
Stream size : 39.8 KiB (0%)
Language : Ukrainian
Default : No
Forced : No

Text #42
ID : 44
Format : ASS
Codec ID : S_TEXT/ASS
Duration : 46 min 45 s
Bit rate : 109 b/s
Count of elements : 620
Compression mode : Lossless
Stream size : 37.6 KiB (0%)
Language : Vietnamese
Default : No
Forced : No

Text #43
ID : 45
Format : ASS
Codec ID : S_TEXT/ASS
Duration : 46 min 45 s
Bit rate : 82 b/s
Count of elements : 616
Compression mode : Lossless
Stream size : 28.4 KiB (0%)
Title : Cantonese
Language : Chinese
Default : No
Forced : No

Download

Direct download files get automatically deleted after a month or so. Posted on : 10/05/2020

[collapse]
Media Info and Download Links | S01E02

General
Format : Matroska
Format version : Version 4
File size : 210 MiB
Duration : 44 min 0 s
Overall bit rate : 668 kb/s
Movie name : Tehran.S01E02.Blood.on.Her.Hands.720p.10bit.WEBRip.2CH.x265.HEVC

Video
ID : 1
Format : HEVC
Format/Info : High Efficiency Video Coding
Format profile : Main [email protected]@Main
Codec ID : V_MPEGH/ISO/HEVC
Duration : 44 min 0 s
Bit rate : 501 kb/s
Width : 1 280 pixels
Height : 536 pixels
Display aspect ratio : 2.40:1
Frame rate mode : Constant
Frame rate : 23.976 (24000/1001) FPS
Color space : YUV
Chroma subsampling : 4:2:0
Bit depth : 10 bits
Bits/(Pixel*Frame) : 0.030
Stream size : 158 MiB (75%)
Default : Yes
Forced : No
Color range : Limited
Color primaries : BT.709
Transfer characteristics : BT.709
Matrix coefficients : BT.709

Audio
ID : 2
Format : AAC LC
Codec ID : A_AAC-2
Duration : 44 min 0 s
Bit rate : 159 kb/s
Channel(s) : 2 channels
Channel layout : L R
Sampling rate : 48.0 kHz
Frame rate : 46.875 FPS (1024 SPF)
Compression mode : Lossy
Delay relative to video : -21 ms
Stream size : 50.0 MiB (24%)
Language : Hebrew
Default : Yes
Forced : No

Text #1
ID : 3
Format : ASS
Codec ID : S_TEXT/ASS
Duration : 38 min 45 s
Bit rate : 62 b/s
Count of elements : 347
Compression mode : Lossless
Stream size : 17.6 KiB (0%)
Title : Forced
Language : Hebrew
Default : No
Forced : No

Text #2
ID : 4
Format : ASS
Codec ID : S_TEXT/ASS
Duration : 43 min 20 s
Bit rate : 83 b/s
Count of elements : 428
Compression mode : Lossless
Stream size : 26.4 KiB (0%)
Language : Arabic
Default : No
Forced : No

Text #3
ID : 5
Format : ASS
Codec ID : S_TEXT/ASS
Duration : 43 min 20 s
Bit rate : 85 b/s
Count of elements : 417
Compression mode : Lossless
Stream size : 27.2 KiB (0%)
Language : Bulgarian
Default : No
Forced : No

Text #4
ID : 6
Format : ASS
Codec ID : S_TEXT/ASS
Duration : 43 min 20 s
Bit rate : 61 b/s
Count of elements : 428
Compression mode : Lossless
Stream size : 19.5 KiB (0%)
Title : Simplified Mandarin
Language : Chinese
Default : No
Forced : No

Text #5
ID : 7
Format : ASS
Codec ID : S_TEXT/ASS
Duration : 43 min 20 s
Bit rate : 60 b/s
Count of elements : 432
Compression mode : Lossless
Stream size : 19.2 KiB (0%)
Title : Traditional Mandarin
Language : Chinese
Default : No
Forced : No

Text #6
ID : 8
Format : ASS
Codec ID : S_TEXT/ASS
Duration : 43 min 20 s
Bit rate : 65 b/s
Count of elements : 419
Compression mode : Lossless
Stream size : 20.7 KiB (0%)
Language : Czech
Default : No
Forced : No

Text #7
ID : 9
Format : ASS
Codec ID : S_TEXT/ASS
Duration : 43 min 20 s
Bit rate : 69 b/s
Count of elements : 427
Compression mode : Lossless
Stream size : 22.1 KiB (0%)
Language : Danish
Default : No
Forced : No

Text #8
ID : 10
Format : ASS
Codec ID : S_TEXT/ASS
Duration : 42 min 34 s
Bit rate : 70 b/s
Count of elements : 458
Compression mode : Lossless
Stream size : 21.8 KiB (0%)
Language : German
Default : No
Forced : No

Text #9
ID : 11
Format : ASS
Codec ID : S_TEXT/ASS
Duration : 43 min 20 s
Bit rate : 95 b/s
Count of elements : 412
Compression mode : Lossless
Stream size : 30.4 KiB (0%)
Language : Greek
Default : No
Forced : No

Text #10
ID : 12
Format : ASS
Codec ID : S_TEXT/ASS
Duration : 41 min 47 s
Bit rate : 70 b/s
Count of elements : 421
Compression mode : Lossless
Stream size : 21.5 KiB (0%)
Language : English
Default : Yes
Forced : No

Text #11
ID : 13
Format : ASS
Codec ID : S_TEXT/ASS
Duration : 43 min 20 s
Bit rate : 68 b/s
Count of elements : 432
Compression mode : Lossless
Stream size : 21.9 KiB (0%)
Title : Latin America
Language : Spanish
Default : No
Forced : No

Text #12
ID : 14
Format : ASS
Codec ID : S_TEXT/ASS
Duration : 43 min 47 s
Bit rate : 68 b/s
Count of elements : 406
Compression mode : Lossless
Stream size : 21.9 KiB (0%)
Title : Spain
Language : Spanish
Default : No
Forced : No

Text #13
ID : 15
Format : ASS
Codec ID : S_TEXT/ASS
Duration : 43 min 20 s
Bit rate : 64 b/s
Count of elements : 390
Compression mode : Lossless
Stream size : 20.4 KiB (0%)
Language : Estonian
Default : No
Forced : No

Text #14
ID : 16
Format : ASS
Codec ID : S_TEXT/ASS
Duration : 43 min 20 s
Bit rate : 64 b/s
Count of elements : 429
Compression mode : Lossless
Stream size : 20.5 KiB (0%)
Language : Finnish
Default : No
Forced : No

Text #15
ID : 17
Format : ASS
Codec ID : S_TEXT/ASS
Duration : 42 min 33 s
Bit rate : 72 b/s
Count of elements : 459
Compression mode : Lossless
Stream size : 22.7 KiB (0%)
Title : Canada
Language : French
Default : No
Forced : No

Text #16
ID : 18
Format : ASS
Codec ID : S_TEXT/ASS
Duration : 42 min 33 s
Bit rate : 72 b/s
Count of elements : 459
Compression mode : Lossless
Stream size : 22.7 KiB (0%)
Title : France
Language : French
Default : No
Forced : No

Text #17
ID : 19
Format : ASS
Codec ID : S_TEXT/ASS
Duration : 43 min 20 s
Bit rate : 68 b/s
Count of elements : 371
Compression mode : Lossless
Stream size : 21.7 KiB (0%)
Language : Hebrew
Default : No
Forced : No

Text #18
ID : 20
Format : ASS
Codec ID : S_TEXT/ASS
Duration : 43 min 20 s
Bit rate : 92 b/s
Count of elements : 503
Compression mode : Lossless
Stream size : 29.5 KiB (0%)
Title : SDH
Language : Hebrew
Default : No
Forced : No

Text #19
ID : 21
Format : ASS
Codec ID : S_TEXT/ASS
Duration : 43 min 20 s
Bit rate : 130 b/s
Count of elements : 431
Compression mode : Lossless
Stream size : 41.4 KiB (0%)
Language : Hindi
Default : No
Forced : No

Text #20
ID : 22
Format : ASS
Codec ID : S_TEXT/ASS
Duration : 43 min 20 s
Bit rate : 68 b/s
Count of elements : 428
Compression mode : Lossless
Stream size : 21.8 KiB (0%)
Language : Hungarian
Default : No
Forced : No

Text #21
ID : 23
Format : ASS
Codec ID : S_TEXT/ASS
Duration : 43 min 20 s
Bit rate : 69 b/s
Count of elements : 428
Compression mode : Lossless
Stream size : 22.1 KiB (0%)
Language : Indonesian
Default : No
Forced : No

Text #22
ID : 24
Format : ASS
Codec ID : S_TEXT/ASS
Duration : 43 min 20 s
Bit rate : 65 b/s
Count of elements : 429
Compression mode : Lossless
Stream size : 20.8 KiB (0%)
Language : Italian
Default : No
Forced : No

Text #23
ID : 25
Format : ASS
Codec ID : S_TEXT/ASS
Duration : 43 min 19 s
Bit rate : 71 b/s
Count of elements : 458
Compression mode : Lossless
Stream size : 22.6 KiB (0%)
Language : Japanese
Default : No
Forced : No

Text #24
ID : 26
Format : ASS
Codec ID : S_TEXT/ASS
Duration : 43 min 20 s
Bit rate : 70 b/s
Count of elements : 432
Compression mode : Lossless
Stream size : 22.2 KiB (0%)
Language : Korean
Default : No
Forced : No

Text #25
ID : 27
Format : ASS
Codec ID : S_TEXT/ASS
Duration : 43 min 20 s
Bit rate : 67 b/s
Count of elements : 429
Compression mode : Lossless
Stream size : 21.3 KiB (0%)
Language : Lithuanian
Default : No
Forced : No

Text #26
ID : 28
Format : ASS
Codec ID : S_TEXT/ASS
Duration : 43 min 20 s
Bit rate : 69 b/s
Count of elements : 428
Compression mode : Lossless
Stream size : 22.1 KiB (0%)
Language : Latvian
Default : No
Forced : No

Text #27
ID : 29
Format : ASS
Codec ID : S_TEXT/ASS
Duration : 43 min 20 s
Bit rate : 70 b/s
Count of elements : 427
Compression mode : Lossless
Stream size : 22.5 KiB (0%)
Default : No
Forced : No

Text #28
ID : 30
Format : ASS
Codec ID : S_TEXT/ASS
Duration : 43 min 20 s
Bit rate : 60 b/s
Count of elements : 375
Compression mode : Lossless
Stream size : 19.3 KiB (0%)
Language : Dutch
Default : No
Forced : No

Text #29
ID : 31
Format : ASS
Codec ID : S_TEXT/ASS
Duration : 43 min 20 s
Bit rate : 67 b/s
Count of elements : 422
Compression mode : Lossless
Stream size : 21.3 KiB (0%)
Language : Norwegian
Default : No
Forced : No

Text #30
ID : 32
Format : ASS
Codec ID : S_TEXT/ASS
Duration : 43 min 20 s
Bit rate : 64 b/s
Count of elements : 423
Compression mode : Lossless
Stream size : 20.6 KiB (0%)
Language : Polish
Default : No
Forced : No

Text #31
ID : 33
Format : ASS
Codec ID : S_TEXT/ASS
Duration : 43 min 20 s
Bit rate : 69 b/s
Count of elements : 430
Compression mode : Lossless
Stream size : 22.0 KiB (0%)
Language : Portuguese
Default : No
Forced : No

Text #32
ID : 34
Format : ASS
Codec ID : S_TEXT/ASS
Duration : 43 min 20 s
Bit rate : 64 b/s
Count of elements : 384
Compression mode : Lossless
Stream size : 20.5 KiB (0%)
Title : Brazil
Language : Portuguese
Default : No
Forced : No

Text #33
ID : 35
Format : ASS
Codec ID : S_TEXT/ASS
Duration : 43 min 20 s
Bit rate : 92 b/s
Count of elements : 432
Compression mode : Lossless
Stream size : 29.3 KiB (0%)
Language : Russian
Default : No
Forced : No

Text #34
ID : 36
Format : ASS
Codec ID : S_TEXT/ASS
Duration : 43 min 20 s
Bit rate : 63 b/s
Count of elements : 429
Compression mode : Lossless
Stream size : 20.3 KiB (0%)
Language : Slovak
Default : No
Forced : No

Text #35
ID : 37
Format : ASS
Codec ID : S_TEXT/ASS
Duration : 43 min 20 s
Bit rate : 62 b/s
Count of elements : 426
Compression mode : Lossless
Stream size : 20.0 KiB (0%)
Language : Slovenian
Default : No
Forced : No

Text #36
ID : 38
Format : ASS
Codec ID : S_TEXT/ASS
Duration : 43 min 20 s
Bit rate : 68 b/s
Count of elements : 430
Compression mode : Lossless
Stream size : 21.7 KiB (0%)
Language : Swedish
Default : No
Forced : No

Text #37
ID : 39
Format : ASS
Codec ID : S_TEXT/ASS
Duration : 43 min 20 s
Bit rate : 155 b/s
Count of elements : 429
Compression mode : Lossless
Stream size : 49.4 KiB (0%)
Language : Tamil
Default : No
Forced : No

Text #38
ID : 40
Format : ASS
Codec ID : S_TEXT/ASS
Duration : 43 min 20 s
Bit rate : 139 b/s
Count of elements : 429
Compression mode : Lossless
Stream size : 44.3 KiB (0%)
Language : Telugu
Default : No
Forced : No

Text #39
ID : 41
Format : ASS
Codec ID : S_TEXT/ASS
Duration : 43 min 20 s
Bit rate : 123 b/s
Count of elements : 429
Compression mode : Lossless
Stream size : 39.1 KiB (0%)
Language : Thai
Default : No
Forced : No

Text #40
ID : 42
Format : ASS
Codec ID : S_TEXT/ASS
Duration : 43 min 20 s
Bit rate : 66 b/s
Count of elements : 428
Compression mode : Lossless
Stream size : 21.2 KiB (0%)
Language : Turkish
Default : No
Forced : No

Text #41
ID : 43
Format : ASS
Codec ID : S_TEXT/ASS
Duration : 43 min 20 s
Bit rate : 91 b/s
Count of elements : 431
Compression mode : Lossless
Stream size : 29.1 KiB (0%)
Language : Ukrainian
Default : No
Forced : No

Text #42
ID : 44
Format : ASS
Codec ID : S_TEXT/ASS
Duration : 43 min 20 s
Bit rate : 83 b/s
Count of elements : 428
Compression mode : Lossless
Stream size : 26.4 KiB (0%)
Language : Vietnamese
Default : No
Forced : No

Text #43
ID : 45
Format : ASS
Codec ID : S_TEXT/ASS
Duration : 43 min 20 s
Bit rate : 62 b/s
Count of elements : 431
Compression mode : Lossless
Stream size : 20.0 KiB (0%)
Title : Cantonese
Language : Chinese
Default : No
Forced : No

Download

Direct download files get automatically deleted after a month or so. Posted on : 10/05/2020

[collapse]
Media Info and Download Links | S01E01

General
Format : Matroska
Format version : Version 4
File size : 240 MiB
Duration : 50 min 14 s
Overall bit rate : 668 kb/s
Movie name : Tehran.S01E01.Emergency.Landing.in.Tehran.720p.10bit.WEBRip.2CH.x265.HEVC

Video
ID : 1
Format : HEVC
Format/Info : High Efficiency Video Coding
Format profile : Main [email protected]@Main
Codec ID : V_MPEGH/ISO/HEVC
Duration : 50 min 14 s
Bit rate : 501 kb/s
Width : 1 280 pixels
Height : 536 pixels
Display aspect ratio : 2.40:1
Frame rate mode : Constant
Frame rate : 23.976 (24000/1001) FPS
Color space : YUV
Chroma subsampling : 4:2:0
Bit depth : 10 bits
Bits/(Pixel*Frame) : 0.030
Stream size : 180 MiB (75%)
Default : Yes
Forced : No
Color range : Limited
Color primaries : BT.709
Transfer characteristics : BT.709
Matrix coefficients : BT.709

Audio
ID : 2
Format : AAC LC
Codec ID : A_AAC-2
Duration : 50 min 14 s
Bit rate : 159 kb/s
Channel(s) : 2 channels
Channel layout : L R
Sampling rate : 48.0 kHz
Frame rate : 46.875 FPS (1024 SPF)
Compression mode : Lossy
Delay relative to video : -21 ms
Stream size : 57.2 MiB (24%)
Language : Hebrew
Default : Yes
Forced : No

Text #1
ID : 3
Format : ASS
Codec ID : S_TEXT/ASS
Duration : 47 min 38 s
Bit rate : 47 b/s
Count of elements : 328
Compression mode : Lossless
Stream size : 16.7 KiB (0%)
Title : Forced
Language : Hebrew
Default : No
Forced : No

Text #2
ID : 4
Format : ASS
Codec ID : S_TEXT/ASS
Duration : 49 min 34 s
Bit rate : 93 b/s
Count of elements : 544
Compression mode : Lossless
Stream size : 34.1 KiB (0%)
Language : Arabic
Default : No
Forced : No

Text #3
ID : 5
Format : ASS
Codec ID : S_TEXT/ASS
Duration : 49 min 34 s
Bit rate : 92 b/s
Count of elements : 515
Compression mode : Lossless
Stream size : 33.4 KiB (0%)
Language : Bulgarian
Default : No
Forced : No

Text #4
ID : 6
Format : ASS
Codec ID : S_TEXT/ASS
Duration : 49 min 34 s
Bit rate : 67 b/s
Count of elements : 544
Compression mode : Lossless
Stream size : 24.6 KiB (0%)
Title : Simplified Mandarin
Language : Chinese
Default : No
Forced : No

Text #5
ID : 7
Format : ASS
Codec ID : S_TEXT/ASS
Duration : 49 min 34 s
Bit rate : 67 b/s
Count of elements : 548
Compression mode : Lossless
Stream size : 24.4 KiB (0%)
Title : Traditional Mandarin
Language : Chinese
Default : No
Forced : No

Text #6
ID : 8
Format : ASS
Codec ID : S_TEXT/ASS
Duration : 49 min 34 s
Bit rate : 68 b/s
Count of elements : 519
Compression mode : Lossless
Stream size : 25.0 KiB (0%)
Language : Czech
Default : No
Forced : No

Text #7
ID : 9
Format : ASS
Codec ID : S_TEXT/ASS
Duration : 49 min 34 s
Bit rate : 74 b/s
Count of elements : 541
Compression mode : Lossless
Stream size : 27.1 KiB (0%)
Language : Danish
Default : No
Forced : No

Text #8
ID : 10
Format : ASS
Codec ID : S_TEXT/ASS
Duration : 49 min 1 s
Bit rate : 72 b/s
Count of elements : 547
Compression mode : Lossless
Stream size : 25.9 KiB (0%)
Language : German
Default : No
Forced : No

Text #9
ID : 11
Format : ASS
Codec ID : S_TEXT/ASS
Duration : 49 min 34 s
Bit rate : 98 b/s
Count of elements : 492
Compression mode : Lossless
Stream size : 35.9 KiB (0%)
Language : Greek
Default : No
Forced : No

Text #10
ID : 12
Format : ASS
Codec ID : S_TEXT/ASS
Duration : 47 min 38 s
Bit rate : 74 b/s
Count of elements : 515
Compression mode : Lossless
Stream size : 26.0 KiB (0%)
Language : English
Default : Yes
Forced : No

Text #11
ID : 13
Format : ASS
Codec ID : S_TEXT/ASS
Duration : 49 min 32 s
Bit rate : 74 b/s
Count of elements : 549
Compression mode : Lossless
Stream size : 27.1 KiB (0%)
Title : Latin America
Language : Spanish
Default : No
Forced : No

Text #12
ID : 14
Format : ASS
Codec ID : S_TEXT/ASS
Duration : 50 min 1 s
Bit rate : 71 b/s
Count of elements : 487
Compression mode : Lossless
Stream size : 26.1 KiB (0%)
Title : Spain
Language : Spanish
Default : No
Forced : No

Text #13
ID : 15
Format : ASS
Codec ID : S_TEXT/ASS
Duration : 49 min 34 s
Bit rate : 66 b/s
Count of elements : 456
Compression mode : Lossless
Stream size : 24.1 KiB (0%)
Language : Estonian
Default : No
Forced : No

Text #14
ID : 16
Format : ASS
Codec ID : S_TEXT/ASS
Duration : 49 min 34 s
Bit rate : 69 b/s
Count of elements : 540
Compression mode : Lossless
Stream size : 25.1 KiB (0%)
Language : Finnish
Default : No
Forced : No

Text #15
ID : 17
Format : ASS
Codec ID : S_TEXT/ASS
Duration : 49 min 2 s
Bit rate : 76 b/s
Count of elements : 558
Compression mode : Lossless
Stream size : 27.6 KiB (0%)
Title : Canada
Language : French
Default : No
Forced : No

Text #16
ID : 18
Format : ASS
Codec ID : S_TEXT/ASS
Duration : 49 min 2 s
Bit rate : 76 b/s
Count of elements : 558
Compression mode : Lossless
Stream size : 27.6 KiB (0%)
Title : France
Language : French
Default : No
Forced : No

Text #17
ID : 19
Format : ASS
Codec ID : S_TEXT/ASS
Duration : 49 min 34 s
Bit rate : 68 b/s
Count of elements : 429
Compression mode : Lossless
Stream size : 24.7 KiB (0%)
Language : Hebrew
Default : No
Forced : No

Text #18
ID : 20
Format : ASS
Codec ID : S_TEXT/ASS
Duration : 49 min 34 s
Bit rate : 100 b/s
Count of elements : 608
Compression mode : Lossless
Stream size : 36.4 KiB (0%)
Title : SDH
Language : Hebrew
Default : No
Forced : No

Text #19
ID : 21
Format : ASS
Codec ID : S_TEXT/ASS
Duration : 49 min 34 s
Bit rate : 138 b/s
Count of elements : 546
Compression mode : Lossless
Stream size : 50.4 KiB (0%)
Language : Hindi
Default : No
Forced : No

Text #20
ID : 22
Format : ASS
Codec ID : S_TEXT/ASS
Duration : 49 min 34 s
Bit rate : 73 b/s
Count of elements : 542
Compression mode : Lossless
Stream size : 26.7 KiB (0%)
Language : Hungarian
Default : No
Forced : No

Text #21
ID : 23
Format : ASS
Codec ID : S_TEXT/ASS
Duration : 49 min 34 s
Bit rate : 74 b/s
Count of elements : 544
Compression mode : Lossless
Stream size : 26.9 KiB (0%)
Language : Indonesian
Default : No
Forced : No

Text #22
ID : 24
Format : ASS
Codec ID : S_TEXT/ASS
Duration : 49 min 36 s
Bit rate : 73 b/s
Count of elements : 549
Compression mode : Lossless
Stream size : 26.7 KiB (0%)
Language : Italian
Default : No
Forced : No

Text #23
ID : 25
Format : ASS
Codec ID : S_TEXT/ASS
Duration : 49 min 33 s
Bit rate : 69 b/s
Count of elements : 525
Compression mode : Lossless
Stream size : 25.1 KiB (0%)
Language : Japanese
Default : No
Forced : No

Text #24
ID : 26
Format : ASS
Codec ID : S_TEXT/ASS
Duration : 49 min 34 s
Bit rate : 75 b/s
Count of elements : 549
Compression mode : Lossless
Stream size : 27.4 KiB (0%)
Language : Korean
Default : No
Forced : No

Text #25
ID : 27
Format : ASS
Codec ID : S_TEXT/ASS
Duration : 49 min 34 s
Bit rate : 73 b/s
Count of elements : 544
Compression mode : Lossless
Stream size : 26.6 KiB (0%)
Language : Lithuanian
Default : No
Forced : No

Text #26
ID : 28
Format : ASS
Codec ID : S_TEXT/ASS
Duration : 49 min 34 s
Bit rate : 75 b/s
Count of elements : 545
Compression mode : Lossless
Stream size : 27.5 KiB (0%)
Language : Latvian
Default : No
Forced : No

Text #27
ID : 29
Format : ASS
Codec ID : S_TEXT/ASS
Duration : 49 min 34 s
Bit rate : 76 b/s
Count of elements : 542
Compression mode : Lossless
Stream size : 27.8 KiB (0%)
Default : No
Forced : No

Text #28
ID : 30
Format : ASS
Codec ID : S_TEXT/ASS
Duration : 49 min 34 s
Bit rate : 67 b/s
Count of elements : 482
Compression mode : Lossless
Stream size : 24.6 KiB (0%)
Language : Dutch
Default : No
Forced : No

Text #29
ID : 31
Format : ASS
Codec ID : S_TEXT/ASS
Duration : 49 min 34 s
Bit rate : 71 b/s
Count of elements : 532
Compression mode : Lossless
Stream size : 26.1 KiB (0%)
Language : Norwegian
Default : No
Forced : No

Text #30
ID : 32
Format : ASS
Codec ID : S_TEXT/ASS
Duration : 49 min 34 s
Bit rate : 67 b/s
Count of elements : 532
Compression mode : Lossless
Stream size : 24.4 KiB (0%)
Language : Polish
Default : No
Forced : No

Text #31
ID : 33
Format : ASS
Codec ID : S_TEXT/ASS
Duration : 49 min 34 s
Bit rate : 73 b/s
Count of elements : 546
Compression mode : Lossless
Stream size : 26.7 KiB (0%)
Language : Portuguese
Default : No
Forced : No

Text #32
ID : 34
Format : ASS
Codec ID : S_TEXT/ASS
Duration : 49 min 34 s
Bit rate : 69 b/s
Count of elements : 495
Compression mode : Lossless
Stream size : 25.1 KiB (0%)
Title : Brazil
Language : Portuguese
Default : No
Forced : No

Text #33
ID : 35
Format : ASS
Codec ID : S_TEXT/ASS
Duration : 49 min 34 s
Bit rate : 97 b/s
Count of elements : 547
Compression mode : Lossless
Stream size : 35.4 KiB (0%)
Language : Russian
Default : No
Forced : No

Text #34
ID : 36
Format : ASS
Codec ID : S_TEXT/ASS
Duration : 49 min 34 s
Bit rate : 67 b/s
Count of elements : 540
Compression mode : Lossless
Stream size : 24.5 KiB (0%)
Language : Slovak
Default : No
Forced : No

Text #35
ID : 37
Format : ASS
Codec ID : S_TEXT/ASS
Duration : 49 min 34 s
Bit rate : 67 b/s
Count of elements : 543
Compression mode : Lossless
Stream size : 24.5 KiB (0%)
Language : Slovenian
Default : No
Forced : No

Text #36
ID : 38
Format : ASS
Codec ID : S_TEXT/ASS
Duration : 49 min 34 s
Bit rate : 73 b/s
Count of elements : 544
Compression mode : Lossless
Stream size : 26.8 KiB (0%)
Language : Swedish
Default : No
Forced : No

Text #37
ID : 39
Format : ASS
Codec ID : S_TEXT/ASS
Duration : 49 min 34 s
Bit rate : 170 b/s
Count of elements : 545
Compression mode : Lossless
Stream size : 61.8 KiB (0%)
Language : Tamil
Default : No
Forced : No

Text #38
ID : 40
Format : ASS
Codec ID : S_TEXT/ASS
Duration : 49 min 34 s
Bit rate : 155 b/s
Count of elements : 545
Compression mode : Lossless
Stream size : 56.4 KiB (0%)
Language : Telugu
Default : No
Forced : No

Text #39
ID : 41
Format : ASS
Codec ID : S_TEXT/ASS
Duration : 49 min 34 s
Bit rate : 136 b/s
Count of elements : 543
Compression mode : Lossless
Stream size : 49.7 KiB (0%)
Language : Thai
Default : No
Forced : No

Text #40
ID : 42
Format : ASS
Codec ID : S_TEXT/ASS
Duration : 49 min 34 s
Bit rate : 72 b/s
Count of elements : 539
Compression mode : Lossless
Stream size : 26.2 KiB (0%)
Language : Turkish
Default : No
Forced : No

Text #41
ID : 43
Format : ASS
Codec ID : S_TEXT/ASS
Duration : 49 min 34 s
Bit rate : 99 b/s
Count of elements : 548
Compression mode : Lossless
Stream size : 36.1 KiB (0%)
Language : Ukrainian
Default : No
Forced : No

Text #42
ID : 44
Format : ASS
Codec ID : S_TEXT/ASS
Duration : 49 min 34 s
Bit rate : 90 b/s
Count of elements : 543
Compression mode : Lossless
Stream size : 32.8 KiB (0%)
Language : Vietnamese
Default : No
Forced : No

Text #43
ID : 45
Format : ASS
Codec ID : S_TEXT/ASS
Duration : 49 min 34 s
Bit rate : 69 b/s
Count of elements : 547
Compression mode : Lossless
Stream size : 25.1 KiB (0%)
Title : Cantonese
Language : Chinese
Default : No
Forced : No

Download

Direct download files get automatically deleted after a month or so. Posted on : 10/05/2020

[collapse]

You may also like...

error: nah :p~