The Morning Show

TV-MA | 1h | Comedy, Drama | TV Series (2019– )

An inside look at the lives of the people who help America wake up in the morning, exploring the unique challenges faced by the men and women who carry out this daily televised ritual.

Watch trailer

Media Info and Download Links | S01E04

General
Format : Matroska
Format version : Version 4
File size : 234 MiB
Duration : 51 min 44 s
Overall bit rate : 632 kb/s
Movie name : The.Morning.Show.S01E04.That.Woman.720p.WEBRip.2CH.x265.HEVC
Encoded date : UTC 2019-11-08 10:16:49
Writing application : mkvmerge v39.0.0 (‘In The Waiting Line’) 32-bit
Writing library : libebml v1.3.9 + libmatroska v1.5.2

Video
ID : 1
Format : HEVC
Format/Info : High Efficiency Video Coding
Format profile : [email protected]@Main
Codec ID : V_MPEGH/ISO/HEVC
Duration : 51 min 44 s
Bit rate : 559 kb/s
Width : 1 280 pixels
Height : 640 pixels
Display aspect ratio : 2.000
Frame rate mode : Constant
Frame rate : 23.976 (24000/1001) FPS
Color space : YUV
Chroma subsampling : 4:2:0
Bit depth : 8 bits
Bits/(Pixel*Frame) : 0.028
Stream size : 207 MiB (88%)
Default : Yes
Forced : No
Color range : Limited
Color primaries : BT.709
Transfer characteristics : BT.709
Matrix coefficients : BT.709

Audio
ID : 2
Format : AAC LC SBR
Commercial name : HE-AAC
Format settings : Explicit
Codec ID : A_AAC-2
Duration : 51 min 44 s
Bit rate : 63.9 kb/s
Channel(s) : 2 channels
Channel layout : L R
Sampling rate : 48.0 kHz
Frame rate : 23.438 FPS (2048 SPF)
Compression mode : Lossy
Delay relative to video : 23 ms
Stream size : 23.7 MiB (10%)
Language : English
Default : Yes
Forced : No

Text #1
ID : 3
Format : UTF-8
Codec ID : S_TEXT/UTF8
Codec ID/Info : UTF-8 Plain Text
Duration : 49 min 49 s
Bit rate : 90 b/s
Count of elements : 820
Stream size : 33.1 KiB (0%)
Title : English
Language : English
Default : Yes
Forced : No

Text #2
ID : 4
Format : UTF-8
Codec ID : S_TEXT/UTF8
Codec ID/Info : UTF-8 Plain Text
Duration : 50 min 35 s
Bit rate : 94 b/s
Count of elements : 876
Stream size : 34.9 KiB (0%)
Title : English [SDH]
Language : English
Default : No
Forced : No

Text #3
ID : 5
Format : UTF-8
Codec ID : S_TEXT/UTF8
Codec ID/Info : UTF-8 Plain Text
Duration : 51 min 2 s
Bit rate : 125 b/s
Count of elements : 851
Stream size : 46.9 KiB (0%)
Title : Arabic
Language : Arabic
Default : No
Forced : No

Text #4
ID : 6
Format : UTF-8
Codec ID : S_TEXT/UTF8
Codec ID/Info : UTF-8 Plain Text
Duration : 51 min 2 s
Bit rate : 120 b/s
Count of elements : 826
Stream size : 44.9 KiB (0%)
Title : Bulgarian
Language : Bulgarian
Default : No
Forced : No

Text #5
ID : 7
Format : UTF-8
Codec ID : S_TEXT/UTF8
Codec ID/Info : UTF-8 Plain Text
Duration : 51 min 2 s
Bit rate : 81 b/s
Count of elements : 847
Stream size : 30.5 KiB (0%)
Title : Czech
Language : Czech
Default : No
Forced : No

Text #6
ID : 8
Format : UTF-8
Codec ID : S_TEXT/UTF8
Codec ID/Info : UTF-8 Plain Text
Duration : 51 min 2 s
Bit rate : 83 b/s
Count of elements : 846
Stream size : 31.1 KiB (0%)
Title : Danish
Language : Danish
Default : No
Forced : No

Text #7
ID : 9
Format : UTF-8
Codec ID : S_TEXT/UTF8
Codec ID/Info : UTF-8 Plain Text
Duration : 51 min 2 s
Bit rate : 66 b/s
Count of elements : 808
Stream size : 24.9 KiB (0%)
Title : Dutch
Language : Dutch
Default : No
Forced : No

Text #8
ID : 10
Format : UTF-8
Codec ID : S_TEXT/UTF8
Codec ID/Info : UTF-8 Plain Text
Duration : 51 min 2 s
Bit rate : 78 b/s
Count of elements : 848
Stream size : 29.4 KiB (0%)
Title : Estonian
Language : Estonian
Default : No
Forced : No

Text #9
ID : 11
Format : UTF-8
Codec ID : S_TEXT/UTF8
Codec ID/Info : UTF-8 Plain Text
Duration : 51 min 2 s
Bit rate : 72 b/s
Count of elements : 841
Stream size : 27.2 KiB (0%)
Title : Finnish
Language : Finnish
Default : No
Forced : No

Text #10
ID : 12
Format : UTF-8
Codec ID : S_TEXT/UTF8
Codec ID/Info : UTF-8 Plain Text
Duration : 51 min 2 s
Bit rate : 76 b/s
Count of elements : 873
Stream size : 28.8 KiB (0%)
Title : French
Language : French
Default : No
Forced : No

Text #11
ID : 13
Format : UTF-8
Codec ID : S_TEXT/UTF8
Codec ID/Info : UTF-8 Plain Text
Duration : 51 min 2 s
Bit rate : 76 b/s
Count of elements : 875
Stream size : 28.8 KiB (0%)
Title : French Canadian
Language : French
Default : No
Forced : No

Text #12
ID : 14
Format : UTF-8
Codec ID : S_TEXT/UTF8
Codec ID/Info : UTF-8 Plain Text
Duration : 51 min 2 s
Bit rate : 93 b/s
Count of elements : 777
Stream size : 34.8 KiB (0%)
Title : German
Language : German
Default : No
Forced : No

Text #13
ID : 15
Format : UTF-8
Codec ID : S_TEXT/UTF8
Codec ID/Info : UTF-8 Plain Text
Duration : 51 min 2 s
Bit rate : 139 b/s
Count of elements : 846
Stream size : 52.2 KiB (0%)
Title : Greek
Language : Greek
Default : No
Forced : No

Text #14
ID : 16
Format : UTF-8
Codec ID : S_TEXT/UTF8
Codec ID/Info : UTF-8 Plain Text
Duration : 51 min 2 s
Bit rate : 117 b/s
Count of elements : 851
Stream size : 44.0 KiB (0%)
Title : Hebrew
Language : Hebrew
Default : No
Forced : No

Text #15
ID : 17
Format : UTF-8
Codec ID : S_TEXT/UTF8
Codec ID/Info : UTF-8 Plain Text
Duration : 51 min 2 s
Bit rate : 229 b/s
Count of elements : 853
Stream size : 86.0 KiB (0%)
Title : Hindi
Language : Hindi
Default : No
Forced : No

Text #16
ID : 18
Format : UTF-8
Codec ID : S_TEXT/UTF8
Codec ID/Info : UTF-8 Plain Text
Duration : 51 min 2 s
Bit rate : 88 b/s
Count of elements : 847
Stream size : 33.0 KiB (0%)
Title : Hungarian
Language : Hungarian
Default : No
Forced : No

Text #17
ID : 19
Format : UTF-8
Codec ID : S_TEXT/UTF8
Codec ID/Info : UTF-8 Plain Text
Duration : 49 min 53 s
Bit rate : 82 b/s
Count of elements : 821
Stream size : 30.1 KiB (0%)
Title : Indonesian
Language : Indonesian
Default : No
Forced : No

Text #18
ID : 20
Format : UTF-8
Codec ID : S_TEXT/UTF8
Codec ID/Info : UTF-8 Plain Text
Duration : 50 min 18 s
Bit rate : 89 b/s
Count of elements : 788
Stream size : 32.9 KiB (0%)
Title : Italian
Language : Italian
Default : No
Forced : No

Text #19
ID : 21
Format : UTF-8
Codec ID : S_TEXT/UTF8
Codec ID/Info : UTF-8 Plain Text
Duration : 51 min 9 s
Bit rate : 71 b/s
Count of elements : 794
Stream size : 26.7 KiB (0%)
Title : Japanese
Language : Japanese
Default : No
Forced : No

Text #20
ID : 22
Format : UTF-8
Codec ID : S_TEXT/UTF8
Codec ID/Info : UTF-8 Plain Text
Duration : 51 min 2 s
Bit rate : 83 b/s
Count of elements : 850
Stream size : 31.2 KiB (0%)
Title : Lithuanian
Language : Lithuanian
Default : No
Forced : No

Text #21
ID : 23
Format : UTF-8
Codec ID : S_TEXT/UTF8
Codec ID/Info : UTF-8 Plain Text
Duration : 51 min 2 s
Bit rate : 90 b/s
Count of elements : 849
Stream size : 33.8 KiB (0%)
Title : Latvian
Language : Latvian
Default : No
Forced : No

Text #22
ID : 24
Format : UTF-8
Codec ID : S_TEXT/UTF8
Codec ID/Info : UTF-8 Plain Text
Duration : 51 min 2 s
Bit rate : 89 b/s
Count of elements : 848
Stream size : 33.3 KiB (0%)
Title : Malay
Language : Malay
Default : No
Forced : No

Text #23
ID : 25
Format : UTF-8
Codec ID : S_TEXT/UTF8
Codec ID/Info : UTF-8 Plain Text
Duration : 51 min 2 s
Bit rate : 80 b/s
Count of elements : 849
Stream size : 30.2 KiB (0%)
Title : Simplified
Language : Chinese
Default : No
Forced : No

Text #24
ID : 26
Format : UTF-8
Codec ID : S_TEXT/UTF8
Codec ID/Info : UTF-8 Plain Text
Duration : 51 min 2 s
Bit rate : 79 b/s
Count of elements : 852
Stream size : 29.8 KiB (0%)
Title : Traditional
Language : Chinese
Default : No
Forced : No

Text #25
ID : 27
Format : UTF-8
Codec ID : S_TEXT/UTF8
Codec ID/Info : UTF-8 Plain Text
Duration : 51 min 2 s
Bit rate : 83 b/s
Count of elements : 852
Stream size : 31.1 KiB (0%)
Title : (Yue Chinese)
Language : Chinese
Default : No
Forced : No

Text #26
ID : 28
Format : UTF-8
Codec ID : S_TEXT/UTF8
Codec ID/Info : UTF-8 Plain Text
Duration : 51 min 2 s
Bit rate : 77 b/s
Count of elements : 847
Stream size : 29.0 KiB (0%)
Title : Norwegian
Language : Norwegian
Default : No
Forced : No

Text #27
ID : 29
Format : UTF-8
Codec ID : S_TEXT/UTF8
Codec ID/Info : UTF-8 Plain Text
Duration : 51 min 2 s
Bit rate : 80 b/s
Count of elements : 848
Stream size : 30.1 KiB (0%)
Title : Polish
Language : Polish
Default : No
Forced : No

Text #28
ID : 30
Format : UTF-8
Codec ID : S_TEXT/UTF8
Codec ID/Info : UTF-8 Plain Text
Duration : 51 min 2 s
Bit rate : 84 b/s
Count of elements : 846
Stream size : 31.7 KiB (0%)
Title : Portuguese
Language : Portuguese
Default : No
Forced : No

Text #29
ID : 31
Format : UTF-8
Codec ID : S_TEXT/UTF8
Codec ID/Info : UTF-8 Plain Text
Duration : 51 min 2 s
Bit rate : 73 b/s
Count of elements : 847
Stream size : 27.4 KiB (0%)
Title : Brazilian Portuguese
Language : Portuguese
Default : No
Forced : No

Text #30
ID : 32
Format : UTF-8
Codec ID : S_TEXT/UTF8
Codec ID/Info : UTF-8 Plain Text
Duration : 51 min 2 s
Bit rate : 133 b/s
Count of elements : 852
Stream size : 50.1 KiB (0%)
Title : Russian
Language : Russian
Default : No
Forced : No

Text #31
ID : 33
Format : UTF-8
Codec ID : S_TEXT/UTF8
Codec ID/Info : UTF-8 Plain Text
Duration : 51 min 2 s
Bit rate : 73 b/s
Count of elements : 848
Stream size : 27.4 KiB (0%)
Title : Slovak
Language : Slovak
Default : No
Forced : No

Text #32
ID : 34
Format : UTF-8
Codec ID : S_TEXT/UTF8
Codec ID/Info : UTF-8 Plain Text
Duration : 51 min 2 s
Bit rate : 69 b/s
Count of elements : 843
Stream size : 26.1 KiB (0%)
Title : Slovenian
Language : Slovenian
Default : No
Forced : No

Text #33
ID : 35
Format : UTF-8
Codec ID : S_TEXT/UTF8
Codec ID/Info : UTF-8 Plain Text
Duration : 51 min 3 s
Bit rate : 85 b/s
Count of elements : 836
Stream size : 32.0 KiB (0%)
Title : Spanish
Language : Spanish
Default : No
Forced : No

Text #34
ID : 36
Format : UTF-8
Codec ID : S_TEXT/UTF8
Codec ID/Info : UTF-8 Plain Text
Duration : 51 min 5 s
Bit rate : 88 b/s
Count of elements : 970
Stream size : 33.1 KiB (0%)
Title : European Spanish
Language : Spanish
Default : No
Forced : No

Text #35
ID : 37
Format : UTF-8
Codec ID : S_TEXT/UTF8
Codec ID/Info : UTF-8 Plain Text
Duration : 51 min 2 s
Bit rate : 86 b/s
Count of elements : 846
Stream size : 32.3 KiB (0%)
Title : Swedish
Language : Swedish
Default : No
Forced : No

Text #36
ID : 38
Format : UTF-8
Codec ID : S_TEXT/UTF8
Codec ID/Info : UTF-8 Plain Text
Duration : 51 min 2 s
Bit rate : 279 b/s
Count of elements : 851
Stream size : 105 KiB (0%)
Title : Tamil
Language : Tamil
Default : No
Forced : No

Text #37
ID : 39
Format : UTF-8
Codec ID : S_TEXT/UTF8
Codec ID/Info : UTF-8 Plain Text
Duration : 51 min 2 s
Bit rate : 259 b/s
Count of elements : 851
Stream size : 97.0 KiB (0%)
Title : Telugu
Language : Telugu
Default : No
Forced : No

Text #38
ID : 40
Format : UTF-8
Codec ID : S_TEXT/UTF8
Codec ID/Info : UTF-8 Plain Text
Duration : 51 min 2 s
Bit rate : 223 b/s
Count of elements : 851
Stream size : 83.5 KiB (0%)
Title : Thai
Language : Thai
Default : No
Forced : No

Text #39
ID : 41
Format : UTF-8
Codec ID : S_TEXT/UTF8
Codec ID/Info : UTF-8 Plain Text
Duration : 51 min 2 s
Bit rate : 123 b/s
Count of elements : 852
Stream size : 46.2 KiB (0%)
Title : Ukrainian
Language : Ukrainian
Default : No
Forced : No

Text #40
ID : 42
Format : UTF-8
Codec ID : S_TEXT/UTF8
Codec ID/Info : UTF-8 Plain Text
Duration : 51 min 2 s
Bit rate : 115 b/s
Count of elements : 851
Stream size : 43.3 KiB (0%)
Title : Vietnamese
Language : Vietnamese
Default : No
Forced : No

Download

Direct download files get automatically deleted after a month or so. Posted on : 11/08/2019

[collapse]
Media Info and Download Links | S01E03

General
Format : Matroska
Format version : Version 4
File size : 284 MiB
Duration : 54 min 43 s
Overall bit rate : 724 kb/s
Movie name : The.Morning.Show.S01E03.Chaos.is.the.New.Cocaine.720p.WEBRip.2CH.x265.HEVC
Encoded date : UTC 2019-11-03 13:21:51
Writing application : mkvmerge v38.0.0 (‘The Silent Type’) 32-bit
Writing library : libebml v1.3.9 + libmatroska v1.5.2

Video
ID : 1
Format : HEVC
Format/Info : High Efficiency Video Coding
Format profile : [email protected]@Main
Codec ID : V_MPEGH/ISO/HEVC
Duration : 54 min 43 s
Bit rate : 656 kb/s
Width : 1 280 pixels
Height : 640 pixels
Display aspect ratio : 2.000
Frame rate mode : Constant
Frame rate : 23.976 (24000/1001) FPS
Color space : YUV
Chroma subsampling : 4:2:0
Bit depth : 8 bits
Bits/(Pixel*Frame) : 0.033
Stream size : 257 MiB (91%)
Default : Yes
Forced : No
Color range : Limited
Color primaries : BT.709
Transfer characteristics : BT.709
Matrix coefficients : BT.709

Audio
ID : 2
Format : AAC LC SBR
Commercial name : HE-AAC
Format settings : Explicit
Codec ID : A_AAC-2
Duration : 54 min 43 s
Bit rate : 66.2 kb/s
Channel(s) : 2 channels
Channel layout : L R
Sampling rate : 48.0 kHz
Frame rate : 23.438 FPS (2048 SPF)
Compression mode : Lossy
Delay relative to video : 23 ms
Stream size : 26.1 MiB (9%)
Language : English
Default : Yes
Forced : No

Text
ID : 3
Format : UTF-8
Codec ID : S_TEXT/UTF8
Codec ID/Info : UTF-8 Plain Text
Duration : 53 min 24 s
Bit rate : 95 b/s
Count of elements : 969
Stream size : 37.4 KiB (0%)
Language : English
Default : Yes
Forced : No

Download

Direct download files get automatically deleted after a month or so. Posted on : 11/03/2019

[collapse]
Media Info and Download Links | S01E02

General
Format : Matroska
Format version : Version 4
File size : 296 MiB
Duration : 57 min 42 s
Overall bit rate : 718 kb/s
Movie name : The.Morning.Show.S01E02.A.Seat.at.the.Table.720p.WEBRip.2CH.x265.HEVC
Encoded date : UTC 2019-11-03 13:20:33
Writing application : mkvmerge v38.0.0 (‘The Silent Type’) 32-bit
Writing library : libebml v1.3.9 + libmatroska v1.5.2

Video
ID : 1
Format : HEVC
Format/Info : High Efficiency Video Coding
Format profile : [email protected]@Main
Codec ID : V_MPEGH/ISO/HEVC
Duration : 57 min 42 s
Bit rate : 651 kb/s
Width : 1 280 pixels
Height : 640 pixels
Display aspect ratio : 2.000
Frame rate mode : Constant
Frame rate : 23.976 (24000/1001) FPS
Color space : YUV
Chroma subsampling : 4:2:0
Bit depth : 8 bits
Bits/(Pixel*Frame) : 0.033
Stream size : 269 MiB (91%)
Default : Yes
Forced : No
Color range : Limited
Color primaries : BT.709
Transfer characteristics : BT.709
Matrix coefficients : BT.709

Audio
ID : 2
Format : AAC LC SBR
Commercial name : HE-AAC
Format settings : Explicit
Codec ID : A_AAC-2
Duration : 57 min 42 s
Bit rate : 66.2 kb/s
Channel(s) : 2 channels
Channel layout : L R
Sampling rate : 48.0 kHz
Frame rate : 23.438 FPS (2048 SPF)
Compression mode : Lossy
Delay relative to video : 23 ms
Stream size : 27.0 MiB (9%)
Language : English
Default : Yes
Forced : No

Text
ID : 3
Format : UTF-8
Codec ID : S_TEXT/UTF8
Codec ID/Info : UTF-8 Plain Text
Duration : 55 min 10 s
Bit rate : 94 b/s
Count of elements : 974
Stream size : 38.2 KiB (0%)
Language : English
Default : Yes
Forced : No

Download

Direct download files get automatically deleted after a month or so. Posted on : 11/03/2019

[collapse]
Media Info and Download Links | S01E01

General
Format : Matroska
Format version : Version 4
File size : 305 MiB
Duration : 1 h 3 min
Overall bit rate : 670 kb/s
Movie name : The.Morning.Show.S01E01.In.the.Dark.Night.of.the.Soul.It’s.Always.3.30.in.the.Morning.720p.WEBRip.2CH.x265.HEVC
Encoded date : UTC 2019-11-02 20:56:17
Writing application : mkvmerge v38.0.0 (‘The Silent Type’) 32-bit
Writing library : libebml v1.3.9 + libmatroska v1.5.2

Video
ID : 1
Format : HEVC
Format/Info : High Efficiency Video Coding
Format profile : [email protected]@Main
Codec ID : V_MPEGH/ISO/HEVC
Duration : 1 h 3 min
Bit rate : 603 kb/s
Width : 1 280 pixels
Height : 640 pixels
Display aspect ratio : 2.000
Frame rate mode : Constant
Frame rate : 23.976 (24000/1001) FPS
Color space : YUV
Chroma subsampling : 4:2:0
Bit depth : 8 bits
Bits/(Pixel*Frame) : 0.031
Stream size : 274 MiB (90%)
Default : Yes
Forced : No
Color range : Limited
Color primaries : BT.709
Transfer characteristics : BT.709
Matrix coefficients : BT.709

Audio
ID : 2
Format : AAC LC SBR
Commercial name : HE-AAC
Format settings : Explicit
Codec ID : A_AAC-2
Duration : 1 h 3 min
Bit rate : 64.8 kb/s
Channel(s) : 2 channels
Channel layout : L R
Sampling rate : 48.0 kHz
Frame rate : 23.438 FPS (2048 SPF)
Compression mode : Lossy
Delay relative to video : 23 ms
Stream size : 29.5 MiB (10%)
Language : English
Default : Yes
Forced : No

Text
ID : 3
Format : UTF-8
Codec ID : S_TEXT/UTF8
Codec ID/Info : UTF-8 Plain Text
Duration : 1 h 0 min
Bit rate : 89 b/s
Count of elements : 991
Stream size : 39.6 KiB (0%)
Language : English
Default : Yes
Forced : No

Download

Direct download files get automatically deleted after a month or so. Posted on : 11/02/2019

[collapse]

You may also like...

error: nah :p~