The Spanish Princess

TV-MA | Drama, History | TV Mini-Series (2019– )

The beautiful Spanish princess, Catherine of Aragon, navigates the royal lineage of England with an eye on the throne.

Watch trailer

Media Info and Download Links | S01E03

General
Format : Matroska
Format version : Version 4
File size : 302 MiB
Duration : 54 min 58 s
Overall bit rate : 767 kb/s
Movie name : The.Spanish.Princess.S01E03.An.Audacious.Plan.720p.WEBRip.2CH.x265.HEVC
Encoded date : UTC 2019-05-22 14:30:28
Writing application : mkvmerge v34.0.0 (‘Sight and Seen’) 32-bit
Writing library : libebml v1.3.7 + libmatroska v1.5.0

Video
ID : 1
Format : HEVC
Format/Info : High Efficiency Video Coding
Format profile : [email protected]@Main
Codec ID : V_MPEGH/ISO/HEVC
Duration : 54 min 58 s
Bit rate : 698 kb/s
Width : 1 280 pixels
Height : 720 pixels
Display aspect ratio : 16:9
Frame rate mode : Constant
Frame rate : 23.976 (24000/1001) FPS
Color space : YUV
Chroma subsampling : 4:2:0
Bit depth : 8 bits
Bits/(Pixel*Frame) : 0.032
Stream size : 274 MiB (91%)
Default : Yes
Forced : No

Audio
ID : 2
Format : AAC LC SBR
Commercial name : HE-AAC
Format settings : Explicit
Codec ID : A_AAC-2
Duration : 54 min 58 s
Bit rate : 67.7 kb/s
Channel(s) : 2 channels
Channel layout : L R
Sampling rate : 48.0 kHz
Frame rate : 23.438 FPS (2048 SPF)
Compression mode : Lossy
Delay relative to video : 23 ms
Stream size : 26.6 MiB (9%)
Language : English
Default : Yes
Forced : No

Text
ID : 3
Format : UTF-8
Codec ID : S_TEXT/UTF8
Codec ID/Info : UTF-8 Plain Text
Duration : 53 min 23 s
Bit rate : 59 b/s
Count of elements : 844
Stream size : 23.2 KiB (0%)
Language : English
Default : Yes
Forced : No

Download

Direct download files get automatically deleted after a month or so. Posted on : 05/22/2019

[collapse]
Media Info and Download Links | S01E02

General
Format : Matroska
Format version : Version 4
File size : 344 MiB
Duration : 57 min 45 s
Overall bit rate : 833 kb/s
Movie name : The.Spanish.Princess.S01E02.Fever.Dream.720p.WEBRip.2CH.x265.HEVC
Encoded date : UTC 2019-05-15 12:28:44
Writing application : mkvmerge v33.1.0 (‘Primrose’) 32-bit
Writing library : libebml v1.3.7 + libmatroska v1.5.0

Video
ID : 1
Format : HEVC
Format/Info : High Efficiency Video Coding
Format profile : [email protected]@Main
Codec ID : V_MPEGH/ISO/HEVC
Duration : 57 min 45 s
Bit rate : 762 kb/s
Width : 1 280 pixels
Height : 720 pixels
Display aspect ratio : 16:9
Frame rate mode : Constant
Frame rate : 23.976 (24000/1001) FPS
Color space : YUV
Chroma subsampling : 4:2:0
Bit depth : 8 bits
Bits/(Pixel*Frame) : 0.034
Stream size : 315 MiB (91%)
Default : Yes
Forced : No

Audio
ID : 2
Format : AAC LC SBR
Commercial name : HE-AAC
Format settings : Explicit
Codec ID : A_AAC-2
Duration : 57 min 45 s
Bit rate : 69.3 kb/s
Channel(s) : 2 channels
Channel layout : L R
Sampling rate : 48.0 kHz
Frame rate : 23.438 FPS (2048 SPF)
Compression mode : Lossy
Delay relative to video : 23 ms
Stream size : 28.6 MiB (8%)
Language : English
Default : Yes
Forced : No

Text
ID : 3
Format : UTF-8
Codec ID : S_TEXT/UTF8
Codec ID/Info : UTF-8 Plain Text
Duration : 56 min 10 s
Bit rate : 47 b/s
Count of elements : 701
Stream size : 19.6 KiB (0%)
Language : English
Default : Yes
Forced : No

Download

Direct download files get automatically deleted after a month or so. Posted on : 05/15/2019

[collapse]
Media Info and Download Links | S01E01

General
Format : Matroska
Format version : Version 4
File size : 338 MiB
Duration : 55 min 59 s
Overall bit rate : 844 kb/s
Movie name : The.Spanish.Princess.S01E01.The.New.World.720p.WEBRip.2CH.x265.HEVC
Encoded date : UTC 2019-05-06 17:43:37
Writing application : mkvmerge v33.1.0 (‘Primrose’) 32-bit
Writing library : libebml v1.3.7 + libmatroska v1.5.0

Video
ID : 1
Format : HEVC
Format/Info : High Efficiency Video Coding
Format profile : [email protected]@Main
Codec ID : V_MPEGH/ISO/HEVC
Duration : 55 min 59 s
Bit rate : 773 kb/s
Width : 1 280 pixels
Height : 720 pixels
Display aspect ratio : 16:9
Frame rate mode : Constant
Frame rate : 23.976 (24000/1001) FPS
Color space : YUV
Chroma subsampling : 4:2:0
Bit depth : 8 bits
Bits/(Pixel*Frame) : 0.035
Stream size : 309 MiB (92%)
Default : Yes
Forced : No

Audio
ID : 2
Format : AAC LC SBR
Commercial name : HE-AAC
Format settings : Explicit
Codec ID : A_AAC-2
Duration : 55 min 59 s
Bit rate : 69.3 kb/s
Channel(s) : 2 channels
Channel layout : L R
Sampling rate : 48.0 kHz
Frame rate : 23.438 FPS (2048 SPF)
Compression mode : Lossy
Delay relative to video : 23 ms
Stream size : 27.7 MiB (8%)
Language : English
Default : Yes
Forced : No

Text
ID : 3
Format : UTF-8
Codec ID : S_TEXT/UTF8
Codec ID/Info : UTF-8 Plain Text
Duration : 54 min 23 s
Bit rate : 52 b/s
Count of elements : 746
Stream size : 21.1 KiB (0%)
Language : English
Default : Yes
Forced : No

Download

Direct download files get automatically deleted after a month or so. Posted on : 05/06/2019

[collapse]

You may also like...

error: nah :p~