The Walking Dead

TV-14 | 44min | Drama, Horror, Thriller | TV Series (2010– )

Sheriff Deputy Rick Grimes wakes up from a coma to learn the world is in ruins, and must lead a group of survivors to stay alive.

Watch trailer

Details and Download | S09E00

General
Format : Matroska
Format version : Version 4 / Version 2
File size : 156 MiB
Duration : 41 min 9 s
Overall bit rate : 531 kb/s
Movie name : The.Walking.Dead.S09E00.Season.9.Preview.Special.720p.WEBRip.2CH.x265.HEVC
Encoded date : UTC 2018-08-08 16:40:33
Writing application : mkvmerge v25.0.0 (‘Prog Noir’) 32-bit
Writing library : libebml v1.3.6 + libmatroska v1.4.9

Video
ID : 1
Format : HEVC
Format/Info : High Efficiency Video Coding
Format profile : [email protected]@Main
Codec ID : V_MPEGH/ISO/HEVC
Duration : 41 min 9 s
Bit rate : 470 kb/s
Width : 1 280 pixels
Height : 720 pixels
Display aspect ratio : 16:9
Frame rate mode : Constant
Frame rate : 29.970 (30000/1001) FPS
Color space : YUV
Chroma subsampling : 4:2:0
Bit depth : 8 bits
Bits/(Pixel*Frame) : 0.017
Stream size : 138 MiB (89%)
Default : Yes
Forced : No

Audio
ID : 2
Format : AAC
Format/Info : Advanced Audio Codec
Format profile : HE-AAC / LC
Format settings : Explicit
Codec ID : A_AAC-2
Duration : 41 min 9 s
Bit rate : 58.1 kb/s
Channel(s) : 2 channels
Channel positions : Front: L R
Sampling rate : 48.0 kHz / 24.0 kHz
Frame rate : 23.438 FPS (1024 SPF)
Compression mode : Lossy
Delay relative to video : 23 ms
Stream size : 17.1 MiB (11%)
Language : English
Default : Yes
Forced : No

Download

Direct download files get automatically deleted after a month or so. Posted on : 08/09/2018

[collapse]

Season08 Magnet

Magnet

The.Walking.Dead.S08.720p.AMZN.WEBRip.DDP5.1.x264-CasStudio-32.79 GB

[collapse]
Season07 Magnet

Magnet

The.Walking.Dead.S07.720p.BluRay.x264-DEMAND-34.97 GB

[collapse]
Season6 Magnet

Magnet

The.Walking.Dead.S06.720p.BluRay.x264-DEMAND-36.39 GB

[collapse]
Season05 Magnet

Magnet

The.Walking.Dead.S05.BDRip.x264-DEMAND-5.72 GB

[collapse]
Season04 Magnet

Magnet

The.Walking.Dead.S04.BDRip.x264-DEMAND-6.32 GB

[collapse]
Season03 Magnet

Magnet

Fear.the.Walking.Dead.S03.BDRip.X264-REWARD-3.94 GB

[collapse]
Season02 Magnet

Magnet

Fear.the.Walking.Dead.S02.720p.BluRay.x264-DEMAND-32.66 GB

[collapse]
Season01 Magnet

Magnet

Fear.the.Walking.Dead.S01.720p.BluRay.X264-REWARD- 14.67 GB

[collapse]

You may also like...

error: nah :p~