The War of the Worlds

48min | Drama, Sci-Fi | TV Mini-Series (2019)

In London during the Edwardian era, George and Amy’s attempt to start a life together is interrupted by a Martian invasion of Earth.

Watch trailer

Media Info and Download Links | S01E03

General
Format : Matroska
Format version : Version 4
File size : 238 MiB
Duration : 53 min 53 s
Overall bit rate : 617 kb/s
Movie name : The.War.Of.The.Worlds.2019.S01E03.1080p.10bit.WEB-DL.2CH.x265.HEVC
Encoded date : UTC 2019-12-05 08:04:38
Writing application : mkvmerge v40.0.0 (‘Old Town Road + Pony’) 32-bit
Writing library : libebml v1.3.9 + libmatroska v1.5.2

Video
ID : 1
Format : HEVC
Format/Info : High Efficiency Video Coding
Format profile : Main [email protected]@Main
Codec ID : V_MPEGH/ISO/HEVC
Duration : 53 min 53 s
Bit rate : 527 kb/s
Width : 1 920 pixels
Height : 1 080 pixels
Display aspect ratio : 16:9
Frame rate mode : Constant
Frame rate : 25.000 FPS
Color space : YUV
Chroma subsampling : 4:2:0
Bit depth : 10 bits
Bits/(Pixel*Frame) : 0.010
Stream size : 203 MiB (85%)
Default : Yes
Forced : No

Audio
ID : 2
Format : AAC LC
Codec ID : A_AAC-2
Duration : 53 min 53 s
Bit rate : 87.7 kb/s
Channel(s) : 2 channels
Channel layout : L R
Sampling rate : 48.0 kHz
Frame rate : 46.875 FPS (1024 SPF)
Compression mode : Lossy
Delay relative to video : 9 ms
Stream size : 33.8 MiB (14%)
Language : English
Default : Yes
Forced : No

Text
ID : 3
Format : UTF-8
Codec ID : S_TEXT/UTF8
Codec ID/Info : UTF-8 Plain Text
Duration : 51 min 4 s
Bit rate : 37 b/s
Count of elements : 506
Stream size : 14.0 KiB (0%)
Language : English
Default : Yes
Forced : No

Download

Direct download files get automatically deleted after a month or so. Posted on : 12/05/2019

[collapse]
Media Info and Download Links | S01E02

General
Format : Matroska
Format version : Version 4
File size : 385 MiB
Duration : 53 min 48 s
Overall bit rate : 1 000 kb/s
Movie name : The.War.Of.The.Worlds.2019.S01E02.1080p.10bit.WEB-DL.2CH.x265.HEVC
Encoded date : UTC 2019-12-05 08:03:11
Writing application : mkvmerge v40.0.0 (‘Old Town Road + Pony’) 32-bit
Writing library : libebml v1.3.9 + libmatroska v1.5.2

Video
ID : 1
Format : HEVC
Format/Info : High Efficiency Video Coding
Format profile : Main [email protected]@Main
Codec ID : V_MPEGH/ISO/HEVC
Duration : 53 min 48 s
Bit rate : 910 kb/s
Width : 1 920 pixels
Height : 1 080 pixels
Display aspect ratio : 16:9
Frame rate mode : Constant
Frame rate : 25.000 FPS
Color space : YUV
Chroma subsampling : 4:2:0
Bit depth : 10 bits
Bits/(Pixel*Frame) : 0.018
Stream size : 350 MiB (91%)
Default : Yes
Forced : No

Audio
ID : 2
Format : AAC LC
Codec ID : A_AAC-2
Duration : 53 min 48 s
Bit rate : 87.5 kb/s
Channel(s) : 2 channels
Channel layout : L R
Sampling rate : 48.0 kHz
Frame rate : 46.875 FPS (1024 SPF)
Compression mode : Lossy
Delay relative to video : 9 ms
Stream size : 33.7 MiB (9%)
Language : English
Default : Yes
Forced : No

Text
ID : 3
Format : UTF-8
Codec ID : S_TEXT/UTF8
Codec ID/Info : UTF-8 Plain Text
Duration : 52 min 7 s
Bit rate : 41 b/s
Count of elements : 580
Stream size : 15.9 KiB (0%)
Language : English
Default : Yes
Forced : No

Download

Direct download files get automatically deleted after a month or so. Posted on : 12/05/2019

[collapse]
Media Info and Download Links | S01E01

General
Format : Matroska
Format version : Version 4
File size : 461 MiB
Duration : 54 min 30 s
Overall bit rate : 1 182 kb/s
Movie name : The.War.Of.The.Worlds.2019.S01E01.1080p.10bit.WEB-DL.2CH.x265.HEVC
Encoded date : UTC 2019-12-05 08:01:33
Writing application : mkvmerge v40.0.0 (‘Old Town Road + Pony’) 32-bit
Writing library : libebml v1.3.9 + libmatroska v1.5.2

Video
ID : 1
Format : HEVC
Format/Info : High Efficiency Video Coding
Format profile : Main [email protected]@Main
Codec ID : V_MPEGH/ISO/HEVC
Duration : 54 min 30 s
Bit rate : 1 091 kb/s
Width : 1 920 pixels
Height : 1 080 pixels
Display aspect ratio : 16:9
Frame rate mode : Constant
Frame rate : 25.000 FPS
Color space : YUV
Chroma subsampling : 4:2:0
Bit depth : 10 bits
Bits/(Pixel*Frame) : 0.021
Stream size : 425 MiB (92%)
Default : Yes
Forced : No

Audio
ID : 2
Format : AAC LC
Codec ID : A_AAC-2
Duration : 54 min 30 s
Bit rate : 89.4 kb/s
Channel(s) : 2 channels
Channel layout : L R
Sampling rate : 48.0 kHz
Frame rate : 46.875 FPS (1024 SPF)
Compression mode : Lossy
Delay relative to video : 9 ms
Stream size : 34.9 MiB (8%)
Language : English
Default : Yes
Forced : No

Text
ID : 3
Format : UTF-8
Codec ID : S_TEXT/UTF8
Codec ID/Info : UTF-8 Plain Text
Duration : 52 min 46 s
Bit rate : 51 b/s
Count of elements : 619
Stream size : 19.7 KiB (0%)
Language : English
Default : Yes
Forced : No

Download

Direct download files get automatically deleted after a month or so. Posted on : 12/05/2019

[collapse]

Magnet

Magnet

The.War.Of.The.Worlds.2019.S01.1080p.AMZN.WEBRip.DDP2.0.x264-NTb-8.33 GB

[collapse]

You may also like...

error: nah :p~