Titans

45min | Action , Adventure , Fantasy | TV Series (2018– )

A team of young superheroes led by Nightwing (formerly Batman’s first Robin) form to combat evil and other perils.

Watch trailer

Details and Download | S01E01

General
Format : Matroska
Format version : Version 4
File size : 206 MiB
Duration : 50 min 42 s
Overall bit rate : 569 kb/s
Movie name : Titans.2018.S01E01.Titans.720p.10bit.WEBRip.2CH.x265.HEVC
Encoded date : UTC 2018-10-13 16:09:23
Writing application : mkvmerge v27.0.0 (‘Metropolis’) 32-bit
Writing library : libebml v1.3.6 + libmatroska v1.4.9

Video
ID : 1
Format : HEVC
Format/Info : High Efficiency Video Coding
Format profile : Main [email protected]@Main
Codec ID : V_MPEGH/ISO/HEVC
Duration : 50 min 42 s
Bit rate : 492 kb/s
Width : 1 280 pixels
Height : 640 pixels
Display aspect ratio : 2.000
Frame rate mode : Constant
Frame rate : 23.976 (24000/1001) FPS
Color space : YUV
Chroma subsampling : 4:2:0
Bit depth : 10 bits
Bits/(Pixel*Frame) : 0.025
Stream size : 178 MiB (86%)
Default : Yes
Forced : No

Audio
ID : 2
Format : AAC LC SBR
Commercial name : HE-AAC
Format settings : Explicit
Codec ID : A_AAC-2
Duration : 50 min 42 s
Bit rate : 75.7 kb/s
Channel(s) : 2 channels
Channel layout : L R
Sampling rate : 48.0 kHz
Frame rate : 23.438 FPS (2048 SPF)
Compression mode : Lossy
Delay relative to video : 23 ms
Stream size : 27.4 MiB (13%)
Language : English
Default : Yes
Forced : No

Text
ID : 3
Format : UTF-8
Codec ID : S_TEXT/UTF8
Codec ID/Info : UTF-8 Plain Text
Duration : 48 min 37 s
Bit rate : 36 b/s
Count of elements : 516
Stream size : 13.0 KiB (0%)
Language : English
Default : Yes
Forced : No

Download

Direct download files get automatically deleted after a month or so. Posted on : 10/13/2018

[collapse]

You may also like...

error: nah :p~