Unbelievable

TV-MA | Drama | TV Series (2019– )

The true story of Marie, a teenager who was charged with lying about having been raped, and the two female detectives who followed a twisting path to arrive at the truth.

Watch trailer

Media Info and Download Links | S01E08

General
Format : Matroska
Format version : Version 4
File size : 192 MiB
Duration : 45 min 9 s
Overall bit rate : 595 kb/s
Movie name : Unbelievable.S01E08.720p.WEBRip.2CH.x265.HEVC
Encoded date : UTC 2019-09-14 11:08:52
Writing application : mkvmerge v37.0.0 (‘Leave It’) 32-bit
Writing library : libebml v1.3.9 + libmatroska v1.5.2

Video
ID : 1
Format : HEVC
Format/Info : High Efficiency Video Coding
Format profile : [email protected]@Main
Codec ID : V_MPEGH/ISO/HEVC
Duration : 45 min 9 s
Bit rate : 530 kb/s
Width : 1 280 pixels
Height : 640 pixels
Display aspect ratio : 2.000
Frame rate mode : Constant
Frame rate : 23.976 (24000/1001) FPS
Color space : YUV
Chroma subsampling : 4:2:0
Bit depth : 8 bits
Bits/(Pixel*Frame) : 0.027
Stream size : 171 MiB (89%)
Default : Yes
Forced : No

Audio
ID : 2
Format : AAC LC SBR
Commercial name : HE-AAC
Format settings : Explicit
Codec ID : A_AAC-2
Duration : 45 min 9 s
Bit rate : 61.4 kb/s
Channel(s) : 2 channels
Channel layout : L R
Sampling rate : 48.0 kHz
Frame rate : 23.438 FPS (2048 SPF)
Compression mode : Lossy
Delay relative to video : 23 ms
Stream size : 19.8 MiB (10%)
Language : English
Default : Yes
Forced : No

Text #1
ID : 3
Format : UTF-8
Codec ID : S_TEXT/UTF8
Codec ID/Info : UTF-8 Plain Text
Duration : 41 min 56 s
Bit rate : 61 b/s
Count of elements : 546
Stream size : 19.0 KiB (0%)
Title : English
Language : English
Default : Yes
Forced : No

Text #2
ID : 4
Format : UTF-8
Codec ID : S_TEXT/UTF8
Codec ID/Info : UTF-8 Plain Text
Duration : 44 min 13 s
Bit rate : 49 b/s
Count of elements : 463
Stream size : 15.9 KiB (0%)
Title : Dutch
Language : Dutch
Default : No
Forced : No

Text #3
ID : 5
Format : UTF-8
Codec ID : S_TEXT/UTF8
Codec ID/Info : UTF-8 Plain Text
Duration : 44 min 13 s
Bit rate : 45 b/s
Count of elements : 491
Stream size : 14.6 KiB (0%)
Title : Spanish
Language : Spanish
Default : No
Forced : No

Text #4
ID : 6
Format : UTF-8
Codec ID : S_TEXT/UTF8
Codec ID/Info : UTF-8 Plain Text
Duration : 44 min 13 s
Bit rate : 76 b/s
Count of elements : 502
Stream size : 24.9 KiB (0%)
Title : Greek
Language : Greek
Default : No
Forced : No

Text #5
ID : 7
Format : UTF-8
Codec ID : S_TEXT/UTF8
Codec ID/Info : UTF-8 Plain Text
Duration : 44 min 13 s
Bit rate : 49 b/s
Count of elements : 500
Stream size : 16.2 KiB (0%)
Title : French
Language : French
Default : No
Forced : No

Text #6
ID : 8
Format : UTF-8
Codec ID : S_TEXT/UTF8
Codec ID/Info : UTF-8 Plain Text
Duration : 44 min 13 s
Bit rate : 46 b/s
Count of elements : 431
Stream size : 14.9 KiB (0%)
Title : Norwegian
Language : Norwegian
Default : No
Forced : No

Text #7
ID : 9
Format : UTF-8
Codec ID : S_TEXT/UTF8
Codec ID/Info : UTF-8 Plain Text
Duration : 44 min 13 s
Bit rate : 45 b/s
Count of elements : 503
Stream size : 14.7 KiB (0%)
Title : Czech
Language : Czech
Default : No
Forced : No

Text #8
ID : 10
Format : UTF-8
Codec ID : S_TEXT/UTF8
Codec ID/Info : UTF-8 Plain Text
Duration : 44 min 13 s
Bit rate : 45 b/s
Count of elements : 510
Stream size : 14.7 KiB (0%)
Title : Italian
Language : Italian
Default : No
Forced : No

Text #9
ID : 11
Format : UTF-8
Codec ID : S_TEXT/UTF8
Codec ID/Info : UTF-8 Plain Text
Duration : 44 min 13 s
Bit rate : 44 b/s
Count of elements : 486
Stream size : 14.3 KiB (0%)
Title : European Spanish
Language : Spanish
Default : No
Forced : No

Text #10
ID : 12
Format : UTF-8
Codec ID : S_TEXT/UTF8
Codec ID/Info : UTF-8 Plain Text
Duration : 44 min 13 s
Bit rate : 47 b/s
Count of elements : 485
Stream size : 15.3 KiB (0%)
Title : Brazilian Portuguese
Language : Portuguese
Default : No
Forced : No

Text #11
ID : 13
Format : UTF-8
Codec ID : S_TEXT/UTF8
Codec ID/Info : UTF-8 Plain Text
Duration : 44 min 13 s
Bit rate : 45 b/s
Count of elements : 493
Stream size : 14.9 KiB (0%)
Title : Portuguese
Language : Portuguese
Default : No
Forced : No

Text #12
ID : 14
Format : UTF-8
Codec ID : S_TEXT/UTF8
Codec ID/Info : UTF-8 Plain Text
Duration : 44 min 13 s
Bit rate : 53 b/s
Count of elements : 475
Stream size : 17.5 KiB (0%)
Title : Turkish
Language : Turkish
Default : No
Forced : No

Text #13
ID : 15
Format : UTF-8
Codec ID : S_TEXT/UTF8
Codec ID/Info : UTF-8 Plain Text
Duration : 44 min 13 s
Bit rate : 48 b/s
Count of elements : 478
Stream size : 15.8 KiB (0%)
Title : Swedish
Language : Swedish
Default : No
Forced : No

Text #14
ID : 16
Format : UTF-8
Codec ID : S_TEXT/UTF8
Codec ID/Info : UTF-8 Plain Text
Duration : 44 min 13 s
Bit rate : 47 b/s
Count of elements : 506
Stream size : 15.4 KiB (0%)
Title : Indonesian
Language : Indonesian
Default : No
Forced : No

Text #15
ID : 17
Format : UTF-8
Codec ID : S_TEXT/UTF8
Codec ID/Info : UTF-8 Plain Text
Duration : 44 min 13 s
Bit rate : 45 b/s
Count of elements : 401
Stream size : 14.8 KiB (0%)
Title : Finnish
Language : Finnish
Default : No
Forced : No

Text #16
ID : 18
Format : UTF-8
Codec ID : S_TEXT/UTF8
Codec ID/Info : UTF-8 Plain Text
Duration : 44 min 13 s
Bit rate : 47 b/s
Count of elements : 503
Stream size : 15.2 KiB (0%)
Title : Polish
Language : Polish
Default : No
Forced : No

Text #17
ID : 19
Format : UTF-8
Codec ID : S_TEXT/UTF8
Codec ID/Info : UTF-8 Plain Text
Duration : 44 min 13 s
Bit rate : 47 b/s
Count of elements : 468
Stream size : 15.4 KiB (0%)
Title : German
Language : German
Default : No
Forced : No

Text #18
ID : 20
Format : UTF-8
Codec ID : S_TEXT/UTF8
Codec ID/Info : UTF-8 Plain Text
Duration : 44 min 13 s
Bit rate : 77 b/s
Count of elements : 605
Stream size : 25.2 KiB (0%)
Title : Russian
Language : Russian
Default : No
Forced : No

Text #19
ID : 21
Format : UTF-8
Codec ID : S_TEXT/UTF8
Codec ID/Info : UTF-8 Plain Text
Duration : 44 min 13 s
Bit rate : 44 b/s
Count of elements : 436
Stream size : 14.3 KiB (0%)
Title : Danish
Language : Danish
Default : No
Forced : No

Download

Direct download files get automatically deleted after a month or so. Posted on : 09/14/2019

[collapse]
Media Info and Download Links | S01E07

General
Format : Matroska
Format version : Version 4
File size : 202 MiB
Duration : 53 min 33 s
Overall bit rate : 528 kb/s
Movie name : Unbelievable.S01E07.720p.WEBRip.2CH.x265.HEVC
Encoded date : UTC 2019-09-14 11:07:37
Writing application : mkvmerge v37.0.0 (‘Leave It’) 32-bit
Writing library : libebml v1.3.9 + libmatroska v1.5.2

Video
ID : 1
Format : HEVC
Format/Info : High Efficiency Video Coding
Format profile : [email protected]@Main
Codec ID : V_MPEGH/ISO/HEVC
Duration : 53 min 33 s
Bit rate : 461 kb/s
Width : 1 280 pixels
Height : 640 pixels
Display aspect ratio : 2.000
Frame rate mode : Constant
Frame rate : 23.976 (24000/1001) FPS
Color space : YUV
Chroma subsampling : 4:2:0
Bit depth : 8 bits
Bits/(Pixel*Frame) : 0.023
Stream size : 177 MiB (87%)
Default : Yes
Forced : No

Audio
ID : 2
Format : AAC LC SBR
Commercial name : HE-AAC
Format settings : Explicit
Codec ID : A_AAC-2
Duration : 53 min 33 s
Bit rate : 63.3 kb/s
Channel(s) : 2 channels
Channel layout : L R
Sampling rate : 48.0 kHz
Frame rate : 23.438 FPS (2048 SPF)
Compression mode : Lossy
Delay relative to video : 23 ms
Stream size : 24.2 MiB (12%)
Language : English
Default : Yes
Forced : No

Text #1
ID : 3
Format : UTF-8
Codec ID : S_TEXT/UTF8
Codec ID/Info : UTF-8 Plain Text
Duration : 50 min 17 s
Bit rate : 56 b/s
Count of elements : 605
Stream size : 20.6 KiB (0%)
Title : English
Language : English
Default : Yes
Forced : No

Text #2
ID : 4
Format : UTF-8
Codec ID : S_TEXT/UTF8
Codec ID/Info : UTF-8 Plain Text
Duration : 52 min 37 s
Bit rate : 46 b/s
Count of elements : 500
Stream size : 17.8 KiB (0%)
Title : Dutch
Language : Dutch
Default : No
Forced : No

Text #3
ID : 5
Format : UTF-8
Codec ID : S_TEXT/UTF8
Codec ID/Info : UTF-8 Plain Text
Duration : 52 min 37 s
Bit rate : 41 b/s
Count of elements : 537
Stream size : 16.1 KiB (0%)
Title : Spanish
Language : Spanish
Default : No
Forced : No

Text #4
ID : 6
Format : UTF-8
Codec ID : S_TEXT/UTF8
Codec ID/Info : UTF-8 Plain Text
Duration : 52 min 37 s
Bit rate : 70 b/s
Count of elements : 549
Stream size : 27.1 KiB (0%)
Title : Greek
Language : Greek
Default : No
Forced : No

Text #5
ID : 7
Format : UTF-8
Codec ID : S_TEXT/UTF8
Codec ID/Info : UTF-8 Plain Text
Duration : 52 min 37 s
Bit rate : 46 b/s
Count of elements : 548
Stream size : 17.8 KiB (0%)
Title : French
Language : French
Default : No
Forced : No

Text #6
ID : 8
Format : UTF-8
Codec ID : S_TEXT/UTF8
Codec ID/Info : UTF-8 Plain Text
Duration : 52 min 37 s
Bit rate : 42 b/s
Count of elements : 461
Stream size : 16.5 KiB (0%)
Title : Norwegian
Language : Norwegian
Default : No
Forced : No

Text #7
ID : 9
Format : UTF-8
Codec ID : S_TEXT/UTF8
Codec ID/Info : UTF-8 Plain Text
Duration : 52 min 37 s
Bit rate : 41 b/s
Count of elements : 549
Stream size : 15.9 KiB (0%)
Title : Czech
Language : Czech
Default : No
Forced : No

Text #8
ID : 10
Format : UTF-8
Codec ID : S_TEXT/UTF8
Codec ID/Info : UTF-8 Plain Text
Duration : 52 min 37 s
Bit rate : 40 b/s
Count of elements : 552
Stream size : 15.8 KiB (0%)
Title : Italian
Language : Italian
Default : No
Forced : No

Text #9
ID : 11
Format : UTF-8
Codec ID : S_TEXT/UTF8
Codec ID/Info : UTF-8 Plain Text
Duration : 52 min 37 s
Bit rate : 41 b/s
Count of elements : 529
Stream size : 15.9 KiB (0%)
Title : European Spanish
Language : Spanish
Default : No
Forced : No

Text #10
ID : 12
Format : UTF-8
Codec ID : S_TEXT/UTF8
Codec ID/Info : UTF-8 Plain Text
Duration : 52 min 37 s
Bit rate : 44 b/s
Count of elements : 525
Stream size : 17.2 KiB (0%)
Title : Brazilian Portuguese
Language : Portuguese
Default : No
Forced : No

Text #11
ID : 13
Format : UTF-8
Codec ID : S_TEXT/UTF8
Codec ID/Info : UTF-8 Plain Text
Duration : 52 min 37 s
Bit rate : 43 b/s
Count of elements : 539
Stream size : 16.8 KiB (0%)
Title : Portuguese
Language : Portuguese
Default : No
Forced : No

Text #12
ID : 14
Format : UTF-8
Codec ID : S_TEXT/UTF8
Codec ID/Info : UTF-8 Plain Text
Duration : 52 min 37 s
Bit rate : 48 b/s
Count of elements : 530
Stream size : 18.6 KiB (0%)
Title : Turkish
Language : Turkish
Default : No
Forced : No

Text #13
ID : 15
Format : UTF-8
Codec ID : S_TEXT/UTF8
Codec ID/Info : UTF-8 Plain Text
Duration : 52 min 37 s
Bit rate : 45 b/s
Count of elements : 529
Stream size : 17.5 KiB (0%)
Title : Swedish
Language : Swedish
Default : No
Forced : No

Text #14
ID : 16
Format : UTF-8
Codec ID : S_TEXT/UTF8
Codec ID/Info : UTF-8 Plain Text
Duration : 52 min 37 s
Bit rate : 43 b/s
Count of elements : 554
Stream size : 16.7 KiB (0%)
Title : Indonesian
Language : Indonesian
Default : No
Forced : No

Text #15
ID : 17
Format : UTF-8
Codec ID : S_TEXT/UTF8
Codec ID/Info : UTF-8 Plain Text
Duration : 52 min 37 s
Bit rate : 42 b/s
Count of elements : 436
Stream size : 16.4 KiB (0%)
Title : Finnish
Language : Finnish
Default : No
Forced : No

Text #16
ID : 18
Format : UTF-8
Codec ID : S_TEXT/UTF8
Codec ID/Info : UTF-8 Plain Text
Duration : 52 min 37 s
Bit rate : 42 b/s
Count of elements : 545
Stream size : 16.2 KiB (0%)
Title : Polish
Language : Polish
Default : No
Forced : No

Text #17
ID : 19
Format : UTF-8
Codec ID : S_TEXT/UTF8
Codec ID/Info : UTF-8 Plain Text
Duration : 52 min 37 s
Bit rate : 43 b/s
Count of elements : 495
Stream size : 16.9 KiB (0%)
Title : German
Language : German
Default : No
Forced : No

Text #18
ID : 20
Format : UTF-8
Codec ID : S_TEXT/UTF8
Codec ID/Info : UTF-8 Plain Text
Duration : 52 min 37 s
Bit rate : 71 b/s
Count of elements : 623
Stream size : 27.5 KiB (0%)
Title : Russian
Language : Russian
Default : No
Forced : No

Text #19
ID : 21
Format : UTF-8
Codec ID : S_TEXT/UTF8
Codec ID/Info : UTF-8 Plain Text
Duration : 52 min 37 s
Bit rate : 40 b/s
Count of elements : 486
Stream size : 15.6 KiB (0%)
Title : Danish
Language : Danish
Default : No
Forced : No

Download

Direct download files get automatically deleted after a month or so. Posted on : 09/14/2019

[collapse]
Media Info and Download Links | S01E06

General
Format : Matroska
Format version : Version 4
File size : 196 MiB
Duration : 45 min 15 s
Overall bit rate : 604 kb/s
Movie name : Unbelievable.S01E06.720p.WEBRip.2CH.x265.HEVC
Encoded date : UTC 2019-09-14 11:06:26
Writing application : mkvmerge v37.0.0 (‘Leave It’) 32-bit
Writing library : libebml v1.3.9 + libmatroska v1.5.2

Video
ID : 1
Format : HEVC
Format/Info : High Efficiency Video Coding
Format profile : [email protected]@Main
Codec ID : V_MPEGH/ISO/HEVC
Duration : 45 min 14 s
Bit rate : 540 kb/s
Width : 1 280 pixels
Height : 640 pixels
Display aspect ratio : 2.000
Frame rate mode : Constant
Frame rate : 23.976 (24000/1001) FPS
Color space : YUV
Chroma subsampling : 4:2:0
Bit depth : 8 bits
Bits/(Pixel*Frame) : 0.027
Stream size : 175 MiB (89%)
Default : Yes
Forced : No

Audio
ID : 2
Format : AAC LC SBR
Commercial name : HE-AAC
Format settings : Explicit
Codec ID : A_AAC-2
Duration : 45 min 15 s
Bit rate : 60.1 kb/s
Channel(s) : 2 channels
Channel layout : L R
Sampling rate : 48.0 kHz
Frame rate : 23.438 FPS (2048 SPF)
Compression mode : Lossy
Delay relative to video : 23 ms
Stream size : 19.4 MiB (10%)
Language : English
Default : Yes
Forced : No

Text #1
ID : 3
Format : UTF-8
Codec ID : S_TEXT/UTF8
Codec ID/Info : UTF-8 Plain Text
Duration : 41 min 59 s
Bit rate : 76 b/s
Count of elements : 668
Stream size : 23.5 KiB (0%)
Title : English
Language : English
Default : Yes
Forced : No

Text #2
ID : 4
Format : UTF-8
Codec ID : S_TEXT/UTF8
Codec ID/Info : UTF-8 Plain Text
Duration : 44 min 19 s
Bit rate : 58 b/s
Count of elements : 523
Stream size : 19.1 KiB (0%)
Title : Dutch
Language : Dutch
Default : No
Forced : No

Text #3
ID : 5
Format : UTF-8
Codec ID : S_TEXT/UTF8
Codec ID/Info : UTF-8 Plain Text
Duration : 44 min 19 s
Bit rate : 54 b/s
Count of elements : 578
Stream size : 17.8 KiB (0%)
Title : Spanish
Language : Spanish
Default : No
Forced : No

Text #4
ID : 6
Format : UTF-8
Codec ID : S_TEXT/UTF8
Codec ID/Info : UTF-8 Plain Text
Duration : 44 min 19 s
Bit rate : 92 b/s
Count of elements : 600
Stream size : 30.2 KiB (0%)
Title : Greek
Language : Greek
Default : No
Forced : No

Text #5
ID : 7
Format : UTF-8
Codec ID : S_TEXT/UTF8
Codec ID/Info : UTF-8 Plain Text
Duration : 44 min 19 s
Bit rate : 60 b/s
Count of elements : 600
Stream size : 19.6 KiB (0%)
Title : French
Language : French
Default : No
Forced : No

Text #6
ID : 8
Format : UTF-8
Codec ID : S_TEXT/UTF8
Codec ID/Info : UTF-8 Plain Text
Duration : 44 min 19 s
Bit rate : 55 b/s
Count of elements : 515
Stream size : 18.0 KiB (0%)
Title : Norwegian
Language : Norwegian
Default : No
Forced : No

Text #7
ID : 9
Format : UTF-8
Codec ID : S_TEXT/UTF8
Codec ID/Info : UTF-8 Plain Text
Duration : 44 min 19 s
Bit rate : 53 b/s
Count of elements : 603
Stream size : 17.5 KiB (0%)
Title : Czech
Language : Czech
Default : No
Forced : No

Text #8
ID : 10
Format : UTF-8
Codec ID : S_TEXT/UTF8
Codec ID/Info : UTF-8 Plain Text
Duration : 44 min 19 s
Bit rate : 54 b/s
Count of elements : 611
Stream size : 17.6 KiB (0%)
Title : Italian
Language : Italian
Default : No
Forced : No

Text #9
ID : 11
Format : UTF-8
Codec ID : S_TEXT/UTF8
Codec ID/Info : UTF-8 Plain Text
Duration : 44 min 19 s
Bit rate : 54 b/s
Count of elements : 573
Stream size : 17.8 KiB (0%)
Title : European Spanish
Language : Spanish
Default : No
Forced : No

Text #10
ID : 12
Format : UTF-8
Codec ID : S_TEXT/UTF8
Codec ID/Info : UTF-8 Plain Text
Duration : 44 min 19 s
Bit rate : 56 b/s
Count of elements : 573
Stream size : 18.5 KiB (0%)
Title : Brazilian Portuguese
Language : Portuguese
Default : No
Forced : No

Text #11
ID : 13
Format : UTF-8
Codec ID : S_TEXT/UTF8
Codec ID/Info : UTF-8 Plain Text
Duration : 44 min 19 s
Bit rate : 56 b/s
Count of elements : 592
Stream size : 18.4 KiB (0%)
Title : Portuguese
Language : Portuguese
Default : No
Forced : No

Text #12
ID : 14
Format : UTF-8
Codec ID : S_TEXT/UTF8
Codec ID/Info : UTF-8 Plain Text
Duration : 44 min 19 s
Bit rate : 63 b/s
Count of elements : 583
Stream size : 20.7 KiB (0%)
Title : Turkish
Language : Turkish
Default : No
Forced : No

Text #13
ID : 15
Format : UTF-8
Codec ID : S_TEXT/UTF8
Codec ID/Info : UTF-8 Plain Text
Duration : 44 min 19 s
Bit rate : 59 b/s
Count of elements : 564
Stream size : 19.2 KiB (0%)
Title : Swedish
Language : Swedish
Default : No
Forced : No

Text #14
ID : 16
Format : UTF-8
Codec ID : S_TEXT/UTF8
Codec ID/Info : UTF-8 Plain Text
Duration : 44 min 19 s
Bit rate : 54 b/s
Count of elements : 606
Stream size : 17.5 KiB (0%)
Title : Indonesian
Language : Indonesian
Default : No
Forced : No

Text #15
ID : 17
Format : UTF-8
Codec ID : S_TEXT/UTF8
Codec ID/Info : UTF-8 Plain Text
Duration : 44 min 19 s
Bit rate : 55 b/s
Count of elements : 471
Stream size : 18.1 KiB (0%)
Title : Finnish
Language : Finnish
Default : No
Forced : No

Text #16
ID : 18
Format : UTF-8
Codec ID : S_TEXT/UTF8
Codec ID/Info : UTF-8 Plain Text
Duration : 44 min 19 s
Bit rate : 54 b/s
Count of elements : 599
Stream size : 17.7 KiB (0%)
Title : Polish
Language : Polish
Default : No
Forced : No

Text #17
ID : 19
Format : UTF-8
Codec ID : S_TEXT/UTF8
Codec ID/Info : UTF-8 Plain Text
Duration : 44 min 19 s
Bit rate : 57 b/s
Count of elements : 533
Stream size : 18.6 KiB (0%)
Title : German
Language : German
Default : No
Forced : No

Text #18
ID : 20
Format : UTF-8
Codec ID : S_TEXT/UTF8
Codec ID/Info : UTF-8 Plain Text
Duration : 44 min 19 s
Bit rate : 94 b/s
Count of elements : 671
Stream size : 30.7 KiB (0%)
Title : Russian
Language : Russian
Default : No
Forced : No

Text #19
ID : 21
Format : UTF-8
Codec ID : S_TEXT/UTF8
Codec ID/Info : UTF-8 Plain Text
Duration : 44 min 19 s
Bit rate : 53 b/s
Count of elements : 524
Stream size : 17.4 KiB (0%)
Title : Danish
Language : Danish
Default : No
Forced : No

Download

Direct download files get automatically deleted after a month or so. Posted on : 09/14/2019

[collapse]
Media Info and Download Links | S01E05

General
Format : Matroska
Format version : Version 4
File size : 238 MiB
Duration : 43 min 51 s
Overall bit rate : 758 kb/s
Movie name : Unbelievable.S01E05.720p.WEBRip.2CH.x265.HEVC
Encoded date : UTC 2019-09-14 11:05:09
Writing application : mkvmerge v37.0.0 (‘Leave It’) 32-bit
Writing library : libebml v1.3.9 + libmatroska v1.5.2

Video
ID : 1
Format : HEVC
Format/Info : High Efficiency Video Coding
Format profile : [email protected]@Main
Codec ID : V_MPEGH/ISO/HEVC
Duration : 43 min 50 s
Bit rate : 692 kb/s
Width : 1 280 pixels
Height : 640 pixels
Display aspect ratio : 2.000
Frame rate mode : Constant
Frame rate : 23.976 (24000/1001) FPS
Color space : YUV
Chroma subsampling : 4:2:0
Bit depth : 8 bits
Bits/(Pixel*Frame) : 0.035
Stream size : 217 MiB (91%)
Default : Yes
Forced : No

Audio
ID : 2
Format : AAC LC SBR
Commercial name : HE-AAC
Format settings : Explicit
Codec ID : A_AAC-2
Duration : 43 min 51 s
Bit rate : 61.9 kb/s
Channel(s) : 2 channels
Channel layout : L R
Sampling rate : 48.0 kHz
Frame rate : 23.438 FPS (2048 SPF)
Compression mode : Lossy
Delay relative to video : 23 ms
Stream size : 19.4 MiB (8%)
Language : English
Default : Yes
Forced : No

Text #1
ID : 3
Format : UTF-8
Codec ID : S_TEXT/UTF8
Codec ID/Info : UTF-8 Plain Text
Duration : 40 min 34 s
Bit rate : 81 b/s
Count of elements : 661
Stream size : 24.3 KiB (0%)
Title : English
Language : English
Default : Yes
Forced : No

Text #2
ID : 4
Format : UTF-8
Codec ID : S_TEXT/UTF8
Codec ID/Info : UTF-8 Plain Text
Duration : 42 min 53 s
Bit rate : 66 b/s
Count of elements : 545
Stream size : 21.0 KiB (0%)
Title : Dutch
Language : Dutch
Default : No
Forced : No

Text #3
ID : 5
Format : UTF-8
Codec ID : S_TEXT/UTF8
Codec ID/Info : UTF-8 Plain Text
Duration : 42 min 53 s
Bit rate : 61 b/s
Count of elements : 577
Stream size : 19.2 KiB (0%)
Title : Spanish
Language : Spanish
Default : No
Forced : No

Text #4
ID : 6
Format : UTF-8
Codec ID : S_TEXT/UTF8
Codec ID/Info : UTF-8 Plain Text
Duration : 42 min 53 s
Bit rate : 103 b/s
Count of elements : 606
Stream size : 32.4 KiB (0%)
Title : Greek
Language : Greek
Default : No
Forced : No

Text #5
ID : 7
Format : UTF-8
Codec ID : S_TEXT/UTF8
Codec ID/Info : UTF-8 Plain Text
Duration : 42 min 53 s
Bit rate : 68 b/s
Count of elements : 606
Stream size : 21.6 KiB (0%)
Title : French
Language : French
Default : No
Forced : No

Text #6
ID : 8
Format : UTF-8
Codec ID : S_TEXT/UTF8
Codec ID/Info : UTF-8 Plain Text
Duration : 42 min 53 s
Bit rate : 62 b/s
Count of elements : 507
Stream size : 19.5 KiB (0%)
Title : Norwegian
Language : Norwegian
Default : No
Forced : No

Text #7
ID : 9
Format : UTF-8
Codec ID : S_TEXT/UTF8
Codec ID/Info : UTF-8 Plain Text
Duration : 42 min 53 s
Bit rate : 60 b/s
Count of elements : 605
Stream size : 19.1 KiB (0%)
Title : Czech
Language : Czech
Default : No
Forced : No

Text #8
ID : 10
Format : UTF-8
Codec ID : S_TEXT/UTF8
Codec ID/Info : UTF-8 Plain Text
Duration : 42 min 53 s
Bit rate : 60 b/s
Count of elements : 600
Stream size : 18.9 KiB (0%)
Title : Italian
Language : Italian
Default : No
Forced : No

Text #9
ID : 11
Format : UTF-8
Codec ID : S_TEXT/UTF8
Codec ID/Info : UTF-8 Plain Text
Duration : 42 min 53 s
Bit rate : 59 b/s
Count of elements : 571
Stream size : 18.8 KiB (0%)
Title : European Spanish
Language : Spanish
Default : No
Forced : No

Text #10
ID : 12
Format : UTF-8
Codec ID : S_TEXT/UTF8
Codec ID/Info : UTF-8 Plain Text
Duration : 42 min 53 s
Bit rate : 64 b/s
Count of elements : 574
Stream size : 20.2 KiB (0%)
Title : Brazilian Portuguese
Language : Portuguese
Default : No
Forced : No

Text #11
ID : 13
Format : UTF-8
Codec ID : S_TEXT/UTF8
Codec ID/Info : UTF-8 Plain Text
Duration : 42 min 53 s
Bit rate : 68 b/s
Count of elements : 595
Stream size : 21.6 KiB (0%)
Title : Portuguese
Language : Portuguese
Default : No
Forced : No

Text #12
ID : 14
Format : UTF-8
Codec ID : S_TEXT/UTF8
Codec ID/Info : UTF-8 Plain Text
Duration : 42 min 53 s
Bit rate : 69 b/s
Count of elements : 569
Stream size : 21.8 KiB (0%)
Title : Turkish
Language : Turkish
Default : No
Forced : No

Text #13
ID : 15
Format : UTF-8
Codec ID : S_TEXT/UTF8
Codec ID/Info : UTF-8 Plain Text
Duration : 42 min 53 s
Bit rate : 64 b/s
Count of elements : 567
Stream size : 20.3 KiB (0%)
Title : Swedish
Language : Swedish
Default : No
Forced : No

Text #14
ID : 16
Format : UTF-8
Codec ID : S_TEXT/UTF8
Codec ID/Info : UTF-8 Plain Text
Duration : 42 min 53 s
Bit rate : 61 b/s
Count of elements : 607
Stream size : 19.2 KiB (0%)
Title : Indonesian
Language : Indonesian
Default : No
Forced : No

Text #15
ID : 17
Format : UTF-8
Codec ID : S_TEXT/UTF8
Codec ID/Info : UTF-8 Plain Text
Duration : 42 min 53 s
Bit rate : 62 b/s
Count of elements : 452
Stream size : 19.6 KiB (0%)
Title : Finnish
Language : Finnish
Default : No
Forced : No

Text #16
ID : 18
Format : UTF-8
Codec ID : S_TEXT/UTF8
Codec ID/Info : UTF-8 Plain Text
Duration : 42 min 53 s
Bit rate : 60 b/s
Count of elements : 598
Stream size : 19.1 KiB (0%)
Title : Polish
Language : Polish
Default : No
Forced : No

Text #17
ID : 19
Format : UTF-8
Codec ID : S_TEXT/UTF8
Codec ID/Info : UTF-8 Plain Text
Duration : 42 min 53 s
Bit rate : 62 b/s
Count of elements : 536
Stream size : 19.7 KiB (0%)
Title : German
Language : German
Default : No
Forced : No

Text #18
ID : 20
Format : UTF-8
Codec ID : S_TEXT/UTF8
Codec ID/Info : UTF-8 Plain Text
Duration : 42 min 53 s
Bit rate : 103 b/s
Count of elements : 660
Stream size : 32.5 KiB (0%)
Title : Russian
Language : Russian
Default : No
Forced : No

Text #19
ID : 21
Format : UTF-8
Codec ID : S_TEXT/UTF8
Codec ID/Info : UTF-8 Plain Text
Duration : 42 min 53 s
Bit rate : 59 b/s
Count of elements : 518
Stream size : 18.8 KiB (0%)
Title : Danish
Language : Danish
Default : No
Forced : No

Download

Direct download files get automatically deleted after a month or so. Posted on : 09/14/2019

[collapse]
Media Info and Download Links | S01E04

General
Format : Matroska
Format version : Version 4
File size : 184 MiB
Duration : 44 min 31 s
Overall bit rate : 577 kb/s
Movie name : Unbelievable.S01E04.720p.WEBRip.2CH.x265.HEVC
Encoded date : UTC 2019-09-14 11:03:57
Writing application : mkvmerge v37.0.0 (‘Leave It’) 32-bit
Writing library : libebml v1.3.9 + libmatroska v1.5.2

Video
ID : 1
Format : HEVC
Format/Info : High Efficiency Video Coding
Format profile : [email protected]@Main
Codec ID : V_MPEGH/ISO/HEVC
Duration : 44 min 30 s
Bit rate : 510 kb/s
Width : 1 280 pixels
Height : 640 pixels
Display aspect ratio : 2.000
Frame rate mode : Constant
Frame rate : 23.976 (24000/1001) FPS
Color space : YUV
Chroma subsampling : 4:2:0
Bit depth : 8 bits
Bits/(Pixel*Frame) : 0.026
Stream size : 162 MiB (88%)
Default : Yes
Forced : No

Audio
ID : 2
Format : AAC LC SBR
Commercial name : HE-AAC
Format settings : Explicit
Codec ID : A_AAC-2
Duration : 44 min 31 s
Bit rate : 61.7 kb/s
Channel(s) : 2 channels
Channel layout : L R
Sampling rate : 48.0 kHz
Frame rate : 23.438 FPS (2048 SPF)
Compression mode : Lossy
Delay relative to video : 23 ms
Stream size : 19.7 MiB (11%)
Language : English
Default : Yes
Forced : No

Text #1
ID : 3
Format : UTF-8
Codec ID : S_TEXT/UTF8
Codec ID/Info : UTF-8 Plain Text
Duration : 41 min 4 s
Bit rate : 87 b/s
Count of elements : 737
Stream size : 26.4 KiB (0%)
Title : English
Language : English
Default : Yes
Forced : No

Text #2
ID : 4
Format : UTF-8
Codec ID : S_TEXT/UTF8
Codec ID/Info : UTF-8 Plain Text
Duration : 43 min 34 s
Bit rate : 70 b/s
Count of elements : 582
Stream size : 22.6 KiB (0%)
Title : Dutch
Language : Dutch
Default : No
Forced : No

Text #3
ID : 5
Format : UTF-8
Codec ID : S_TEXT/UTF8
Codec ID/Info : UTF-8 Plain Text
Duration : 43 min 34 s
Bit rate : 65 b/s
Count of elements : 677
Stream size : 21.0 KiB (0%)
Title : Spanish
Language : Spanish
Default : No
Forced : No

Text #4
ID : 6
Format : UTF-8
Codec ID : S_TEXT/UTF8
Codec ID/Info : UTF-8 Plain Text
Duration : 43 min 34 s
Bit rate : 112 b/s
Count of elements : 716
Stream size : 35.8 KiB (0%)
Title : Greek
Language : Greek
Default : No
Forced : No

Text #5
ID : 7
Format : UTF-8
Codec ID : S_TEXT/UTF8
Codec ID/Info : UTF-8 Plain Text
Duration : 43 min 34 s
Bit rate : 72 b/s
Count of elements : 714
Stream size : 23.2 KiB (0%)
Title : French
Language : French
Default : No
Forced : No

Text #6
ID : 8
Format : UTF-8
Codec ID : S_TEXT/UTF8
Codec ID/Info : UTF-8 Plain Text
Duration : 43 min 34 s
Bit rate : 68 b/s
Count of elements : 604
Stream size : 21.9 KiB (0%)
Title : Norwegian
Language : Norwegian
Default : No
Forced : No

Text #7
ID : 9
Format : UTF-8
Codec ID : S_TEXT/UTF8
Codec ID/Info : UTF-8 Plain Text
Duration : 43 min 34 s
Bit rate : 66 b/s
Count of elements : 719
Stream size : 21.4 KiB (0%)
Title : Czech
Language : Czech
Default : No
Forced : No

Text #8
ID : 10
Format : UTF-8
Codec ID : S_TEXT/UTF8
Codec ID/Info : UTF-8 Plain Text
Duration : 43 min 34 s
Bit rate : 66 b/s
Count of elements : 713
Stream size : 21.2 KiB (0%)
Title : Italian
Language : Italian
Default : No
Forced : No

Text #9
ID : 11
Format : UTF-8
Codec ID : S_TEXT/UTF8
Codec ID/Info : UTF-8 Plain Text
Duration : 43 min 34 s
Bit rate : 66 b/s
Count of elements : 690
Stream size : 21.1 KiB (0%)
Title : European Spanish
Language : Spanish
Default : No
Forced : No

Text #10
ID : 12
Format : UTF-8
Codec ID : S_TEXT/UTF8
Codec ID/Info : UTF-8 Plain Text
Duration : 43 min 34 s
Bit rate : 70 b/s
Count of elements : 673
Stream size : 22.5 KiB (0%)
Title : Brazilian Portuguese
Language : Portuguese
Default : No
Forced : No

Text #11
ID : 13
Format : UTF-8
Codec ID : S_TEXT/UTF8
Codec ID/Info : UTF-8 Plain Text
Duration : 43 min 34 s
Bit rate : 78 b/s
Count of elements : 702
Stream size : 24.9 KiB (0%)
Title : Portuguese
Language : Portuguese
Default : No
Forced : No

Text #12
ID : 14
Format : UTF-8
Codec ID : S_TEXT/UTF8
Codec ID/Info : UTF-8 Plain Text
Duration : 43 min 34 s
Bit rate : 75 b/s
Count of elements : 683
Stream size : 24.1 KiB (0%)
Title : Turkish
Language : Turkish
Default : No
Forced : No

Text #13
ID : 15
Format : UTF-8
Codec ID : S_TEXT/UTF8
Codec ID/Info : UTF-8 Plain Text
Duration : 43 min 34 s
Bit rate : 70 b/s
Count of elements : 670
Stream size : 22.5 KiB (0%)
Title : Swedish
Language : Swedish
Default : No
Forced : No

Text #14
ID : 16
Format : UTF-8
Codec ID : S_TEXT/UTF8
Codec ID/Info : UTF-8 Plain Text
Duration : 43 min 34 s
Bit rate : 67 b/s
Count of elements : 727
Stream size : 21.5 KiB (0%)
Title : Indonesian
Language : Indonesian
Default : No
Forced : No

Text #15
ID : 17
Format : UTF-8
Codec ID : S_TEXT/UTF8
Codec ID/Info : UTF-8 Plain Text
Duration : 43 min 34 s
Bit rate : 67 b/s
Count of elements : 523
Stream size : 21.5 KiB (0%)
Title : Finnish
Language : Finnish
Default : No
Forced : No

Text #16
ID : 18
Format : UTF-8
Codec ID : S_TEXT/UTF8
Codec ID/Info : UTF-8 Plain Text
Duration : 43 min 34 s
Bit rate : 66 b/s
Count of elements : 721
Stream size : 21.2 KiB (0%)
Title : Polish
Language : Polish
Default : No
Forced : No

Text #17
ID : 19
Format : UTF-8
Codec ID : S_TEXT/UTF8
Codec ID/Info : UTF-8 Plain Text
Duration : 43 min 34 s
Bit rate : 69 b/s
Count of elements : 636
Stream size : 22.3 KiB (0%)
Title : German
Language : German
Default : No
Forced : No

Text #18
ID : 20
Format : UTF-8
Codec ID : S_TEXT/UTF8
Codec ID/Info : UTF-8 Plain Text
Duration : 43 min 34 s
Bit rate : 115 b/s
Count of elements : 787
Stream size : 36.7 KiB (0%)
Title : Russian
Language : Russian
Default : No
Forced : No

Text #19
ID : 21
Format : UTF-8
Codec ID : S_TEXT/UTF8
Codec ID/Info : UTF-8 Plain Text
Duration : 43 min 34 s
Bit rate : 65 b/s
Count of elements : 601
Stream size : 21.0 KiB (0%)
Title : Danish
Language : Danish
Default : No
Forced : No

Download

Direct download files get automatically deleted after a month or so. Posted on : 09/14/2019

[collapse]
Media Info and Download Links | S01E03

General
Format : Matroska
Format version : Version 4
File size : 230 MiB
Duration : 51 min 29 s
Overall bit rate : 623 kb/s
Movie name : Unbelievable.S01E03.720p.WEBRip.2CH.x265.HEVC
Encoded date : UTC 2019-09-14 11:02:33
Writing application : mkvmerge v37.0.0 (‘Leave It’) 32-bit
Writing library : libebml v1.3.9 + libmatroska v1.5.2

Video
ID : 1
Format : HEVC
Format/Info : High Efficiency Video Coding
Format profile : [email protected]@Main
Codec ID : V_MPEGH/ISO/HEVC
Duration : 51 min 29 s
Bit rate : 557 kb/s
Width : 1 280 pixels
Height : 640 pixels
Display aspect ratio : 2.000
Frame rate mode : Constant
Frame rate : 23.976 (24000/1001) FPS
Color space : YUV
Chroma subsampling : 4:2:0
Bit depth : 8 bits
Bits/(Pixel*Frame) : 0.028
Stream size : 205 MiB (89%)
Default : Yes
Forced : No

Audio
ID : 2
Format : AAC LC SBR
Commercial name : HE-AAC
Format settings : Explicit
Codec ID : A_AAC-2
Duration : 51 min 29 s
Bit rate : 61.3 kb/s
Channel(s) : 2 channels
Channel layout : L R
Sampling rate : 48.0 kHz
Frame rate : 23.438 FPS (2048 SPF)
Compression mode : Lossy
Delay relative to video : 23 ms
Stream size : 22.6 MiB (10%)
Language : English
Default : Yes
Forced : No

Text #1
ID : 3
Format : UTF-8
Codec ID : S_TEXT/UTF8
Codec ID/Info : UTF-8 Plain Text
Duration : 48 min 23 s
Bit rate : 78 b/s
Count of elements : 842
Stream size : 27.9 KiB (0%)
Title : English
Language : English
Default : Yes
Forced : No

Text #2
ID : 4
Format : UTF-8
Codec ID : S_TEXT/UTF8
Codec ID/Info : UTF-8 Plain Text
Duration : 50 min 33 s
Bit rate : 65 b/s
Count of elements : 652
Stream size : 24.2 KiB (0%)
Title : Dutch
Language : Dutch
Default : No
Forced : No

Text #3
ID : 5
Format : UTF-8
Codec ID : S_TEXT/UTF8
Codec ID/Info : UTF-8 Plain Text
Duration : 50 min 33 s
Bit rate : 62 b/s
Count of elements : 793
Stream size : 23.1 KiB (0%)
Title : Spanish
Language : Spanish
Default : No
Forced : No

Text #4
ID : 6
Format : UTF-8
Codec ID : S_TEXT/UTF8
Codec ID/Info : UTF-8 Plain Text
Duration : 50 min 33 s
Bit rate : 102 b/s
Count of elements : 825
Stream size : 37.8 KiB (0%)
Title : Greek
Language : Greek
Default : No
Forced : No

Text #5
ID : 7
Format : UTF-8
Codec ID : S_TEXT/UTF8
Codec ID/Info : UTF-8 Plain Text
Duration : 50 min 33 s
Bit rate : 67 b/s
Count of elements : 821
Stream size : 24.9 KiB (0%)
Title : French
Language : French
Default : No
Forced : No

Text #6
ID : 8
Format : UTF-8
Codec ID : S_TEXT/UTF8
Codec ID/Info : UTF-8 Plain Text
Duration : 50 min 33 s
Bit rate : 63 b/s
Count of elements : 674
Stream size : 23.4 KiB (0%)
Title : Norwegian
Language : Norwegian
Default : No
Forced : No

Text #7
ID : 9
Format : UTF-8
Codec ID : S_TEXT/UTF8
Codec ID/Info : UTF-8 Plain Text
Duration : 50 min 33 s
Bit rate : 61 b/s
Count of elements : 830
Stream size : 22.6 KiB (0%)
Title : Czech
Language : Czech
Default : No
Forced : No

Text #8
ID : 10
Format : UTF-8
Codec ID : S_TEXT/UTF8
Codec ID/Info : UTF-8 Plain Text
Duration : 50 min 33 s
Bit rate : 62 b/s
Count of elements : 828
Stream size : 23.0 KiB (0%)
Title : Italian
Language : Italian
Default : No
Forced : No

Text #9
ID : 11
Format : UTF-8
Codec ID : S_TEXT/UTF8
Codec ID/Info : UTF-8 Plain Text
Duration : 50 min 33 s
Bit rate : 61 b/s
Count of elements : 773
Stream size : 22.6 KiB (0%)
Title : European Spanish
Language : Spanish
Default : No
Forced : No

Text #10
ID : 12
Format : UTF-8
Codec ID : S_TEXT/UTF8
Codec ID/Info : UTF-8 Plain Text
Duration : 50 min 33 s
Bit rate : 63 b/s
Count of elements : 771
Stream size : 23.6 KiB (0%)
Title : Brazilian Portuguese
Language : Portuguese
Default : No
Forced : No

Text #11
ID : 13
Format : UTF-8
Codec ID : S_TEXT/UTF8
Codec ID/Info : UTF-8 Plain Text
Duration : 50 min 33 s
Bit rate : 69 b/s
Count of elements : 802
Stream size : 25.7 KiB (0%)
Title : Portuguese
Language : Portuguese
Default : No
Forced : No

Text #12
ID : 14
Format : UTF-8
Codec ID : S_TEXT/UTF8
Codec ID/Info : UTF-8 Plain Text
Duration : 50 min 33 s
Bit rate : 68 b/s
Count of elements : 768
Stream size : 25.5 KiB (0%)
Title : Turkish
Language : Turkish
Default : No
Forced : No

Text #13
ID : 15
Format : UTF-8
Codec ID : S_TEXT/UTF8
Codec ID/Info : UTF-8 Plain Text
Duration : 50 min 33 s
Bit rate : 65 b/s
Count of elements : 766
Stream size : 24.3 KiB (0%)
Title : Swedish
Language : Swedish
Default : No
Forced : No

Text #14
ID : 16
Format : UTF-8
Codec ID : S_TEXT/UTF8
Codec ID/Info : UTF-8 Plain Text
Duration : 50 min 33 s
Bit rate : 62 b/s
Count of elements : 835
Stream size : 23.1 KiB (0%)
Title : Indonesian
Language : Indonesian
Default : No
Forced : No

Text #15
ID : 17
Format : UTF-8
Codec ID : S_TEXT/UTF8
Codec ID/Info : UTF-8 Plain Text
Duration : 50 min 33 s
Bit rate : 62 b/s
Count of elements : 588
Stream size : 23.3 KiB (0%)
Title : Finnish
Language : Finnish
Default : No
Forced : No

Text #16
ID : 18
Format : UTF-8
Codec ID : S_TEXT/UTF8
Codec ID/Info : UTF-8 Plain Text
Duration : 50 min 33 s
Bit rate : 60 b/s
Count of elements : 823
Stream size : 22.6 KiB (0%)
Title : Polish
Language : Polish
Default : No
Forced : No

Text #17
ID : 19
Format : UTF-8
Codec ID : S_TEXT/UTF8
Codec ID/Info : UTF-8 Plain Text
Duration : 50 min 33 s
Bit rate : 62 b/s
Count of elements : 742
Stream size : 23.2 KiB (0%)
Title : German
Language : German
Default : No
Forced : No

Text #18
ID : 20
Format : UTF-8
Codec ID : S_TEXT/UTF8
Codec ID/Info : UTF-8 Plain Text
Duration : 50 min 33 s
Bit rate : 104 b/s
Count of elements : 888
Stream size : 38.5 KiB (0%)
Title : Russian
Language : Russian
Default : No
Forced : No

Text #19
ID : 21
Format : UTF-8
Codec ID : S_TEXT/UTF8
Codec ID/Info : UTF-8 Plain Text
Duration : 50 min 33 s
Bit rate : 60 b/s
Count of elements : 686
Stream size : 22.5 KiB (0%)
Title : Danish
Language : Danish
Default : No
Forced : No

Download

Direct download files get automatically deleted after a month or so. Posted on : 09/14/2019

[collapse]
Media Info and Download Links | S01E02

General
Format : Matroska
Format version : Version 4
File size : 211 MiB
Duration : 46 min 15 s
Overall bit rate : 639 kb/s
Movie name : Unbelievable.S01E02.720p.WEBRip.2CH.x265.HEVC
Encoded date : UTC 2019-09-13 22:16:08
Writing application : mkvmerge v37.0.0 (‘Leave It’) 32-bit
Writing library : libebml v1.3.9 + libmatroska v1.5.2

Video
ID : 1
Format : HEVC
Format/Info : High Efficiency Video Coding
Format profile : [email protected]@Main
Codec ID : V_MPEGH/ISO/HEVC
Duration : 46 min 15 s
Bit rate : 573 kb/s
Width : 1 280 pixels
Height : 640 pixels
Display aspect ratio : 2.000
Frame rate mode : Constant
Frame rate : 23.976 (24000/1001) FPS
Color space : YUV
Chroma subsampling : 4:2:0
Bit depth : 8 bits
Bits/(Pixel*Frame) : 0.029
Stream size : 190 MiB (90%)
Default : Yes
Forced : No

Audio
ID : 2
Format : AAC LC SBR
Commercial name : HE-AAC
Format settings : Explicit
Codec ID : A_AAC-2
Duration : 46 min 15 s
Bit rate : 61.4 kb/s
Channel(s) : 2 channels
Channel layout : L R
Sampling rate : 48.0 kHz
Frame rate : 23.438 FPS (2048 SPF)
Compression mode : Lossy
Delay relative to video : 23 ms
Stream size : 20.3 MiB (10%)
Language : English
Default : Yes
Forced : No

Text #1
ID : 3
Format : UTF-8
Codec ID : S_TEXT/UTF8
Codec ID/Info : UTF-8 Plain Text
Duration : 43 min 11 s
Bit rate : 69 b/s
Count of elements : 688
Stream size : 21.9 KiB (0%)
Title : English
Language : English
Default : Yes
Forced : No

Text #2
ID : 4
Format : UTF-8
Codec ID : S_TEXT/UTF8
Codec ID/Info : UTF-8 Plain Text
Duration : 45 min 19 s
Bit rate : 55 b/s
Count of elements : 518
Stream size : 18.4 KiB (0%)
Title : Dutch
Language : Dutch
Default : No
Forced : No

Text #3
ID : 5
Format : UTF-8
Codec ID : S_TEXT/UTF8
Codec ID/Info : UTF-8 Plain Text
Duration : 45 min 19 s
Bit rate : 54 b/s
Count of elements : 612
Stream size : 18.0 KiB (0%)
Title : Spanish
Language : Spanish
Default : No
Forced : No

Text #4
ID : 6
Format : UTF-8
Codec ID : S_TEXT/UTF8
Codec ID/Info : UTF-8 Plain Text
Duration : 45 min 19 s
Bit rate : 86 b/s
Count of elements : 636
Stream size : 28.7 KiB (0%)
Title : Greek
Language : Greek
Default : No
Forced : No

Text #5
ID : 7
Format : UTF-8
Codec ID : S_TEXT/UTF8
Codec ID/Info : UTF-8 Plain Text
Duration : 45 min 19 s
Bit rate : 56 b/s
Count of elements : 627
Stream size : 18.8 KiB (0%)
Title : French
Language : French
Default : No
Forced : No

Text #6
ID : 8
Format : UTF-8
Codec ID : S_TEXT/UTF8
Codec ID/Info : UTF-8 Plain Text
Duration : 45 min 19 s
Bit rate : 52 b/s
Count of elements : 527
Stream size : 17.6 KiB (0%)
Title : Norwegian
Language : Norwegian
Default : No
Forced : No

Text #7
ID : 9
Format : UTF-8
Codec ID : S_TEXT/UTF8
Codec ID/Info : UTF-8 Plain Text
Duration : 45 min 19 s
Bit rate : 51 b/s
Count of elements : 638
Stream size : 17.1 KiB (0%)
Title : Czech
Language : Czech
Default : No
Forced : No

Text #8
ID : 10
Format : UTF-8
Codec ID : S_TEXT/UTF8
Codec ID/Info : UTF-8 Plain Text
Duration : 45 min 19 s
Bit rate : 52 b/s
Count of elements : 633
Stream size : 17.3 KiB (0%)
Title : Italian
Language : Italian
Default : No
Forced : No

Text #9
ID : 11
Format : UTF-8
Codec ID : S_TEXT/UTF8
Codec ID/Info : UTF-8 Plain Text
Duration : 45 min 19 s
Bit rate : 52 b/s
Count of elements : 614
Stream size : 17.3 KiB (0%)
Title : European Spanish
Language : Spanish
Default : No
Forced : No

Text #10
ID : 12
Format : UTF-8
Codec ID : S_TEXT/UTF8
Codec ID/Info : UTF-8 Plain Text
Duration : 45 min 19 s
Bit rate : 55 b/s
Count of elements : 586
Stream size : 18.4 KiB (0%)
Title : Brazilian Portuguese
Language : Portuguese
Default : No
Forced : No

Text #11
ID : 13
Format : UTF-8
Codec ID : S_TEXT/UTF8
Codec ID/Info : UTF-8 Plain Text
Duration : 45 min 19 s
Bit rate : 58 b/s
Count of elements : 624
Stream size : 19.5 KiB (0%)
Title : Portuguese
Language : Portuguese
Default : No
Forced : No

Text #12
ID : 14
Format : UTF-8
Codec ID : S_TEXT/UTF8
Codec ID/Info : UTF-8 Plain Text
Duration : 45 min 19 s
Bit rate : 58 b/s
Count of elements : 607
Stream size : 19.3 KiB (0%)
Title : Turkish
Language : Turkish
Default : No
Forced : No

Text #13
ID : 15
Format : UTF-8
Codec ID : S_TEXT/UTF8
Codec ID/Info : UTF-8 Plain Text
Duration : 45 min 19 s
Bit rate : 56 b/s
Count of elements : 597
Stream size : 18.7 KiB (0%)
Title : Swedish
Language : Swedish
Default : No
Forced : No

Text #14
ID : 16
Format : UTF-8
Codec ID : S_TEXT/UTF8
Codec ID/Info : UTF-8 Plain Text
Duration : 45 min 19 s
Bit rate : 53 b/s
Count of elements : 640
Stream size : 17.7 KiB (0%)
Title : Indonesian
Language : Indonesian
Default : No
Forced : No

Text #15
ID : 17
Format : UTF-8
Codec ID : S_TEXT/UTF8
Codec ID/Info : UTF-8 Plain Text
Duration : 45 min 19 s
Bit rate : 53 b/s
Count of elements : 462
Stream size : 17.7 KiB (0%)
Title : Finnish
Language : Finnish
Default : No
Forced : No

Text #16
ID : 18
Format : UTF-8
Codec ID : S_TEXT/UTF8
Codec ID/Info : UTF-8 Plain Text
Duration : 45 min 19 s
Bit rate : 52 b/s
Count of elements : 635
Stream size : 17.3 KiB (0%)
Title : Polish
Language : Polish
Default : No
Forced : No

Text #17
ID : 19
Format : UTF-8
Codec ID : S_TEXT/UTF8
Codec ID/Info : UTF-8 Plain Text
Duration : 45 min 19 s
Bit rate : 54 b/s
Count of elements : 567
Stream size : 18.0 KiB (0%)
Title : German
Language : German
Default : No
Forced : No

Text #18
ID : 20
Format : UTF-8
Codec ID : S_TEXT/UTF8
Codec ID/Info : UTF-8 Plain Text
Duration : 45 min 19 s
Bit rate : 88 b/s
Count of elements : 708
Stream size : 29.2 KiB (0%)
Title : Russian
Language : Russian
Default : No
Forced : No

Text #19
ID : 21
Format : UTF-8
Codec ID : S_TEXT/UTF8
Codec ID/Info : UTF-8 Plain Text
Duration : 45 min 19 s
Bit rate : 51 b/s
Count of elements : 518
Stream size : 17.1 KiB (0%)
Title : Danish
Language : Danish
Default : No
Forced : No

Download

Direct download files get automatically deleted after a month or so. Posted on : 09/14/2019

[collapse]
Media Info and Download Links | S01E01

General
Format : Matroska
Format version : Version 4
File size : 252 MiB
Duration : 58 min 52 s
Overall bit rate : 599 kb/s
Movie name : Unbelievable.S01E01.720p.WEBRip.2CH.x265.HEVC
Encoded date : UTC 2019-09-13 22:14:40
Writing application : mkvmerge v37.0.0 (‘Leave It’) 32-bit
Writing library : libebml v1.3.9 + libmatroska v1.5.2

Video
ID : 1
Format : HEVC
Format/Info : High Efficiency Video Coding
Format profile : [email protected]@Main
Codec ID : V_MPEGH/ISO/HEVC
Duration : 58 min 52 s
Bit rate : 534 kb/s
Width : 1 280 pixels
Height : 640 pixels
Display aspect ratio : 2.000
Frame rate mode : Constant
Frame rate : 23.976 (24000/1001) FPS
Color space : YUV
Chroma subsampling : 4:2:0
Bit depth : 8 bits
Bits/(Pixel*Frame) : 0.027
Stream size : 225 MiB (89%)
Default : Yes
Forced : No

Audio
ID : 2
Format : AAC LC SBR
Commercial name : HE-AAC
Format settings : Explicit
Codec ID : A_AAC-2
Duration : 58 min 52 s
Bit rate : 60.9 kb/s
Channel(s) : 2 channels
Channel layout : L R
Sampling rate : 48.0 kHz
Frame rate : 23.438 FPS (2048 SPF)
Compression mode : Lossy
Delay relative to video : 23 ms
Stream size : 25.6 MiB (10%)
Language : English
Default : Yes
Forced : No

Text #1
ID : 3
Format : UTF-8
Codec ID : S_TEXT/UTF8
Codec ID/Info : UTF-8 Plain Text
Duration : 55 min 21 s
Bit rate : 67 b/s
Count of elements : 923
Stream size : 27.4 KiB (0%)
Title : English
Language : English
Default : Yes
Forced : No

Text #2
ID : 4
Format : UTF-8
Codec ID : S_TEXT/UTF8
Codec ID/Info : UTF-8 Plain Text
Duration : 58 min 9 s
Bit rate : 55 b/s
Count of elements : 703
Stream size : 23.5 KiB (0%)
Title : Dutch
Language : Dutch
Default : No
Forced : No

Text #3
ID : 5
Format : UTF-8
Codec ID : S_TEXT/UTF8
Codec ID/Info : UTF-8 Plain Text
Duration : 58 min 9 s
Bit rate : 50 b/s
Count of elements : 818
Stream size : 21.7 KiB (0%)
Title : Spanish
Language : Spanish
Default : No
Forced : No

Text #4
ID : 6
Format : UTF-8
Codec ID : S_TEXT/UTF8
Codec ID/Info : UTF-8 Plain Text
Duration : 58 min 9 s
Bit rate : 85 b/s
Count of elements : 846
Stream size : 36.6 KiB (0%)
Title : Greek
Language : Greek
Default : No
Forced : No

Text #5
ID : 7
Format : UTF-8
Codec ID : S_TEXT/UTF8
Codec ID/Info : UTF-8 Plain Text
Duration : 58 min 9 s
Bit rate : 55 b/s
Count of elements : 829
Stream size : 23.8 KiB (0%)
Title : French
Language : French
Default : No
Forced : No

Text #6
ID : 8
Format : UTF-8
Codec ID : S_TEXT/UTF8
Codec ID/Info : UTF-8 Plain Text
Duration : 58 min 9 s
Bit rate : 52 b/s
Count of elements : 706
Stream size : 22.4 KiB (0%)
Title : Norwegian
Language : Norwegian
Default : No
Forced : No

Text #7
ID : 9
Format : UTF-8
Codec ID : S_TEXT/UTF8
Codec ID/Info : UTF-8 Plain Text
Duration : 58 min 9 s
Bit rate : 50 b/s
Count of elements : 849
Stream size : 21.5 KiB (0%)
Title : Czech
Language : Czech
Default : No
Forced : No

Text #8
ID : 10
Format : UTF-8
Codec ID : S_TEXT/UTF8
Codec ID/Info : UTF-8 Plain Text
Duration : 57 min 56 s
Bit rate : 51 b/s
Count of elements : 837
Stream size : 21.9 KiB (0%)
Title : Italian
Language : Italian
Default : No
Forced : No

Text #9
ID : 11
Format : UTF-8
Codec ID : S_TEXT/UTF8
Codec ID/Info : UTF-8 Plain Text
Duration : 57 min 56 s
Bit rate : 52 b/s
Count of elements : 791
Stream size : 22.1 KiB (0%)
Title : European Spanish
Language : Spanish
Default : No
Forced : No

Text #10
ID : 12
Format : UTF-8
Codec ID : S_TEXT/UTF8
Codec ID/Info : UTF-8 Plain Text
Duration : 58 min 9 s
Bit rate : 53 b/s
Count of elements : 766
Stream size : 22.9 KiB (0%)
Title : Brazilian Portuguese
Language : Portuguese
Default : No
Forced : No

Text #11
ID : 13
Format : UTF-8
Codec ID : S_TEXT/UTF8
Codec ID/Info : UTF-8 Plain Text
Duration : 58 min 9 s
Bit rate : 57 b/s
Count of elements : 834
Stream size : 24.6 KiB (0%)
Title : Portuguese
Language : Portuguese
Default : No
Forced : No

Text #12
ID : 14
Format : UTF-8
Codec ID : S_TEXT/UTF8
Codec ID/Info : UTF-8 Plain Text
Duration : 58 min 9 s
Bit rate : 57 b/s
Count of elements : 806
Stream size : 24.6 KiB (0%)
Title : Turkish
Language : Turkish
Default : No
Forced : No

Text #13
ID : 15
Format : UTF-8
Codec ID : S_TEXT/UTF8
Codec ID/Info : UTF-8 Plain Text
Duration : 58 min 9 s
Bit rate : 54 b/s
Count of elements : 809
Stream size : 23.1 KiB (0%)
Title : Swedish
Language : Swedish
Default : No
Forced : No

Text #14
ID : 16
Format : UTF-8
Codec ID : S_TEXT/UTF8
Codec ID/Info : UTF-8 Plain Text
Duration : 57 min 56 s
Bit rate : 51 b/s
Count of elements : 855
Stream size : 21.7 KiB (0%)
Title : Indonesian
Language : Indonesian
Default : No
Forced : No

Text #15
ID : 17
Format : UTF-8
Codec ID : S_TEXT/UTF8
Codec ID/Info : UTF-8 Plain Text
Duration : 58 min 9 s
Bit rate : 52 b/s
Count of elements : 614
Stream size : 22.5 KiB (0%)
Title : Finnish
Language : Finnish
Default : No
Forced : No

Text #16
ID : 18
Format : UTF-8
Codec ID : S_TEXT/UTF8
Codec ID/Info : UTF-8 Plain Text
Duration : 57 min 56 s
Bit rate : 52 b/s
Count of elements : 850
Stream size : 22.1 KiB (0%)
Title : Polish
Language : Polish
Default : No
Forced : No

Text #17
ID : 19
Format : UTF-8
Codec ID : S_TEXT/UTF8
Codec ID/Info : UTF-8 Plain Text
Duration : 58 min 9 s
Bit rate : 53 b/s
Count of elements : 776
Stream size : 22.8 KiB (0%)
Title : German
Language : German
Default : No
Forced : No

Text #18
ID : 20
Format : UTF-8
Codec ID : S_TEXT/UTF8
Codec ID/Info : UTF-8 Plain Text
Duration : 58 min 9 s
Bit rate : 85 b/s
Count of elements : 894
Stream size : 36.3 KiB (0%)
Title : Russian
Language : Russian
Default : No
Forced : No

Text #19
ID : 21
Format : UTF-8
Codec ID : S_TEXT/UTF8
Codec ID/Info : UTF-8 Plain Text
Duration : 58 min 9 s
Bit rate : 51 b/s
Count of elements : 724
Stream size : 22.0 KiB (0%)
Title : Danish
Language : Danish
Default : No
Forced : No

Download

Direct download files get automatically deleted after a month or so. Posted on : 09/14/2019

[collapse]

You may also like...

error: nah :p~