White Lines

1h | Drama, Mystery | TV Series (2020– )

A woman tries to solve the mysterious death of her brother, a famous DJ who disappeared from Ibiza many years ago.

Watch trailer

Media Info and Download Links | S01E10

General
Format : Matroska
Format version : Version 4
File size : 384 MiB
Duration : 1 h 3 min
Overall bit rate : 848 kb/s
Movie name : White.Lines.S01E10.720p.10bit.WEBRip.6CH.x265.HEVC

Video
ID : 1
Format : HEVC
Format/Info : High Efficiency Video Coding
Format profile : Main [email protected]@Main
Codec ID : V_MPEGH/ISO/HEVC
Duration : 1 h 3 min
Bit rate : 652 kb/s
Width : 1 280 pixels
Height : 720 pixels
Display aspect ratio : 2.105
Frame rate mode : Constant
Frame rate : 25.000 FPS
Color space : YUV
Chroma subsampling : 4:2:0
Bit depth : 10 bits
Bits/(Pixel*Frame) : 0.028
Stream size : 295 MiB (77%)
Default : Yes
Forced : No
Color range : Limited
Color primaries : BT.709
Transfer characteristics : BT.709
Matrix coefficients : BT.709

Audio
ID : 2
Format : AAC LC
Codec ID : A_AAC-2
Duration : 1 h 3 min
Bit rate : 192 kb/s
Channel(s) : 6 channels
Channel layout : C L R Ls Rs LFE
Sampling rate : 48.0 kHz
Frame rate : 46.875 FPS (1024 SPF)
Compression mode : Lossy
Delay relative to video : -21 ms
Stream size : 85.7 MiB (22%)
Title : Surround
Language : English
Default : Yes
Forced : No

Text #1
ID : 3
Format : ASS
Codec ID : S_TEXT/ASS
Duration : 1 h 2 min
Bit rate : 111 b/s
Count of elements : 747
Compression mode : Lossless
Stream size : 50.8 KiB (0%)
Title : Arabic
Language : Arabic
Default : No
Forced : No

Text #2
ID : 4
Format : ASS
Codec ID : S_TEXT/ASS
Duration : 1 h 2 min
Bit rate : 76 b/s
Count of elements : 730
Compression mode : Lossless
Stream size : 34.7 KiB (0%)
Title : Czech
Language : Czech
Default : No
Forced : No

Text #3
ID : 5
Format : ASS
Codec ID : S_TEXT/ASS
Duration : 1 h 2 min
Bit rate : 73 b/s
Count of elements : 641
Compression mode : Lossless
Stream size : 33.5 KiB (0%)
Title : Danish
Language : Danish
Default : No
Forced : No

Text #4
ID : 6
Format : ASS
Codec ID : S_TEXT/ASS
Duration : 1 h 2 min
Bit rate : 77 b/s
Count of elements : 697
Compression mode : Lossless
Stream size : 35.3 KiB (0%)
Title : German
Language : German
Default : No
Forced : No

Text #5
ID : 7
Format : ASS
Codec ID : S_TEXT/ASS
Duration : 1 h 0 min
Bit rate : 115 b/s
Count of elements : 728
Compression mode : Lossless
Stream size : 51.3 KiB (0%)
Title : Greek
Language : Greek
Default : No
Forced : No

Text #6
ID : 8
Format : ASS
Codec ID : S_TEXT/ASS
Duration : 39 min 59 s
Bit rate : 9 b/s
Count of elements : 61
Compression mode : Lossless
Stream size : 2.85 KiB (0%)
Title : English (Forced)
Language : English
Default : No
Forced : No

Text #7
ID : 9
Format : ASS
Codec ID : S_TEXT/ASS
Duration : 1 h 1 min
Bit rate : 106 b/s
Count of elements : 976
Compression mode : Lossless
Stream size : 48.2 KiB (0%)
Title : English (SDH)
Language : English
Default : Yes
Forced : Yes

Text #8
ID : 10
Format : ASS
Codec ID : S_TEXT/ASS
Duration : 1 h 2 min
Bit rate : 72 b/s
Count of elements : 652
Compression mode : Lossless
Stream size : 32.8 KiB (0%)
Title : Spanish
Language : Spanish
Default : No
Forced : No

Text #9
ID : 11
Format : ASS
Codec ID : S_TEXT/ASS
Duration : 1 h 2 min
Bit rate : 104 b/s
Count of elements : 973
Compression mode : Lossless
Stream size : 47.4 KiB (0%)
Title : European Spanish (SDH)
Language : Spanish
Default : No
Forced : No

Text #10
ID : 12
Format : ASS
Codec ID : S_TEXT/ASS
Duration : 1 h 2 min
Bit rate : 75 b/s
Count of elements : 710
Compression mode : Lossless
Stream size : 34.2 KiB (0%)
Title : Finnish
Language : Finnish
Default : No
Forced : No

Text #11
ID : 13
Format : ASS
Codec ID : S_TEXT/ASS
Duration : 1 h 2 min
Bit rate : 79 b/s
Count of elements : 721
Compression mode : Lossless
Stream size : 36.3 KiB (0%)
Title : French
Language : French
Default : No
Forced : No

Text #12
ID : 14
Format : ASS
Codec ID : S_TEXT/ASS
Duration : 1 h 2 min
Bit rate : 107 b/s
Count of elements : 748
Compression mode : Lossless
Stream size : 49.1 KiB (0%)
Title : Hebrew
Default : No
Forced : No

Text #13
ID : 15
Format : ASS
Codec ID : S_TEXT/ASS
Duration : 1 h 0 min
Bit rate : 80 b/s
Count of elements : 694
Compression mode : Lossless
Stream size : 36.0 KiB (0%)
Title : Hungarian
Language : Hungarian
Default : No
Forced : No

Text #14
ID : 16
Format : ASS
Codec ID : S_TEXT/ASS
Duration : 1 h 2 min
Bit rate : 80 b/s
Count of elements : 749
Compression mode : Lossless
Stream size : 36.6 KiB (0%)
Title : Indonesian
Default : No
Forced : No

Text #15
ID : 17
Format : ASS
Codec ID : S_TEXT/ASS
Duration : 1 h 2 min
Bit rate : 75 b/s
Count of elements : 678
Compression mode : Lossless
Stream size : 34.5 KiB (0%)
Title : Italian
Language : Italian
Default : No
Forced : No

Text #16
ID : 18
Format : ASS
Codec ID : S_TEXT/ASS
Duration : 1 h 2 min
Bit rate : 78 b/s
Count of elements : 729
Compression mode : Lossless
Stream size : 35.8 KiB (0%)
Title : Japanese
Language : Japanese
Default : No
Forced : No

Text #17
ID : 19
Format : ASS
Codec ID : S_TEXT/ASS
Duration : 1 h 2 min
Bit rate : 94 b/s
Count of elements : 760
Compression mode : Lossless
Stream size : 42.8 KiB (0%)
Title : Korean
Language : Korean
Default : No
Forced : No

Text #18
ID : 20
Format : ASS
Codec ID : S_TEXT/ASS
Duration : 1 h 2 min
Bit rate : 69 b/s
Count of elements : 593
Compression mode : Lossless
Stream size : 31.5 KiB (0%)
Title : Norwegian
Language : Norwegian
Default : No
Forced : No

Text #19
ID : 21
Format : ASS
Codec ID : S_TEXT/ASS
Duration : 1 h 2 min
Bit rate : 74 b/s
Count of elements : 639
Compression mode : Lossless
Stream size : 33.7 KiB (0%)
Title : Dutch
Language : Dutch
Default : No
Forced : No

Text #20
ID : 22
Format : ASS
Codec ID : S_TEXT/ASS
Duration : 1 h 2 min
Bit rate : 78 b/s
Count of elements : 721
Compression mode : Lossless
Stream size : 35.9 KiB (0%)
Title : Polish
Language : Polish
Default : No
Forced : No

Text #21
ID : 23
Format : ASS
Codec ID : S_TEXT/ASS
Duration : 1 h 2 min
Bit rate : 78 b/s
Count of elements : 740
Compression mode : Lossless
Stream size : 35.7 KiB (0%)
Title : Portuguese
Language : Portuguese
Default : No
Forced : No

Text #22
ID : 24
Format : ASS
Codec ID : S_TEXT/ASS
Duration : 1 h 2 min
Bit rate : 77 b/s
Count of elements : 733
Compression mode : Lossless
Stream size : 35.0 KiB (0%)
Title : Brazilian Portuguese
Language : Portuguese
Default : No
Forced : No

Text #23
ID : 25
Format : ASS
Codec ID : S_TEXT/ASS
Duration : 1 h 2 min
Bit rate : 84 b/s
Count of elements : 730
Compression mode : Lossless
Stream size : 38.2 KiB (0%)
Title : Romanian
Language : Romanian
Default : No
Forced : No

Text #24
ID : 26
Format : ASS
Codec ID : S_TEXT/ASS
Duration : 1 h 2 min
Bit rate : 109 b/s
Count of elements : 800
Compression mode : Lossless
Stream size : 49.6 KiB (0%)
Title : Russian
Language : Russian
Default : No
Forced : No

Text #25
ID : 27
Format : ASS
Codec ID : S_TEXT/ASS
Duration : 1 h 2 min
Bit rate : 82 b/s
Count of elements : 742
Compression mode : Lossless
Stream size : 37.5 KiB (0%)
Title : Swedish
Language : Swedish
Default : No
Forced : No

Text #26
ID : 28
Format : ASS
Codec ID : S_TEXT/ASS
Duration : 1 h 2 min
Bit rate : 139 b/s
Count of elements : 741
Compression mode : Lossless
Stream size : 63.6 KiB (0%)
Title : Thai
Language : Thai
Default : No
Forced : No

Text #27
ID : 29
Format : ASS
Codec ID : S_TEXT/ASS
Duration : 1 h 2 min
Bit rate : 77 b/s
Count of elements : 730
Compression mode : Lossless
Stream size : 35.1 KiB (0%)
Title : Turkish
Language : Turkish
Default : No
Forced : No

Text #28
ID : 30
Format : ASS
Codec ID : S_TEXT/ASS
Duration : 1 h 2 min
Bit rate : 95 b/s
Count of elements : 749
Compression mode : Lossless
Stream size : 43.3 KiB (0%)
Title : Vietnamese
Language : Vietnamese
Default : No
Forced : No

Text #29
ID : 31
Format : ASS
Codec ID : S_TEXT/ASS
Duration : 1 h 2 min
Bit rate : 84 b/s
Count of elements : 755
Compression mode : Lossless
Stream size : 38.3 KiB (0%)
Title : Simplified Chinese
Language : Chinese
Default : No
Forced : No

Text #30
ID : 32
Format : ASS
Codec ID : S_TEXT/ASS
Duration : 1 h 2 min
Bit rate : 80 b/s
Count of elements : 753
Compression mode : Lossless
Stream size : 36.7 KiB (0%)
Title : Traditional Chinese
Language : Chinese
Default : No
Forced : No

Download

Direct download files get automatically deleted after a month or so. Posted on : 05/16/2020

[collapse]
Media Info and Download Links | S01E09

General
Format : Matroska
Format version : Version 4
File size : 314 MiB
Duration : 51 min 40 s
Overall bit rate : 849 kb/s
Movie name : White.Lines.S01E09.720p.10bit.WEBRip.6CH.x265.HEVC

Video
ID : 1
Format : HEVC
Format/Info : High Efficiency Video Coding
Format profile : Main [email protected]@Main
Codec ID : V_MPEGH/ISO/HEVC
Duration : 51 min 40 s
Bit rate : 652 kb/s
Width : 1 280 pixels
Height : 720 pixels
Display aspect ratio : 2.105
Frame rate mode : Constant
Frame rate : 25.000 FPS
Color space : YUV
Chroma subsampling : 4:2:0
Bit depth : 10 bits
Bits/(Pixel*Frame) : 0.028
Stream size : 241 MiB (77%)
Default : Yes
Forced : No
Color range : Limited
Color primaries : BT.709
Transfer characteristics : BT.709
Matrix coefficients : BT.709

Audio
ID : 2
Format : AAC LC
Codec ID : A_AAC-2
Duration : 51 min 40 s
Bit rate : 192 kb/s
Channel(s) : 6 channels
Channel layout : C L R Ls Rs LFE
Sampling rate : 48.0 kHz
Frame rate : 46.875 FPS (1024 SPF)
Compression mode : Lossy
Delay relative to video : -21 ms
Stream size : 69.8 MiB (22%)
Title : Surround
Language : English
Default : Yes
Forced : No

Text #1
ID : 3
Format : ASS
Codec ID : S_TEXT/ASS
Duration : 50 min 33 s
Bit rate : 137 b/s
Count of elements : 765
Compression mode : Lossless
Stream size : 51.1 KiB (0%)
Title : Arabic
Language : Arabic
Default : No
Forced : No

Text #2
ID : 4
Format : ASS
Codec ID : S_TEXT/ASS
Duration : 50 min 33 s
Bit rate : 91 b/s
Count of elements : 721
Compression mode : Lossless
Stream size : 34.0 KiB (0%)
Title : Czech
Language : Czech
Default : No
Forced : No

Text #3
ID : 5
Format : ASS
Codec ID : S_TEXT/ASS
Duration : 50 min 30 s
Bit rate : 86 b/s
Count of elements : 596
Compression mode : Lossless
Stream size : 32.0 KiB (0%)
Title : Danish
Language : Danish
Default : No
Forced : No

Text #4
ID : 6
Format : ASS
Codec ID : S_TEXT/ASS
Duration : 50 min 30 s
Bit rate : 92 b/s
Count of elements : 673
Compression mode : Lossless
Stream size : 34.4 KiB (0%)
Title : German
Language : German
Default : No
Forced : No

Text #5
ID : 7
Format : ASS
Codec ID : S_TEXT/ASS
Duration : 48 min 50 s
Bit rate : 138 b/s
Count of elements : 685
Compression mode : Lossless
Stream size : 49.4 KiB (0%)
Title : Greek
Language : Greek
Default : No
Forced : No

Text #6
ID : 8
Format : ASS
Codec ID : S_TEXT/ASS
Duration : 38 min 19 s
Bit rate : 16 b/s
Count of elements : 92
Compression mode : Lossless
Stream size : 4.67 KiB (0%)
Title : English (Forced)
Language : English
Default : No
Forced : No

Text #7
ID : 9
Format : ASS
Codec ID : S_TEXT/ASS
Duration : 48 min 53 s
Bit rate : 128 b/s
Count of elements : 895
Compression mode : Lossless
Stream size : 46.1 KiB (0%)
Title : English (SDH)
Language : English
Default : Yes
Forced : Yes

Text #8
ID : 10
Format : ASS
Codec ID : S_TEXT/ASS
Duration : 50 min 30 s
Bit rate : 81 b/s
Count of elements : 592
Compression mode : Lossless
Stream size : 30.1 KiB (0%)
Title : Spanish
Language : Spanish
Default : No
Forced : No

Text #9
ID : 11
Format : ASS
Codec ID : S_TEXT/ASS
Duration : 50 min 30 s
Bit rate : 122 b/s
Count of elements : 894
Compression mode : Lossless
Stream size : 45.3 KiB (0%)
Title : European Spanish (SDH)
Language : Spanish
Default : No
Forced : No

Text #10
ID : 12
Format : ASS
Codec ID : S_TEXT/ASS
Duration : 50 min 26 s
Bit rate : 90 b/s
Count of elements : 698
Compression mode : Lossless
Stream size : 33.4 KiB (0%)
Title : Finnish
Language : Finnish
Default : No
Forced : No

Text #11
ID : 13
Format : ASS
Codec ID : S_TEXT/ASS
Duration : 50 min 30 s
Bit rate : 94 b/s
Count of elements : 692
Compression mode : Lossless
Stream size : 35.1 KiB (0%)
Title : French
Language : French
Default : No
Forced : No

Text #12
ID : 14
Format : ASS
Codec ID : S_TEXT/ASS
Duration : 50 min 28 s
Bit rate : 130 b/s
Count of elements : 750
Compression mode : Lossless
Stream size : 48.2 KiB (0%)
Title : Hebrew
Default : No
Forced : No

Text #13
ID : 15
Format : ASS
Codec ID : S_TEXT/ASS
Duration : 49 min 14 s
Bit rate : 97 b/s
Count of elements : 674
Compression mode : Lossless
Stream size : 35.3 KiB (0%)
Title : Hungarian
Language : Hungarian
Default : No
Forced : No

Text #14
ID : 16
Format : ASS
Codec ID : S_TEXT/ASS
Duration : 50 min 34 s
Bit rate : 99 b/s
Count of elements : 764
Compression mode : Lossless
Stream size : 36.7 KiB (0%)
Title : Indonesian
Default : No
Forced : No

Text #15
ID : 17
Format : ASS
Codec ID : S_TEXT/ASS
Duration : 50 min 33 s
Bit rate : 89 b/s
Count of elements : 648
Compression mode : Lossless
Stream size : 33.1 KiB (0%)
Title : Italian
Language : Italian
Default : No
Forced : No

Text #16
ID : 18
Format : ASS
Codec ID : S_TEXT/ASS
Duration : 50 min 30 s
Bit rate : 93 b/s
Count of elements : 699
Compression mode : Lossless
Stream size : 34.6 KiB (0%)
Title : Japanese
Language : Japanese
Default : No
Forced : No

Text #17
ID : 19
Format : ASS
Codec ID : S_TEXT/ASS
Duration : 50 min 30 s
Bit rate : 113 b/s
Count of elements : 758
Compression mode : Lossless
Stream size : 41.9 KiB (0%)
Title : Korean
Language : Korean
Default : No
Forced : No

Text #18
ID : 20
Format : ASS
Codec ID : S_TEXT/ASS
Duration : 50 min 30 s
Bit rate : 81 b/s
Count of elements : 533
Compression mode : Lossless
Stream size : 30.0 KiB (0%)
Title : Norwegian
Language : Norwegian
Default : No
Forced : No

Text #19
ID : 21
Format : ASS
Codec ID : S_TEXT/ASS
Duration : 50 min 30 s
Bit rate : 87 b/s
Count of elements : 610
Compression mode : Lossless
Stream size : 32.3 KiB (0%)
Title : Dutch
Language : Dutch
Default : No
Forced : No

Text #20
ID : 22
Format : ASS
Codec ID : S_TEXT/ASS
Duration : 50 min 30 s
Bit rate : 95 b/s
Count of elements : 714
Compression mode : Lossless
Stream size : 35.2 KiB (0%)
Title : Polish
Language : Polish
Default : No
Forced : No

Text #21
ID : 23
Format : ASS
Codec ID : S_TEXT/ASS
Duration : 50 min 30 s
Bit rate : 96 b/s
Count of elements : 747
Compression mode : Lossless
Stream size : 35.8 KiB (0%)
Title : Portuguese
Language : Portuguese
Default : No
Forced : No

Text #22
ID : 24
Format : ASS
Codec ID : S_TEXT/ASS
Duration : 50 min 33 s
Bit rate : 93 b/s
Count of elements : 731
Compression mode : Lossless
Stream size : 34.6 KiB (0%)
Title : Brazilian Portuguese
Language : Portuguese
Default : No
Forced : No

Text #23
ID : 25
Format : ASS
Codec ID : S_TEXT/ASS
Duration : 50 min 30 s
Bit rate : 102 b/s
Count of elements : 729
Compression mode : Lossless
Stream size : 38.0 KiB (0%)
Title : Romanian
Language : Romanian
Default : No
Forced : No

Text #24
ID : 26
Format : ASS
Codec ID : S_TEXT/ASS
Duration : 50 min 30 s
Bit rate : 133 b/s
Count of elements : 783
Compression mode : Lossless
Stream size : 49.3 KiB (0%)
Title : Russian
Language : Russian
Default : No
Forced : No

Text #25
ID : 27
Format : ASS
Codec ID : S_TEXT/ASS
Duration : 50 min 30 s
Bit rate : 100 b/s
Count of elements : 762
Compression mode : Lossless
Stream size : 37.1 KiB (0%)
Title : Swedish
Language : Swedish
Default : No
Forced : No

Text #26
ID : 28
Format : ASS
Codec ID : S_TEXT/ASS
Duration : 50 min 30 s
Bit rate : 170 b/s
Count of elements : 765
Compression mode : Lossless
Stream size : 63.1 KiB (0%)
Title : Thai
Language : Thai
Default : No
Forced : No

Text #27
ID : 29
Format : ASS
Codec ID : S_TEXT/ASS
Duration : 50 min 30 s
Bit rate : 93 b/s
Count of elements : 704
Compression mode : Lossless
Stream size : 34.4 KiB (0%)
Title : Turkish
Language : Turkish
Default : No
Forced : No

Text #28
ID : 30
Format : ASS
Codec ID : S_TEXT/ASS
Duration : 50 min 30 s
Bit rate : 117 b/s
Count of elements : 766
Compression mode : Lossless
Stream size : 43.3 KiB (0%)
Title : Vietnamese
Language : Vietnamese
Default : No
Forced : No

Text #29
ID : 31
Format : ASS
Codec ID : S_TEXT/ASS
Duration : 50 min 30 s
Bit rate : 102 b/s
Count of elements : 767
Compression mode : Lossless
Stream size : 37.9 KiB (0%)
Title : Simplified Chinese
Language : Chinese
Default : No
Forced : No

Text #30
ID : 32
Format : ASS
Codec ID : S_TEXT/ASS
Duration : 50 min 30 s
Bit rate : 99 b/s
Count of elements : 773
Compression mode : Lossless
Stream size : 36.8 KiB (0%)
Title : Traditional Chinese
Language : Chinese
Default : No
Forced : No

Download

Direct download files get automatically deleted after a month or so. Posted on : 05/16/2020

[collapse]
Media Info and Download Links | S01E08

General
Format : Matroska
Format version : Version 4
File size : 327 MiB
Duration : 53 min 54 s
Overall bit rate : 849 kb/s
Movie name : White.Lines.S01E08.720p.10bit.WEBRip.6CH.x265.HEVC

Video
ID : 1
Format : HEVC
Format/Info : High Efficiency Video Coding
Format profile : Main [email protected]@Main
Codec ID : V_MPEGH/ISO/HEVC
Duration : 53 min 54 s
Bit rate : 653 kb/s
Width : 1 280 pixels
Height : 720 pixels
Display aspect ratio : 2.105
Frame rate mode : Constant
Frame rate : 25.000 FPS
Color space : YUV
Chroma subsampling : 4:2:0
Bit depth : 10 bits
Bits/(Pixel*Frame) : 0.028
Stream size : 252 MiB (77%)
Default : Yes
Forced : No
Color range : Limited
Color primaries : BT.709
Transfer characteristics : BT.709
Matrix coefficients : BT.709

Audio
ID : 2
Format : AAC LC
Codec ID : A_AAC-2
Duration : 53 min 54 s
Bit rate : 192 kb/s
Channel(s) : 6 channels
Channel layout : C L R Ls Rs LFE
Sampling rate : 48.0 kHz
Frame rate : 46.875 FPS (1024 SPF)
Compression mode : Lossy
Delay relative to video : -21 ms
Stream size : 72.9 MiB (22%)
Title : Surround
Language : English
Default : Yes
Forced : No

Text #1
ID : 3
Format : ASS
Codec ID : S_TEXT/ASS
Duration : 52 min 44 s
Bit rate : 130 b/s
Count of elements : 708
Compression mode : Lossless
Stream size : 50.2 KiB (0%)
Title : Arabic
Language : Arabic
Default : No
Forced : No

Text #2
ID : 4
Format : ASS
Codec ID : S_TEXT/ASS
Duration : 52 min 44 s
Bit rate : 86 b/s
Count of elements : 696
Compression mode : Lossless
Stream size : 33.4 KiB (0%)
Title : Czech
Language : Czech
Default : No
Forced : No

Text #3
ID : 5
Format : ASS
Codec ID : S_TEXT/ASS
Duration : 52 min 41 s
Bit rate : 83 b/s
Count of elements : 618
Compression mode : Lossless
Stream size : 32.2 KiB (0%)
Title : Danish
Language : Danish
Default : No
Forced : No

Text #4
ID : 6
Format : ASS
Codec ID : S_TEXT/ASS
Duration : 52 min 41 s
Bit rate : 86 b/s
Count of elements : 657
Compression mode : Lossless
Stream size : 33.6 KiB (0%)
Title : German
Language : German
Default : No
Forced : No

Text #5
ID : 7
Format : ASS
Codec ID : S_TEXT/ASS
Duration : 50 min 49 s
Bit rate : 127 b/s
Count of elements : 688
Compression mode : Lossless
Stream size : 47.6 KiB (0%)
Title : Greek
Language : Greek
Default : No
Forced : No

Text #6
ID : 8
Format : ASS
Codec ID : S_TEXT/ASS
Duration : 47 min 20 s
Bit rate : 33 b/s
Count of elements : 212
Compression mode : Lossless
Stream size : 11.6 KiB (0%)
Title : English (Forced)
Language : English
Default : No
Forced : No

Text #7
ID : 9
Format : ASS
Codec ID : S_TEXT/ASS
Duration : 50 min 47 s
Bit rate : 122 b/s
Count of elements : 868
Compression mode : Lossless
Stream size : 45.7 KiB (0%)
Title : English (SDH)
Language : English
Default : Yes
Forced : Yes

Text #8
ID : 10
Format : ASS
Codec ID : S_TEXT/ASS
Duration : 52 min 41 s
Bit rate : 60 b/s
Count of elements : 463
Compression mode : Lossless
Stream size : 23.3 KiB (0%)
Title : Spanish
Language : Spanish
Default : No
Forced : No

Text #9
ID : 11
Format : ASS
Codec ID : S_TEXT/ASS
Duration : 52 min 41 s
Bit rate : 115 b/s
Count of elements : 824
Compression mode : Lossless
Stream size : 44.4 KiB (0%)
Title : European Spanish (SDH)
Language : Spanish
Default : No
Forced : No

Text #10
ID : 12
Format : ASS
Codec ID : S_TEXT/ASS
Duration : 52 min 35 s
Bit rate : 85 b/s
Count of elements : 651
Compression mode : Lossless
Stream size : 33.0 KiB (0%)
Title : Finnish
Language : Finnish
Default : No
Forced : No

Text #11
ID : 13
Format : ASS
Codec ID : S_TEXT/ASS
Duration : 52 min 41 s
Bit rate : 88 b/s
Count of elements : 671
Compression mode : Lossless
Stream size : 34.1 KiB (0%)
Title : French
Language : French
Default : No
Forced : No

Text #12
ID : 14
Format : ASS
Codec ID : S_TEXT/ASS
Duration : 51 min 26 s
Bit rate : 124 b/s
Count of elements : 700
Compression mode : Lossless
Stream size : 46.8 KiB (0%)
Title : Hebrew
Default : No
Forced : No

Text #13
ID : 15
Format : ASS
Codec ID : S_TEXT/ASS
Duration : 51 min 23 s
Bit rate : 91 b/s
Count of elements : 679
Compression mode : Lossless
Stream size : 34.3 KiB (0%)
Title : Hungarian
Language : Hungarian
Default : No
Forced : No

Text #14
ID : 16
Format : ASS
Codec ID : S_TEXT/ASS
Duration : 52 min 44 s
Bit rate : 91 b/s
Count of elements : 714
Compression mode : Lossless
Stream size : 35.4 KiB (0%)
Title : Indonesian
Default : No
Forced : No

Text #15
ID : 17
Format : ASS
Codec ID : S_TEXT/ASS
Duration : 52 min 41 s
Bit rate : 83 b/s
Count of elements : 643
Compression mode : Lossless
Stream size : 32.3 KiB (0%)
Title : Italian
Language : Italian
Default : No
Forced : No

Text #16
ID : 18
Format : ASS
Codec ID : S_TEXT/ASS
Duration : 52 min 41 s
Bit rate : 86 b/s
Count of elements : 694
Compression mode : Lossless
Stream size : 33.5 KiB (0%)
Title : Japanese
Language : Japanese
Default : No
Forced : No

Text #17
ID : 19
Format : ASS
Codec ID : S_TEXT/ASS
Duration : 52 min 41 s
Bit rate : 105 b/s
Count of elements : 715
Compression mode : Lossless
Stream size : 40.9 KiB (0%)
Title : Korean
Language : Korean
Default : No
Forced : No

Text #18
ID : 20
Format : ASS
Codec ID : S_TEXT/ASS
Duration : 52 min 41 s
Bit rate : 77 b/s
Count of elements : 573
Compression mode : Lossless
Stream size : 30.0 KiB (0%)
Title : Norwegian
Language : Norwegian
Default : No
Forced : No

Text #19
ID : 21
Format : ASS
Codec ID : S_TEXT/ASS
Duration : 52 min 41 s
Bit rate : 82 b/s
Count of elements : 609
Compression mode : Lossless
Stream size : 31.7 KiB (0%)
Title : Dutch
Language : Dutch
Default : No
Forced : No

Text #20
ID : 22
Format : ASS
Codec ID : S_TEXT/ASS
Duration : 52 min 41 s
Bit rate : 87 b/s
Count of elements : 692
Compression mode : Lossless
Stream size : 33.9 KiB (0%)
Title : Polish
Language : Polish
Default : No
Forced : No

Text #21
ID : 23
Format : ASS
Codec ID : S_TEXT/ASS
Duration : 52 min 41 s
Bit rate : 89 b/s
Count of elements : 705
Compression mode : Lossless
Stream size : 34.7 KiB (0%)
Title : Portuguese
Language : Portuguese
Default : No
Forced : No

Text #22
ID : 24
Format : ASS
Codec ID : S_TEXT/ASS
Duration : 52 min 43 s
Bit rate : 85 b/s
Count of elements : 696
Compression mode : Lossless
Stream size : 33.2 KiB (0%)
Title : Brazilian Portuguese
Language : Portuguese
Default : No
Forced : No

Text #23
ID : 25
Format : ASS
Codec ID : S_TEXT/ASS
Duration : 52 min 41 s
Bit rate : 95 b/s
Count of elements : 690
Compression mode : Lossless
Stream size : 36.7 KiB (0%)
Title : Romanian
Language : Romanian
Default : No
Forced : No

Text #24
ID : 26
Format : ASS
Codec ID : S_TEXT/ASS
Duration : 52 min 41 s
Bit rate : 119 b/s
Count of elements : 744
Compression mode : Lossless
Stream size : 46.3 KiB (0%)
Title : Russian
Language : Russian
Default : No
Forced : No

Text #25
ID : 27
Format : ASS
Codec ID : S_TEXT/ASS
Duration : 52 min 41 s
Bit rate : 93 b/s
Count of elements : 710
Compression mode : Lossless
Stream size : 35.9 KiB (0%)
Title : Swedish
Language : Swedish
Default : No
Forced : No

Text #26
ID : 28
Format : ASS
Codec ID : S_TEXT/ASS
Duration : 52 min 41 s
Bit rate : 157 b/s
Count of elements : 711
Compression mode : Lossless
Stream size : 60.9 KiB (0%)
Title : Thai
Language : Thai
Default : No
Forced : No

Text #27
ID : 29
Format : ASS
Codec ID : S_TEXT/ASS
Duration : 52 min 41 s
Bit rate : 87 b/s
Count of elements : 688
Compression mode : Lossless
Stream size : 33.8 KiB (0%)
Title : Turkish
Language : Turkish
Default : No
Forced : No

Text #28
ID : 30
Format : ASS
Codec ID : S_TEXT/ASS
Duration : 52 min 41 s
Bit rate : 116 b/s
Count of elements : 711
Compression mode : Lossless
Stream size : 45.1 KiB (0%)
Title : Vietnamese
Language : Vietnamese
Default : No
Forced : No

Text #29
ID : 31
Format : ASS
Codec ID : S_TEXT/ASS
Duration : 52 min 40 s
Bit rate : 95 b/s
Count of elements : 713
Compression mode : Lossless
Stream size : 36.8 KiB (0%)
Title : Simplified Chinese
Language : Chinese
Default : No
Forced : No

Text #30
ID : 32
Format : ASS
Codec ID : S_TEXT/ASS
Duration : 52 min 41 s
Bit rate : 92 b/s
Count of elements : 715
Compression mode : Lossless
Stream size : 35.6 KiB (0%)
Title : Traditional Chinese
Language : Chinese
Default : No
Forced : No

Download

Direct download files get automatically deleted after a month or so. Posted on : 05/16/2020

[collapse]
Media Info and Download Links | S01E07

General
Format : Matroska
Format version : Version 4
File size : 336 MiB
Duration : 55 min 20 s
Overall bit rate : 849 kb/s
Movie name : White.Lines.S01E07.720p.10bit.WEBRip.6CH.x265.HEVC

Video
ID : 1
Format : HEVC
Format/Info : High Efficiency Video Coding
Format profile : Main [email protected]@Main
Codec ID : V_MPEGH/ISO/HEVC
Duration : 55 min 20 s
Bit rate : 652 kb/s
Width : 1 280 pixels
Height : 720 pixels
Display aspect ratio : 2.105
Frame rate mode : Constant
Frame rate : 25.000 FPS
Color space : YUV
Chroma subsampling : 4:2:0
Bit depth : 10 bits
Bits/(Pixel*Frame) : 0.028
Stream size : 258 MiB (77%)
Default : Yes
Forced : No
Color range : Limited
Color primaries : BT.709
Transfer characteristics : BT.709
Matrix coefficients : BT.709

Audio
ID : 2
Format : AAC LC
Codec ID : A_AAC-2
Duration : 55 min 20 s
Bit rate : 192 kb/s
Channel(s) : 6 channels
Channel layout : C L R Ls Rs LFE
Sampling rate : 48.0 kHz
Frame rate : 46.875 FPS (1024 SPF)
Compression mode : Lossy
Delay relative to video : -21 ms
Stream size : 74.7 MiB (22%)
Title : Surround
Language : English
Default : Yes
Forced : No

Text #1
ID : 3
Format : ASS
Codec ID : S_TEXT/ASS
Duration : 54 min 7 s
Bit rate : 146 b/s
Count of elements : 846
Compression mode : Lossless
Stream size : 57.9 KiB (0%)
Title : Arabic
Language : Arabic
Default : No
Forced : No

Text #2
ID : 4
Format : ASS
Codec ID : S_TEXT/ASS
Duration : 54 min 6 s
Bit rate : 96 b/s
Count of elements : 808
Compression mode : Lossless
Stream size : 38.3 KiB (0%)
Title : Czech
Language : Czech
Default : No
Forced : No

Text #3
ID : 5
Format : ASS
Codec ID : S_TEXT/ASS
Duration : 54 min 3 s
Bit rate : 92 b/s
Count of elements : 678
Compression mode : Lossless
Stream size : 36.6 KiB (0%)
Title : Danish
Language : Danish
Default : No
Forced : No

Text #4
ID : 6
Format : ASS
Codec ID : S_TEXT/ASS
Duration : 54 min 3 s
Bit rate : 97 b/s
Count of elements : 732
Compression mode : Lossless
Stream size : 38.5 KiB (0%)
Title : German
Language : German
Default : No
Forced : No

Text #5
ID : 7
Format : ASS
Codec ID : S_TEXT/ASS
Duration : 52 min 28 s
Bit rate : 143 b/s
Count of elements : 745
Compression mode : Lossless
Stream size : 55.3 KiB (0%)
Title : Greek
Language : Greek
Default : No
Forced : No

Text #6
ID : 8
Format : ASS
Codec ID : S_TEXT/ASS
Duration : 45 min 18 s
Bit rate : 0 b/s
Count of elements : 9
Compression mode : Lossless
Stream size : 337 Bytes (0%)
Title : English (Forced)
Language : English
Default : No
Forced : No

Text #7
ID : 9
Format : ASS
Codec ID : S_TEXT/ASS
Duration : 52 min 21 s
Bit rate : 130 b/s
Count of elements : 959
Compression mode : Lossless
Stream size : 50.1 KiB (0%)
Title : English (SDH)
Language : English
Default : Yes
Forced : Yes

Text #8
ID : 10
Format : ASS
Codec ID : S_TEXT/ASS
Duration : 54 min 3 s
Bit rate : 96 b/s
Count of elements : 737
Compression mode : Lossless
Stream size : 38.1 KiB (0%)
Title : Spanish
Language : Spanish
Default : No
Forced : No

Text #9
ID : 11
Format : ASS
Codec ID : S_TEXT/ASS
Duration : 54 min 3 s
Bit rate : 118 b/s
Count of elements : 900
Compression mode : Lossless
Stream size : 47.0 KiB (0%)
Title : European Spanish (SDH)
Language : Spanish
Default : No
Forced : No

Text #10
ID : 12
Format : ASS
Codec ID : S_TEXT/ASS
Duration : 53 min 58 s
Bit rate : 96 b/s
Count of elements : 748
Compression mode : Lossless
Stream size : 38.0 KiB (0%)
Title : Finnish
Language : Finnish
Default : No
Forced : No

Text #11
ID : 13
Format : ASS
Codec ID : S_TEXT/ASS
Duration : 54 min 3 s
Bit rate : 97 b/s
Count of elements : 736
Compression mode : Lossless
Stream size : 38.4 KiB (0%)
Title : French
Language : French
Default : No
Forced : No

Text #12
ID : 14
Format : ASS
Codec ID : S_TEXT/ASS
Duration : 54 min 0 s
Bit rate : 136 b/s
Count of elements : 811
Compression mode : Lossless
Stream size : 54.0 KiB (0%)
Title : Hebrew
Default : No
Forced : No

Text #13
ID : 15
Format : ASS
Codec ID : S_TEXT/ASS
Duration : 52 min 46 s
Bit rate : 102 b/s
Count of elements : 776
Compression mode : Lossless
Stream size : 39.8 KiB (0%)
Title : Hungarian
Language : Hungarian
Default : No
Forced : No

Text #14
ID : 16
Format : ASS
Codec ID : S_TEXT/ASS
Duration : 54 min 7 s
Bit rate : 104 b/s
Count of elements : 853
Compression mode : Lossless
Stream size : 41.3 KiB (0%)
Title : Indonesian
Default : No
Forced : No

Text #15
ID : 17
Format : ASS
Codec ID : S_TEXT/ASS
Duration : 54 min 3 s
Bit rate : 94 b/s
Count of elements : 733
Compression mode : Lossless
Stream size : 37.5 KiB (0%)
Title : Italian
Language : Italian
Default : No
Forced : No

Text #16
ID : 18
Format : ASS
Codec ID : S_TEXT/ASS
Duration : 54 min 3 s
Bit rate : 95 b/s
Count of elements : 737
Compression mode : Lossless
Stream size : 37.9 KiB (0%)
Title : Japanese
Language : Japanese
Default : No
Forced : No

Text #17
ID : 19
Format : ASS
Codec ID : S_TEXT/ASS
Duration : 54 min 3 s
Bit rate : 117 b/s
Count of elements : 835
Compression mode : Lossless
Stream size : 46.7 KiB (0%)
Title : Korean
Language : Korean
Default : No
Forced : No

Text #18
ID : 20
Format : ASS
Codec ID : S_TEXT/ASS
Duration : 54 min 3 s
Bit rate : 86 b/s
Count of elements : 616
Compression mode : Lossless
Stream size : 34.1 KiB (0%)
Title : Norwegian
Language : Norwegian
Default : No
Forced : No

Text #19
ID : 21
Format : ASS
Codec ID : S_TEXT/ASS
Duration : 54 min 3 s
Bit rate : 91 b/s
Count of elements : 659
Compression mode : Lossless
Stream size : 36.2 KiB (0%)
Title : Dutch
Language : Dutch
Default : No
Forced : No

Text #20
ID : 22
Format : ASS
Codec ID : S_TEXT/ASS
Duration : 54 min 3 s
Bit rate : 99 b/s
Count of elements : 795
Compression mode : Lossless
Stream size : 39.3 KiB (0%)
Title : Polish
Language : Polish
Default : No
Forced : No

Text #21
ID : 23
Format : ASS
Codec ID : S_TEXT/ASS
Duration : 54 min 3 s
Bit rate : 102 b/s
Count of elements : 817
Compression mode : Lossless
Stream size : 40.4 KiB (0%)
Title : Portuguese
Language : Portuguese
Default : No
Forced : No

Text #22
ID : 24
Format : ASS
Codec ID : S_TEXT/ASS
Duration : 54 min 5 s
Bit rate : 97 b/s
Count of elements : 808
Compression mode : Lossless
Stream size : 38.6 KiB (0%)
Title : Brazilian Portuguese
Language : Portuguese
Default : No
Forced : No

Text #23
ID : 25
Format : ASS
Codec ID : S_TEXT/ASS
Duration : 54 min 3 s
Bit rate : 105 b/s
Count of elements : 796
Compression mode : Lossless
Stream size : 41.9 KiB (0%)
Title : Romanian
Language : Romanian
Default : No
Forced : No

Text #24
ID : 26
Format : ASS
Codec ID : S_TEXT/ASS
Duration : 54 min 3 s
Bit rate : 137 b/s
Count of elements : 839
Compression mode : Lossless
Stream size : 54.3 KiB (0%)
Title : Russian
Language : Russian
Default : No
Forced : No

Text #25
ID : 27
Format : ASS
Codec ID : S_TEXT/ASS
Duration : 54 min 3 s
Bit rate : 105 b/s
Count of elements : 857
Compression mode : Lossless
Stream size : 41.9 KiB (0%)
Title : Swedish
Language : Swedish
Default : No
Forced : No

Text #26
ID : 28
Format : ASS
Codec ID : S_TEXT/ASS
Duration : 54 min 3 s
Bit rate : 179 b/s
Count of elements : 852
Compression mode : Lossless
Stream size : 71.1 KiB (0%)
Title : Thai
Language : Thai
Default : No
Forced : No

Text #27
ID : 29
Format : ASS
Codec ID : S_TEXT/ASS
Duration : 54 min 3 s
Bit rate : 98 b/s
Count of elements : 774
Compression mode : Lossless
Stream size : 38.9 KiB (0%)
Title : Turkish
Language : Turkish
Default : No
Forced : No

Text #28
ID : 30
Format : ASS
Codec ID : S_TEXT/ASS
Duration : 54 min 3 s
Bit rate : 122 b/s
Count of elements : 860
Compression mode : Lossless
Stream size : 48.7 KiB (0%)
Title : Vietnamese
Language : Vietnamese
Default : No
Forced : No

Text #29
ID : 31
Format : ASS
Codec ID : S_TEXT/ASS
Duration : 54 min 3 s
Bit rate : 107 b/s
Count of elements : 858
Compression mode : Lossless
Stream size : 42.7 KiB (0%)
Title : Simplified Chinese
Language : Chinese
Default : No
Forced : No

Text #30
ID : 32
Format : ASS
Codec ID : S_TEXT/ASS
Duration : 54 min 17 s
Bit rate : 104 b/s
Count of elements : 861
Compression mode : Lossless
Stream size : 41.4 KiB (0%)
Title : Traditional Chinese
Language : Chinese
Default : No
Forced : No

Download

Direct download files get automatically deleted after a month or so. Posted on : 05/16/2020

[collapse]
Media Info and Download Links | S01E06

General
Format : Matroska
Format version : Version 4
File size : 320 MiB
Duration : 52 min 46 s
Overall bit rate : 848 kb/s
Movie name : White.Lines.S01E06.720p.10bit.WEBRip.6CH.x265.HEVC

Video
ID : 1
Format : HEVC
Format/Info : High Efficiency Video Coding
Format profile : Main [email protected]@Main
Codec ID : V_MPEGH/ISO/HEVC
Duration : 52 min 46 s
Bit rate : 653 kb/s
Width : 1 280 pixels
Height : 720 pixels
Display aspect ratio : 2.105
Frame rate mode : Constant
Frame rate : 25.000 FPS
Color space : YUV
Chroma subsampling : 4:2:0
Bit depth : 10 bits
Bits/(Pixel*Frame) : 0.028
Stream size : 246 MiB (77%)
Default : Yes
Forced : No
Color range : Limited
Color primaries : BT.709
Transfer characteristics : BT.709
Matrix coefficients : BT.709

Audio
ID : 2
Format : AAC LC
Codec ID : A_AAC-2
Duration : 52 min 46 s
Bit rate : 192 kb/s
Channel(s) : 6 channels
Channel layout : C L R Ls Rs LFE
Sampling rate : 48.0 kHz
Frame rate : 46.875 FPS (1024 SPF)
Compression mode : Lossy
Delay relative to video : -21 ms
Stream size : 71.3 MiB (22%)
Title : Surround
Language : English
Default : Yes
Forced : No

Text #1
ID : 3
Format : ASS
Codec ID : S_TEXT/ASS
Duration : 51 min 32 s
Bit rate : 117 b/s
Count of elements : 618
Compression mode : Lossless
Stream size : 44.2 KiB (0%)
Title : Arabic
Language : Arabic
Default : No
Forced : No

Text #2
ID : 4
Format : ASS
Codec ID : S_TEXT/ASS
Duration : 51 min 32 s
Bit rate : 77 b/s
Count of elements : 615
Compression mode : Lossless
Stream size : 29.2 KiB (0%)
Title : Czech
Language : Czech
Default : No
Forced : No

Text #3
ID : 5
Format : ASS
Codec ID : S_TEXT/ASS
Duration : 51 min 29 s
Bit rate : 75 b/s
Count of elements : 552
Compression mode : Lossless
Stream size : 28.4 KiB (0%)
Title : Danish
Language : Danish
Default : No
Forced : No

Text #4
ID : 6
Format : ASS
Codec ID : S_TEXT/ASS
Duration : 51 min 29 s
Bit rate : 78 b/s
Count of elements : 583
Compression mode : Lossless
Stream size : 29.8 KiB (0%)
Title : German
Language : German
Default : No
Forced : No

Text #5
ID : 7
Format : ASS
Codec ID : S_TEXT/ASS
Duration : 49 min 8 s
Bit rate : 119 b/s
Count of elements : 606
Compression mode : Lossless
Stream size : 43.0 KiB (0%)
Title : Greek
Language : Greek
Default : No
Forced : No

Text #6
ID : 8
Format : ASS
Codec ID : S_TEXT/ASS
Duration : 41 min 8 s
Bit rate : 38 b/s
Count of elements : 214
Compression mode : Lossless
Stream size : 11.7 KiB (0%)
Title : English (Forced)
Language : English
Default : No
Forced : No

Text #7
ID : 9
Format : ASS
Codec ID : S_TEXT/ASS
Duration : 49 min 29 s
Bit rate : 109 b/s
Count of elements : 760
Compression mode : Lossless
Stream size : 39.7 KiB (0%)
Title : English (SDH)
Language : English
Default : Yes
Forced : Yes

Text #8
ID : 10
Format : ASS
Codec ID : S_TEXT/ASS
Duration : 51 min 29 s
Bit rate : 50 b/s
Count of elements : 384
Compression mode : Lossless
Stream size : 19.2 KiB (0%)
Title : Spanish
Language : Spanish
Default : No
Forced : No

Text #9
ID : 11
Format : ASS
Codec ID : S_TEXT/ASS
Duration : 51 min 29 s
Bit rate : 103 b/s
Count of elements : 718
Compression mode : Lossless
Stream size : 39.1 KiB (0%)
Title : European Spanish (SDH)
Language : Spanish
Default : No
Forced : No

Text #10
ID : 12
Format : ASS
Codec ID : S_TEXT/ASS
Duration : 51 min 24 s
Bit rate : 76 b/s
Count of elements : 578
Compression mode : Lossless
Stream size : 29.0 KiB (0%)
Title : Finnish
Language : Finnish
Default : No
Forced : No

Text #11
ID : 13
Format : ASS
Codec ID : S_TEXT/ASS
Duration : 51 min 29 s
Bit rate : 78 b/s
Count of elements : 580
Compression mode : Lossless
Stream size : 29.5 KiB (0%)
Title : French
Language : French
Default : No
Forced : No

Text #12
ID : 14
Format : ASS
Codec ID : S_TEXT/ASS
Duration : 51 min 26 s
Bit rate : 110 b/s
Count of elements : 626
Compression mode : Lossless
Stream size : 41.6 KiB (0%)
Title : Hebrew
Default : No
Forced : No

Text #13
ID : 15
Format : ASS
Codec ID : S_TEXT/ASS
Duration : 50 min 11 s
Bit rate : 84 b/s
Count of elements : 601
Compression mode : Lossless
Stream size : 31.2 KiB (0%)
Title : Hungarian
Language : Hungarian
Default : No
Forced : No

Text #14
ID : 16
Format : ASS
Codec ID : S_TEXT/ASS
Duration : 51 min 32 s
Bit rate : 81 b/s
Count of elements : 621
Compression mode : Lossless
Stream size : 30.7 KiB (0%)
Title : Indonesian
Default : No
Forced : No

Text #15
ID : 17
Format : ASS
Codec ID : S_TEXT/ASS
Duration : 51 min 29 s
Bit rate : 76 b/s
Count of elements : 574
Compression mode : Lossless
Stream size : 28.8 KiB (0%)
Title : Italian
Language : Italian
Default : No
Forced : No

Text #16
ID : 18
Format : ASS
Codec ID : S_TEXT/ASS
Duration : 51 min 29 s
Bit rate : 82 b/s
Count of elements : 611
Compression mode : Lossless
Stream size : 31.0 KiB (0%)
Title : Japanese
Language : Japanese
Default : No
Forced : No

Text #17
ID : 19
Format : ASS
Codec ID : S_TEXT/ASS
Duration : 51 min 29 s
Bit rate : 94 b/s
Count of elements : 631
Compression mode : Lossless
Stream size : 35.8 KiB (0%)
Title : Korean
Language : Korean
Default : No
Forced : No

Text #18
ID : 20
Format : ASS
Codec ID : S_TEXT/ASS
Duration : 51 min 29 s
Bit rate : 69 b/s
Count of elements : 487
Compression mode : Lossless
Stream size : 26.2 KiB (0%)
Title : Norwegian
Language : Norwegian
Default : No
Forced : No

Text #19
ID : 21
Format : ASS
Codec ID : S_TEXT/ASS
Duration : 51 min 29 s
Bit rate : 73 b/s
Count of elements : 521
Compression mode : Lossless
Stream size : 27.5 KiB (0%)
Title : Dutch
Language : Dutch
Default : No
Forced : No

Text #20
ID : 22
Format : ASS
Codec ID : S_TEXT/ASS
Duration : 51 min 29 s
Bit rate : 79 b/s
Count of elements : 606
Compression mode : Lossless
Stream size : 29.8 KiB (0%)
Title : Polish
Language : Polish
Default : No
Forced : No

Text #21
ID : 23
Format : ASS
Codec ID : S_TEXT/ASS
Duration : 51 min 29 s
Bit rate : 82 b/s
Count of elements : 619
Compression mode : Lossless
Stream size : 31.0 KiB (0%)
Title : Portuguese
Language : Portuguese
Default : No
Forced : No

Text #22
ID : 24
Format : ASS
Codec ID : S_TEXT/ASS
Duration : 51 min 31 s
Bit rate : 77 b/s
Count of elements : 611
Compression mode : Lossless
Stream size : 29.4 KiB (0%)
Title : Brazilian Portuguese
Language : Portuguese
Default : No
Forced : No

Text #23
ID : 25
Format : ASS
Codec ID : S_TEXT/ASS
Duration : 51 min 29 s
Bit rate : 83 b/s
Count of elements : 591
Compression mode : Lossless
Stream size : 31.7 KiB (0%)
Title : Romanian
Language : Romanian
Default : No
Forced : No

Text #24
ID : 26
Format : ASS
Codec ID : S_TEXT/ASS
Duration : 51 min 29 s
Bit rate : 111 b/s
Count of elements : 680
Compression mode : Lossless
Stream size : 42.0 KiB (0%)
Title : Russian
Language : Russian
Default : No
Forced : No

Text #25
ID : 27
Format : ASS
Codec ID : S_TEXT/ASS
Duration : 51 min 29 s
Bit rate : 83 b/s
Count of elements : 620
Compression mode : Lossless
Stream size : 31.3 KiB (0%)
Title : Swedish
Language : Swedish
Default : No
Forced : No

Text #26
ID : 28
Format : ASS
Codec ID : S_TEXT/ASS
Duration : 51 min 29 s
Bit rate : 148 b/s
Count of elements : 628
Compression mode : Lossless
Stream size : 55.9 KiB (0%)
Title : Thai
Language : Thai
Default : No
Forced : No

Text #27
ID : 29
Format : ASS
Codec ID : S_TEXT/ASS
Duration : 51 min 29 s
Bit rate : 78 b/s
Count of elements : 602
Compression mode : Lossless
Stream size : 29.8 KiB (0%)
Title : Turkish
Language : Turkish
Default : No
Forced : No

Text #28
ID : 30
Format : ASS
Codec ID : S_TEXT/ASS
Duration : 51 min 29 s
Bit rate : 97 b/s
Count of elements : 626
Compression mode : Lossless
Stream size : 36.9 KiB (0%)
Title : Vietnamese
Language : Vietnamese
Default : No
Forced : No

Text #29
ID : 31
Format : ASS
Codec ID : S_TEXT/ASS
Duration : 51 min 29 s
Bit rate : 85 b/s
Count of elements : 624
Compression mode : Lossless
Stream size : 32.1 KiB (0%)
Title : Simplified Chinese
Language : Chinese
Default : No
Forced : No

Text #30
ID : 32
Format : ASS
Codec ID : S_TEXT/ASS
Duration : 49 min 8 s
Bit rate : 87 b/s
Count of elements : 626
Compression mode : Lossless
Stream size : 31.3 KiB (0%)
Title : Traditional Chinese
Language : Chinese
Default : No
Forced : No

Download

Direct download files get automatically deleted after a month or so. Posted on : 05/16/2020

[collapse]
Media Info and Download Links | S01E05

General
Format : Matroska
Format version : Version 4
File size : 315 MiB
Duration : 51 min 58 s
Overall bit rate : 847 kb/s
Movie name : White.Lines.S01E05.720p.10bit.WEBRip.6CH.x265.HEVC

Video
ID : 1
Format : HEVC
Format/Info : High Efficiency Video Coding
Format profile : Main [email protected]@Main
Codec ID : V_MPEGH/ISO/HEVC
Duration : 51 min 56 s
Bit rate : 653 kb/s
Width : 1 280 pixels
Height : 720 pixels
Display aspect ratio : 2.105
Frame rate mode : Constant
Frame rate : 25.000 FPS
Color space : YUV
Chroma subsampling : 4:2:0
Bit depth : 10 bits
Bits/(Pixel*Frame) : 0.028
Stream size : 243 MiB (77%)
Default : Yes
Forced : No
Color range : Limited
Color primaries : BT.709
Transfer characteristics : BT.709
Matrix coefficients : BT.709

Audio
ID : 2
Format : AAC LC
Codec ID : A_AAC-2
Duration : 51 min 58 s
Bit rate : 192 kb/s
Channel(s) : 6 channels
Channel layout : C L R Ls Rs LFE
Sampling rate : 48.0 kHz
Frame rate : 46.875 FPS (1024 SPF)
Compression mode : Lossy
Delay relative to video : -21 ms
Stream size : 70.0 MiB (22%)
Title : Surround
Language : English
Default : Yes
Forced : No

Text #1
ID : 3
Format : ASS
Codec ID : S_TEXT/ASS
Duration : 50 min 44 s
Bit rate : 116 b/s
Count of elements : 643
Compression mode : Lossless
Stream size : 43.4 KiB (0%)
Title : Arabic
Language : Arabic
Default : No
Forced : No

Text #2
ID : 4
Format : ASS
Codec ID : S_TEXT/ASS
Duration : 50 min 44 s
Bit rate : 78 b/s
Count of elements : 624
Compression mode : Lossless
Stream size : 29.1 KiB (0%)
Title : Czech
Language : Czech
Default : No
Forced : No

Text #3
ID : 5
Format : ASS
Codec ID : S_TEXT/ASS
Duration : 50 min 42 s
Bit rate : 75 b/s
Count of elements : 538
Compression mode : Lossless
Stream size : 28.2 KiB (0%)
Title : Danish
Language : Danish
Default : No
Forced : No

Text #4
ID : 6
Format : ASS
Codec ID : S_TEXT/ASS
Duration : 50 min 42 s
Bit rate : 78 b/s
Count of elements : 567
Compression mode : Lossless
Stream size : 29.0 KiB (0%)
Title : German
Language : German
Default : No
Forced : No

Text #5
ID : 7
Format : ASS
Codec ID : S_TEXT/ASS
Duration : 48 min 55 s
Bit rate : 116 b/s
Count of elements : 601
Compression mode : Lossless
Stream size : 41.9 KiB (0%)
Title : Greek
Language : Greek
Default : No
Forced : No

Text #6
ID : 8
Format : ASS
Codec ID : S_TEXT/ASS
Duration : 37 min 34 s
Bit rate : 38 b/s
Count of elements : 201
Compression mode : Lossless
Stream size : 10.7 KiB (0%)
Title : English (Forced)
Language : English
Default : No
Forced : No

Text #7
ID : 9
Format : ASS
Codec ID : S_TEXT/ASS
Duration : 47 min 58 s
Bit rate : 110 b/s
Count of elements : 757
Compression mode : Lossless
Stream size : 38.9 KiB (0%)
Title : English (SDH)
Language : English
Default : Yes
Forced : Yes

Text #8
ID : 10
Format : ASS
Codec ID : S_TEXT/ASS
Duration : 50 min 42 s
Bit rate : 52 b/s
Count of elements : 391
Compression mode : Lossless
Stream size : 19.5 KiB (0%)
Title : Spanish
Language : Spanish
Default : No
Forced : No

Text #9
ID : 11
Format : ASS
Codec ID : S_TEXT/ASS
Duration : 50 min 42 s
Bit rate : 100 b/s
Count of elements : 711
Compression mode : Lossless
Stream size : 37.4 KiB (0%)
Title : European Spanish (SDH)
Language : Spanish
Default : No
Forced : No

Text #10
ID : 12
Format : ASS
Codec ID : S_TEXT/ASS
Duration : 50 min 38 s
Bit rate : 77 b/s
Count of elements : 567
Compression mode : Lossless
Stream size : 28.9 KiB (0%)
Title : Finnish
Language : Finnish
Default : No
Forced : No

Text #11
ID : 13
Format : ASS
Codec ID : S_TEXT/ASS
Duration : 50 min 42 s
Bit rate : 80 b/s
Count of elements : 582
Compression mode : Lossless
Stream size : 29.9 KiB (0%)
Title : French
Language : French
Default : No
Forced : No

Text #12
ID : 14
Format : ASS
Codec ID : S_TEXT/ASS
Duration : 50 min 41 s
Bit rate : 110 b/s
Count of elements : 625
Compression mode : Lossless
Stream size : 41.2 KiB (0%)
Title : Hebrew
Default : No
Forced : No

Text #13
ID : 15
Format : ASS
Codec ID : S_TEXT/ASS
Duration : 49 min 24 s
Bit rate : 84 b/s
Count of elements : 596
Compression mode : Lossless
Stream size : 30.6 KiB (0%)
Title : Hungarian
Language : Hungarian
Default : No
Forced : No

Text #14
ID : 16
Format : ASS
Codec ID : S_TEXT/ASS
Duration : 50 min 45 s
Bit rate : 84 b/s
Count of elements : 649
Compression mode : Lossless
Stream size : 31.4 KiB (0%)
Title : Indonesian
Default : No
Forced : No

Text #15
ID : 17
Format : ASS
Codec ID : S_TEXT/ASS
Duration : 50 min 44 s
Bit rate : 76 b/s
Count of elements : 566
Compression mode : Lossless
Stream size : 28.5 KiB (0%)
Title : Italian
Language : Italian
Default : No
Forced : No

Text #16
ID : 18
Format : ASS
Codec ID : S_TEXT/ASS
Duration : 50 min 42 s
Bit rate : 75 b/s
Count of elements : 527
Compression mode : Lossless
Stream size : 27.9 KiB (0%)
Title : Japanese
Language : Japanese
Default : No
Forced : No

Text #17
ID : 19
Format : ASS
Codec ID : S_TEXT/ASS
Duration : 50 min 42 s
Bit rate : 93 b/s
Count of elements : 625
Compression mode : Lossless
Stream size : 34.8 KiB (0%)
Title : Korean
Language : Korean
Default : No
Forced : No

Text #18
ID : 20
Format : ASS
Codec ID : S_TEXT/ASS
Duration : 50 min 42 s
Bit rate : 73 b/s
Count of elements : 517
Compression mode : Lossless
Stream size : 27.2 KiB (0%)
Title : Norwegian
Language : Norwegian
Default : No
Forced : No

Text #19
ID : 21
Format : ASS
Codec ID : S_TEXT/ASS
Duration : 50 min 42 s
Bit rate : 74 b/s
Count of elements : 524
Compression mode : Lossless
Stream size : 27.7 KiB (0%)
Title : Dutch
Language : Dutch
Default : No
Forced : No

Text #20
ID : 22
Format : ASS
Codec ID : S_TEXT/ASS
Duration : 50 min 42 s
Bit rate : 79 b/s
Count of elements : 601
Compression mode : Lossless
Stream size : 29.5 KiB (0%)
Title : Polish
Language : Polish
Default : No
Forced : No

Text #21
ID : 23
Format : ASS
Codec ID : S_TEXT/ASS
Duration : 50 min 42 s
Bit rate : 82 b/s
Count of elements : 629
Compression mode : Lossless
Stream size : 30.5 KiB (0%)
Title : Portuguese
Language : Portuguese
Default : No
Forced : No

Text #22
ID : 24
Format : ASS
Codec ID : S_TEXT/ASS
Duration : 50 min 44 s
Bit rate : 77 b/s
Count of elements : 594
Compression mode : Lossless
Stream size : 28.7 KiB (0%)
Title : Brazilian Portuguese
Language : Portuguese
Default : No
Forced : No

Text #23
ID : 25
Format : ASS
Codec ID : S_TEXT/ASS
Duration : 50 min 42 s
Bit rate : 85 b/s
Count of elements : 618
Compression mode : Lossless
Stream size : 31.6 KiB (0%)
Title : Romanian
Language : Romanian
Default : No
Forced : No

Text #24
ID : 26
Format : ASS
Codec ID : S_TEXT/ASS
Duration : 50 min 42 s
Bit rate : 109 b/s
Count of elements : 637
Compression mode : Lossless
Stream size : 40.7 KiB (0%)
Title : Russian
Language : Russian
Default : No
Forced : No

Text #25
ID : 27
Format : ASS
Codec ID : S_TEXT/ASS
Duration : 50 min 42 s
Bit rate : 84 b/s
Count of elements : 642
Compression mode : Lossless
Stream size : 31.3 KiB (0%)
Title : Swedish
Language : Swedish
Default : No
Forced : No

Text #26
ID : 28
Format : ASS
Codec ID : S_TEXT/ASS
Duration : 50 min 42 s
Bit rate : 149 b/s
Count of elements : 634
Compression mode : Lossless
Stream size : 55.5 KiB (0%)
Title : Thai
Language : Thai
Default : No
Forced : No

Text #27
ID : 29
Format : ASS
Codec ID : S_TEXT/ASS
Duration : 50 min 42 s
Bit rate : 78 b/s
Count of elements : 585
Compression mode : Lossless
Stream size : 29.0 KiB (0%)
Title : Turkish
Language : Turkish
Default : No
Forced : No

Text #28
ID : 30
Format : ASS
Codec ID : S_TEXT/ASS
Duration : 50 min 42 s
Bit rate : 100 b/s
Count of elements : 650
Compression mode : Lossless
Stream size : 37.4 KiB (0%)
Title : Vietnamese
Language : Vietnamese
Default : No
Forced : No

Text #29
ID : 31
Format : ASS
Codec ID : S_TEXT/ASS
Duration : 50 min 42 s
Bit rate : 86 b/s
Count of elements : 648
Compression mode : Lossless
Stream size : 32.2 KiB (0%)
Title : Simplified Chinese
Language : Chinese
Default : No
Forced : No

Text #30
ID : 32
Format : ASS
Codec ID : S_TEXT/ASS
Duration : 50 min 53 s
Bit rate : 84 b/s
Count of elements : 651
Compression mode : Lossless
Stream size : 31.3 KiB (0%)
Title : Traditional Chinese
Language : Chinese
Default : No
Forced : No

Download

Direct download files get automatically deleted after a month or so. Posted on : 05/16/2020

[collapse]
Media Info and Download Links | S01E04

General
Format : Matroska
Format version : Version 4
File size : 330 MiB
Duration : 54 min 28 s
Overall bit rate : 847 kb/s
Movie name : White.Lines.S01E04.720p.10bit.WEBRip.6CH.x265.HEVC

Video
ID : 1
Format : HEVC
Format/Info : High Efficiency Video Coding
Format profile : Main [email protected]@Main
Codec ID : V_MPEGH/ISO/HEVC
Duration : 54 min 28 s
Bit rate : 653 kb/s
Width : 1 280 pixels
Height : 720 pixels
Display aspect ratio : 2.105
Frame rate mode : Constant
Frame rate : 25.000 FPS
Color space : YUV
Chroma subsampling : 4:2:0
Bit depth : 10 bits
Bits/(Pixel*Frame) : 0.028
Stream size : 254 MiB (77%)
Default : Yes
Forced : No
Color range : Limited
Color primaries : BT.709
Transfer characteristics : BT.709
Matrix coefficients : BT.709

Audio
ID : 2
Format : AAC LC
Codec ID : A_AAC-2
Duration : 54 min 28 s
Bit rate : 192 kb/s
Channel(s) : 6 channels
Channel layout : C L R Ls Rs LFE
Sampling rate : 48.0 kHz
Frame rate : 46.875 FPS (1024 SPF)
Compression mode : Lossy
Delay relative to video : -21 ms
Stream size : 73.3 MiB (22%)
Title : Surround
Language : English
Default : Yes
Forced : No

Text #1
ID : 3
Format : ASS
Codec ID : S_TEXT/ASS
Duration : 53 min 11 s
Bit rate : 115 b/s
Count of elements : 632
Compression mode : Lossless
Stream size : 44.9 KiB (0%)
Title : Arabic
Language : Arabic
Default : No
Forced : No

Text #2
ID : 4
Format : ASS
Codec ID : S_TEXT/ASS
Duration : 53 min 11 s
Bit rate : 75 b/s
Count of elements : 615
Compression mode : Lossless
Stream size : 29.6 KiB (0%)
Title : Czech
Language : Czech
Default : No
Forced : No

Text #3
ID : 5
Format : ASS
Codec ID : S_TEXT/ASS
Duration : 53 min 8 s
Bit rate : 72 b/s
Count of elements : 543
Compression mode : Lossless
Stream size : 28.3 KiB (0%)
Title : Danish
Language : Danish
Default : No
Forced : No

Text #4
ID : 6
Format : ASS
Codec ID : S_TEXT/ASS
Duration : 53 min 8 s
Bit rate : 77 b/s
Count of elements : 579
Compression mode : Lossless
Stream size : 30.0 KiB (0%)
Title : German
Language : German
Default : No
Forced : No

Text #5
ID : 7
Format : ASS
Codec ID : S_TEXT/ASS
Duration : 51 min 42 s
Bit rate : 112 b/s
Count of elements : 614
Compression mode : Lossless
Stream size : 42.8 KiB (0%)
Title : Greek
Language : Greek
Default : No
Forced : No

Text #6
ID : 8
Format : ASS
Codec ID : S_TEXT/ASS
Duration : 45 min 38 s
Bit rate : 17 b/s
Count of elements : 110
Compression mode : Lossless
Stream size : 5.81 KiB (0%)
Title : English (Forced)
Language : English
Default : No
Forced : No

Text #7
ID : 9
Format : ASS
Codec ID : S_TEXT/ASS
Duration : 51 min 31 s
Bit rate : 108 b/s
Count of elements : 779
Compression mode : Lossless
Stream size : 40.9 KiB (0%)
Title : English (SDH)
Language : English
Default : Yes
Forced : Yes

Text #8
ID : 10
Format : ASS
Codec ID : S_TEXT/ASS
Duration : 53 min 8 s
Bit rate : 63 b/s
Count of elements : 481
Compression mode : Lossless
Stream size : 24.8 KiB (0%)
Title : Spanish
Language : Spanish
Default : No
Forced : No

Text #9
ID : 11
Format : ASS
Codec ID : S_TEXT/ASS
Duration : 53 min 8 s
Bit rate : 101 b/s
Count of elements : 732
Compression mode : Lossless
Stream size : 39.6 KiB (0%)
Title : European Spanish (SDH)
Language : Spanish
Default : No
Forced : No

Text #10
ID : 12
Format : ASS
Codec ID : S_TEXT/ASS
Duration : 53 min 6 s
Bit rate : 75 b/s
Count of elements : 581
Compression mode : Lossless
Stream size : 29.5 KiB (0%)
Title : Finnish
Language : Finnish
Default : No
Forced : No

Text #11
ID : 13
Format : ASS
Codec ID : S_TEXT/ASS
Duration : 53 min 8 s
Bit rate : 77 b/s
Count of elements : 587
Compression mode : Lossless
Stream size : 30.3 KiB (0%)
Title : French
Language : French
Default : No
Forced : No

Text #12
ID : 14
Format : ASS
Codec ID : S_TEXT/ASS
Duration : 53 min 6 s
Bit rate : 108 b/s
Count of elements : 629
Compression mode : Lossless
Stream size : 42.2 KiB (0%)
Title : Hebrew
Default : No
Forced : No

Text #13
ID : 15
Format : ASS
Codec ID : S_TEXT/ASS
Duration : 51 min 52 s
Bit rate : 81 b/s
Count of elements : 596
Compression mode : Lossless
Stream size : 30.9 KiB (0%)
Title : Hungarian
Language : Hungarian
Default : No
Forced : No

Text #14
ID : 16
Format : ASS
Codec ID : S_TEXT/ASS
Duration : 53 min 12 s
Bit rate : 79 b/s
Count of elements : 637
Compression mode : Lossless
Stream size : 30.9 KiB (0%)
Title : Indonesian
Default : No
Forced : No

Text #15
ID : 17
Format : ASS
Codec ID : S_TEXT/ASS
Duration : 53 min 8 s
Bit rate : 75 b/s
Count of elements : 588
Compression mode : Lossless
Stream size : 29.6 KiB (0%)
Title : Italian
Language : Italian
Default : No
Forced : No

Text #16
ID : 18
Format : ASS
Codec ID : S_TEXT/ASS
Duration : 53 min 8 s
Bit rate : 74 b/s
Count of elements : 569
Compression mode : Lossless
Stream size : 28.8 KiB (0%)
Title : Japanese
Language : Japanese
Default : No
Forced : No

Text #17
ID : 19
Format : ASS
Codec ID : S_TEXT/ASS
Duration : 53 min 8 s
Bit rate : 95 b/s
Count of elements : 633
Compression mode : Lossless
Stream size : 37.2 KiB (0%)
Title : Korean
Language : Korean
Default : No
Forced : No

Text #18
ID : 20
Format : ASS
Codec ID : S_TEXT/ASS
Duration : 53 min 8 s
Bit rate : 69 b/s
Count of elements : 518
Compression mode : Lossless
Stream size : 27.0 KiB (0%)
Title : Norwegian
Language : Norwegian
Default : No
Forced : No

Text #19
ID : 21
Format : ASS
Codec ID : S_TEXT/ASS
Duration : 53 min 8 s
Bit rate : 72 b/s
Count of elements : 533
Compression mode : Lossless
Stream size : 28.3 KiB (0%)
Title : Dutch
Language : Dutch
Default : No
Forced : No

Text #20
ID : 22
Format : ASS
Codec ID : S_TEXT/ASS
Duration : 53 min 8 s
Bit rate : 77 b/s
Count of elements : 607
Compression mode : Lossless
Stream size : 30.1 KiB (0%)
Title : Polish
Language : Polish
Default : No
Forced : No

Text #21
ID : 23
Format : ASS
Codec ID : S_TEXT/ASS
Duration : 53 min 8 s
Bit rate : 80 b/s
Count of elements : 630
Compression mode : Lossless
Stream size : 31.3 KiB (0%)
Title : Portuguese
Language : Portuguese
Default : No
Forced : No

Text #22
ID : 24
Format : ASS
Codec ID : S_TEXT/ASS
Duration : 53 min 11 s
Bit rate : 76 b/s
Count of elements : 627
Compression mode : Lossless
Stream size : 29.8 KiB (0%)
Title : Brazilian Portuguese
Language : Portuguese
Default : No
Forced : No

Text #23
ID : 25
Format : ASS
Codec ID : S_TEXT/ASS
Duration : 53 min 8 s
Bit rate : 82 b/s
Count of elements : 606
Compression mode : Lossless
Stream size : 32.2 KiB (0%)
Title : Romanian
Language : Romanian
Default : No
Forced : No

Text #24
ID : 26
Format : ASS
Codec ID : S_TEXT/ASS
Duration : 53 min 8 s
Bit rate : 108 b/s
Count of elements : 660
Compression mode : Lossless
Stream size : 42.3 KiB (0%)
Title : Russian
Language : Russian
Default : No
Forced : No

Text #25
ID : 27
Format : ASS
Codec ID : S_TEXT/ASS
Duration : 53 min 8 s
Bit rate : 81 b/s
Count of elements : 633
Compression mode : Lossless
Stream size : 31.8 KiB (0%)
Title : Swedish
Language : Swedish
Default : No
Forced : No

Text #26
ID : 28
Format : ASS
Codec ID : S_TEXT/ASS
Duration : 53 min 8 s
Bit rate : 147 b/s
Count of elements : 632
Compression mode : Lossless
Stream size : 57.5 KiB (0%)
Title : Thai
Language : Thai
Default : No
Forced : No

Text #27
ID : 29
Format : ASS
Codec ID : S_TEXT/ASS
Duration : 53 min 8 s
Bit rate : 77 b/s
Count of elements : 609
Compression mode : Lossless
Stream size : 30.1 KiB (0%)
Title : Turkish
Language : Turkish
Default : No
Forced : No

Text #28
ID : 30
Format : ASS
Codec ID : S_TEXT/ASS
Duration : 53 min 8 s
Bit rate : 97 b/s
Count of elements : 637
Compression mode : Lossless
Stream size : 38.0 KiB (0%)
Title : Vietnamese
Language : Vietnamese
Default : No
Forced : No

Text #29
ID : 31
Format : ASS
Codec ID : S_TEXT/ASS
Duration : 53 min 8 s
Bit rate : 84 b/s
Count of elements : 636
Compression mode : Lossless
Stream size : 32.8 KiB (0%)
Title : Simplified Chinese
Language : Chinese
Default : No
Forced : No

Text #30
ID : 32
Format : ASS
Codec ID : S_TEXT/ASS
Duration : 53 min 21 s
Bit rate : 80 b/s
Count of elements : 636
Compression mode : Lossless
Stream size : 31.6 KiB (0%)
Title : Traditional Chinese
Language : Chinese
Default : No
Forced : No

Download

Direct download files get automatically deleted after a month or so. Posted on : 05/16/2020

[collapse]
Media Info and Download Links | S01E03

General
Format : Matroska
Format version : Version 4
File size : 309 MiB
Duration : 50 min 52 s
Overall bit rate : 849 kb/s
Movie name : White.Lines.S01E03.720p.10bit.WEBRip.6CH.x265.HEVC

Video
ID : 1
Format : HEVC
Format/Info : High Efficiency Video Coding
Format profile : Main [email protected]@Main
Codec ID : V_MPEGH/ISO/HEVC
Duration : 50 min 52 s
Bit rate : 654 kb/s
Width : 1 280 pixels
Height : 720 pixels
Display aspect ratio : 2.105
Frame rate mode : Constant
Frame rate : 25.000 FPS
Color space : YUV
Chroma subsampling : 4:2:0
Bit depth : 10 bits
Bits/(Pixel*Frame) : 0.028
Stream size : 238 MiB (77%)
Default : Yes
Forced : No
Color range : Limited
Color primaries : BT.709
Transfer characteristics : BT.709
Matrix coefficients : BT.709

Audio
ID : 2
Format : AAC LC
Codec ID : A_AAC-2
Duration : 50 min 52 s
Bit rate : 188 kb/s
Channel(s) : 6 channels
Channel layout : C L R Ls Rs LFE
Sampling rate : 48.0 kHz
Frame rate : 46.875 FPS (1024 SPF)
Compression mode : Lossy
Delay relative to video : -21 ms
Stream size : 68.4 MiB (22%)
Title : Surround
Language : English
Default : Yes
Forced : No

Text #1
ID : 3
Format : ASS
Codec ID : S_TEXT/ASS
Duration : 49 min 39 s
Bit rate : 124 b/s
Count of elements : 668
Compression mode : Lossless
Stream size : 45.4 KiB (0%)
Title : Arabic
Language : Arabic
Default : No
Forced : No

Text #2
ID : 4
Format : ASS
Codec ID : S_TEXT/ASS
Duration : 49 min 38 s
Bit rate : 81 b/s
Count of elements : 667
Compression mode : Lossless
Stream size : 29.8 KiB (0%)
Title : Czech
Language : Czech
Default : No
Forced : No

Text #3
ID : 5
Format : ASS
Codec ID : S_TEXT/ASS
Duration : 49 min 35 s
Bit rate : 77 b/s
Count of elements : 561
Compression mode : Lossless
Stream size : 28.2 KiB (0%)
Title : Danish
Language : Danish
Default : No
Forced : No

Text #4
ID : 6
Format : ASS
Codec ID : S_TEXT/ASS
Duration : 49 min 35 s
Bit rate : 81 b/s
Count of elements : 611
Compression mode : Lossless
Stream size : 29.8 KiB (0%)
Title : German
Language : German
Default : No
Forced : No

Text #5
ID : 7
Format : ASS
Codec ID : S_TEXT/ASS
Duration : 48 min 12 s
Bit rate : 119 b/s
Count of elements : 624
Compression mode : Lossless
Stream size : 42.2 KiB (0%)
Title : Greek
Language : Greek
Default : No
Forced : No

Text #6
ID : 8
Format : ASS
Codec ID : S_TEXT/ASS
Duration : 45 min 31 s
Bit rate : 29 b/s
Count of elements : 191
Compression mode : Lossless
Stream size : 9.71 KiB (0%)
Title : English (Forced)
Language : English
Default : No
Forced : No

Text #7
ID : 9
Format : ASS
Codec ID : S_TEXT/ASS
Duration : 48 min 2 s
Bit rate : 117 b/s
Count of elements : 829
Compression mode : Lossless
Stream size : 41.2 KiB (0%)
Title : English (SDH)
Language : English
Default : Yes
Forced : Yes

Text #8
ID : 10
Format : ASS
Codec ID : S_TEXT/ASS
Duration : 49 min 35 s
Bit rate : 57 b/s
Count of elements : 417
Compression mode : Lossless
Stream size : 21.0 KiB (0%)
Title : Spanish
Language : Spanish
Default : No
Forced : No

Text #9
ID : 11
Format : ASS
Codec ID : S_TEXT/ASS
Duration : 49 min 35 s
Bit rate : 97 b/s
Count of elements : 657
Compression mode : Lossless
Stream size : 35.3 KiB (0%)
Title : European Spanish (SDH)
Language : Spanish
Default : No
Forced : No

Text #10
ID : 12
Format : ASS
Codec ID : S_TEXT/ASS
Duration : 49 min 33 s
Bit rate : 79 b/s
Count of elements : 585
Compression mode : Lossless
Stream size : 29.0 KiB (0%)
Title : Finnish
Language : Finnish
Default : No
Forced : No

Text #11
ID : 13
Format : ASS
Codec ID : S_TEXT/ASS
Duration : 49 min 35 s
Bit rate : 84 b/s
Count of elements : 632
Compression mode : Lossless
Stream size : 30.8 KiB (0%)
Title : French
Language : French
Default : No
Forced : No

Text #12
ID : 14
Format : ASS
Codec ID : S_TEXT/ASS
Duration : 49 min 33 s
Bit rate : 116 b/s
Count of elements : 664
Compression mode : Lossless
Stream size : 42.1 KiB (0%)
Title : Hebrew
Default : No
Forced : No

Text #13
ID : 15
Format : ASS
Codec ID : S_TEXT/ASS
Duration : 48 min 18 s
Bit rate : 87 b/s
Count of elements : 641
Compression mode : Lossless
Stream size : 31.1 KiB (0%)
Title : Hungarian
Language : Hungarian
Default : No
Forced : No

Text #14
ID : 16
Format : ASS
Codec ID : S_TEXT/ASS
Duration : 49 min 38 s
Bit rate : 86 b/s
Count of elements : 676
Compression mode : Lossless
Stream size : 31.3 KiB (0%)
Title : Indonesian
Default : No
Forced : No

Text #15
ID : 17
Format : ASS
Codec ID : S_TEXT/ASS
Duration : 49 min 35 s
Bit rate : 81 b/s
Count of elements : 608
Compression mode : Lossless
Stream size : 29.7 KiB (0%)
Title : Italian
Language : Italian
Default : No
Forced : No

Text #16
ID : 18
Format : ASS
Codec ID : S_TEXT/ASS
Duration : 49 min 35 s
Bit rate : 80 b/s
Count of elements : 612
Compression mode : Lossless
Stream size : 29.4 KiB (0%)
Title : Japanese
Language : Japanese
Default : No
Forced : No

Text #17
ID : 19
Format : ASS
Codec ID : S_TEXT/ASS
Duration : 49 min 36 s
Bit rate : 100 b/s
Count of elements : 675
Compression mode : Lossless
Stream size : 36.4 KiB (0%)
Title : Korean
Language : Korean
Default : No
Forced : No

Text #18
ID : 20
Format : ASS
Codec ID : S_TEXT/ASS
Duration : 49 min 35 s
Bit rate : 75 b/s
Count of elements : 550
Compression mode : Lossless
Stream size : 27.4 KiB (0%)
Title : Norwegian
Language : Norwegian
Default : No
Forced : No

Text #19
ID : 21
Format : ASS
Codec ID : S_TEXT/ASS
Duration : 49 min 35 s
Bit rate : 75 b/s
Count of elements : 546
Compression mode : Lossless
Stream size : 27.6 KiB (0%)
Title : Dutch
Language : Dutch
Default : No
Forced : No

Text #20
ID : 22
Format : ASS
Codec ID : S_TEXT/ASS
Duration : 49 min 35 s
Bit rate : 82 b/s
Count of elements : 643
Compression mode : Lossless
Stream size : 30.1 KiB (0%)
Title : Polish
Language : Polish
Default : No
Forced : No

Text #21
ID : 23
Format : ASS
Codec ID : S_TEXT/ASS
Duration : 49 min 35 s
Bit rate : 86 b/s
Count of elements : 672
Compression mode : Lossless
Stream size : 31.5 KiB (0%)
Title : Portuguese
Language : Portuguese
Default : No
Forced : No

Text #22
ID : 24
Format : ASS
Codec ID : S_TEXT/ASS
Duration : 49 min 38 s
Bit rate : 82 b/s
Count of elements : 638
Compression mode : Lossless
Stream size : 29.8 KiB (0%)
Title : Brazilian Portuguese
Language : Portuguese
Default : No
Forced : No

Text #23
ID : 25
Format : ASS
Codec ID : S_TEXT/ASS
Duration : 49 min 35 s
Bit rate : 89 b/s
Count of elements : 644
Compression mode : Lossless
Stream size : 32.4 KiB (0%)
Title : Romanian
Language : Romanian
Default : No
Forced : No

Text #24
ID : 26
Format : ASS
Codec ID : S_TEXT/ASS
Duration : 49 min 35 s
Bit rate : 113 b/s
Count of elements : 691
Compression mode : Lossless
Stream size : 41.3 KiB (0%)
Title : Russian
Language : Russian
Default : No
Forced : No

Text #25
ID : 27
Format : ASS
Codec ID : S_TEXT/ASS
Duration : 49 min 35 s
Bit rate : 86 b/s
Count of elements : 676
Compression mode : Lossless
Stream size : 31.5 KiB (0%)
Title : Swedish
Language : Swedish
Default : No
Forced : No

Text #26
ID : 28
Format : ASS
Codec ID : S_TEXT/ASS
Duration : 49 min 35 s
Bit rate : 159 b/s
Count of elements : 677
Compression mode : Lossless
Stream size : 57.8 KiB (0%)
Title : Thai
Language : Thai
Default : No
Forced : No

Text #27
ID : 29
Format : ASS
Codec ID : S_TEXT/ASS
Duration : 49 min 35 s
Bit rate : 81 b/s
Count of elements : 631
Compression mode : Lossless
Stream size : 29.7 KiB (0%)
Title : Turkish
Language : Turkish
Default : No
Forced : No

Text #28
ID : 30
Format : ASS
Codec ID : S_TEXT/ASS
Duration : 49 min 35 s
Bit rate : 98 b/s
Count of elements : 681
Compression mode : Lossless
Stream size : 35.8 KiB (0%)
Title : Vietnamese
Language : Vietnamese
Default : No
Forced : No

Text #29
ID : 31
Format : ASS
Codec ID : S_TEXT/ASS
Duration : 49 min 35 s
Bit rate : 91 b/s
Count of elements : 679
Compression mode : Lossless
Stream size : 33.3 KiB (0%)
Title : Simplified Chinese
Language : Chinese
Default : No
Forced : No

Text #30
ID : 32
Format : ASS
Codec ID : S_TEXT/ASS
Duration : 49 min 48 s
Bit rate : 88 b/s
Count of elements : 683
Compression mode : Lossless
Stream size : 32.4 KiB (0%)
Title : Traditional Chinese
Language : Chinese
Default : No
Forced : No

Download

Direct download files get automatically deleted after a month or so. Posted on : 05/15/2020

[collapse]
Media Info and Download Links | S01E02

General
Format : Matroska
Format version : Version 4
File size : 339 MiB
Duration : 55 min 56 s
Overall bit rate : 848 kb/s
Movie name : White.Lines.S01E02.720p.10bit.WEBRip.6CH.x265.HEVC

Video
ID : 1
Format : HEVC
Format/Info : High Efficiency Video Coding
Format profile : Main [email protected]@Main
Codec ID : V_MPEGH/ISO/HEVC
Duration : 55 min 56 s
Bit rate : 652 kb/s
Width : 1 280 pixels
Height : 720 pixels
Display aspect ratio : 2.105
Frame rate mode : Constant
Frame rate : 25.000 FPS
Color space : YUV
Chroma subsampling : 4:2:0
Bit depth : 10 bits
Bits/(Pixel*Frame) : 0.028
Stream size : 261 MiB (77%)
Default : Yes
Forced : No
Color range : Limited
Color primaries : BT.709
Transfer characteristics : BT.709
Matrix coefficients : BT.709

Audio
ID : 2
Format : AAC LC
Codec ID : A_AAC-2
Duration : 55 min 56 s
Bit rate : 192 kb/s
Channel(s) : 6 channels
Channel layout : C L R Ls Rs LFE
Sampling rate : 48.0 kHz
Frame rate : 46.875 FPS (1024 SPF)
Compression mode : Lossy
Delay relative to video : -21 ms
Stream size : 75.6 MiB (22%)
Title : Surround
Language : English
Default : Yes
Forced : No

Text #1
ID : 3
Format : ASS
Codec ID : S_TEXT/ASS
Duration : 54 min 40 s
Bit rate : 132 b/s
Count of elements : 749
Compression mode : Lossless
Stream size : 53.0 KiB (0%)
Title : Arabic
Language : Arabic
Default : No
Forced : No

Text #2
ID : 4
Format : ASS
Codec ID : S_TEXT/ASS
Duration : 54 min 40 s
Bit rate : 87 b/s
Count of elements : 738
Compression mode : Lossless
Stream size : 35.0 KiB (0%)
Title : Czech
Language : Czech
Default : No
Forced : No

Text #3
ID : 5
Format : ASS
Codec ID : S_TEXT/ASS
Duration : 54 min 40 s
Bit rate : 83 b/s
Count of elements : 650
Compression mode : Lossless
Stream size : 33.4 KiB (0%)
Title : Danish
Language : Danish
Default : No
Forced : No

Text #4
ID : 6
Format : ASS
Codec ID : S_TEXT/ASS
Duration : 54 min 40 s
Bit rate : 89 b/s
Count of elements : 703
Compression mode : Lossless
Stream size : 35.7 KiB (0%)
Title : German
Language : German
Default : No
Forced : No

Text #5
ID : 7
Format : ASS
Codec ID : S_TEXT/ASS
Duration : 53 min 11 s
Bit rate : 134 b/s
Count of elements : 729
Compression mode : Lossless
Stream size : 52.2 KiB (0%)
Title : Greek
Language : Greek
Default : No
Forced : No

Text #6
ID : 8
Format : ASS
Codec ID : S_TEXT/ASS
Duration : 25 min 20 s
Bit rate : 21 b/s
Count of elements : 76
Compression mode : Lossless
Stream size : 4.02 KiB (0%)
Title : English (Forced)
Language : English
Default : No
Forced : No

Text #7
ID : 9
Format : ASS
Codec ID : S_TEXT/ASS
Duration : 54 min 36 s
Bit rate : 124 b/s
Count of elements : 944
Compression mode : Lossless
Stream size : 49.8 KiB (0%)
Title : English (SDH)
Language : English
Default : Yes
Forced : Yes

Text #8
ID : 10
Format : ASS
Codec ID : S_TEXT/ASS
Duration : 54 min 40 s
Bit rate : 80 b/s
Count of elements : 622
Compression mode : Lossless
Stream size : 32.1 KiB (0%)
Title : Spanish
Language : Spanish
Default : No
Forced : No

Text #9
ID : 11
Format : ASS
Codec ID : S_TEXT/ASS
Duration : 54 min 41 s
Bit rate : 111 b/s
Count of elements : 823
Compression mode : Lossless
Stream size : 44.6 KiB (0%)
Title : European Spanish (SDH)
Language : Spanish
Default : No
Forced : No

Text #10
ID : 12
Format : ASS
Codec ID : S_TEXT/ASS
Duration : 54 min 37 s
Bit rate : 85 b/s
Count of elements : 676
Compression mode : Lossless
Stream size : 34.1 KiB (0%)
Title : Finnish
Language : Finnish
Default : No
Forced : No

Text #11
ID : 13
Format : ASS
Codec ID : S_TEXT/ASS
Duration : 54 min 39 s
Bit rate : 91 b/s
Count of elements : 722
Compression mode : Lossless
Stream size : 36.8 KiB (0%)
Title : French
Language : French
Default : No
Forced : No

Text #12
ID : 14
Format : ASS
Codec ID : S_TEXT/ASS
Duration : 54 min 37 s
Bit rate : 123 b/s
Count of elements : 742
Compression mode : Lossless
Stream size : 49.4 KiB (0%)
Title : Hebrew
Default : No
Forced : No

Text #13
ID : 15
Format : ASS
Codec ID : S_TEXT/ASS
Duration : 53 min 19 s
Bit rate : 94 b/s
Count of elements : 721
Compression mode : Lossless
Stream size : 36.7 KiB (0%)
Title : Hungarian
Language : Hungarian
Default : No
Forced : No

Text #14
ID : 16
Format : ASS
Codec ID : S_TEXT/ASS
Duration : 54 min 41 s
Bit rate : 91 b/s
Count of elements : 751
Compression mode : Lossless
Stream size : 36.7 KiB (0%)
Title : Indonesian
Default : No
Forced : No

Text #15
ID : 17
Format : ASS
Codec ID : S_TEXT/ASS
Duration : 54 min 40 s
Bit rate : 89 b/s
Count of elements : 706
Compression mode : Lossless
Stream size : 35.8 KiB (0%)
Title : Italian
Language : Italian
Default : No
Forced : No

Text #16
ID : 18
Format : ASS
Codec ID : S_TEXT/ASS
Duration : 54 min 40 s
Bit rate : 86 b/s
Count of elements : 709
Compression mode : Lossless
Stream size : 34.6 KiB (0%)
Title : Japanese
Language : Japanese
Default : No
Forced : No

Text #17
ID : 19
Format : ASS
Codec ID : S_TEXT/ASS
Duration : 54 min 39 s
Bit rate : 108 b/s
Count of elements : 745
Compression mode : Lossless
Stream size : 43.2 KiB (0%)
Title : Korean
Language : Korean
Default : No
Forced : No

Text #18
ID : 20
Format : ASS
Codec ID : S_TEXT/ASS
Duration : 54 min 40 s
Bit rate : 82 b/s
Count of elements : 650
Compression mode : Lossless
Stream size : 33.2 KiB (0%)
Title : Norwegian
Language : Norwegian
Default : No
Forced : No

Text #19
ID : 21
Format : ASS
Codec ID : S_TEXT/ASS
Duration : 54 min 40 s
Bit rate : 82 b/s
Count of elements : 633
Compression mode : Lossless
Stream size : 33.0 KiB (0%)
Title : Dutch
Language : Dutch
Default : No
Forced : No

Text #20
ID : 22
Format : ASS
Codec ID : S_TEXT/ASS
Duration : 54 min 39 s
Bit rate : 89 b/s
Count of elements : 722
Compression mode : Lossless
Stream size : 35.6 KiB (0%)
Title : Polish
Language : Polish
Default : No
Forced : No

Text #21
ID : 23
Format : ASS
Codec ID : S_TEXT/ASS
Duration : 54 min 40 s
Bit rate : 92 b/s
Count of elements : 745
Compression mode : Lossless
Stream size : 37.1 KiB (0%)
Title : Portuguese
Language : Portuguese
Default : No
Forced : No

Text #22
ID : 24
Format : ASS
Codec ID : S_TEXT/ASS
Duration : 54 min 40 s
Bit rate : 88 b/s
Count of elements : 734
Compression mode : Lossless
Stream size : 35.3 KiB (0%)
Title : Brazilian Portuguese
Language : Portuguese
Default : No
Forced : No

Text #23
ID : 25
Format : ASS
Codec ID : S_TEXT/ASS
Duration : 54 min 40 s
Bit rate : 95 b/s
Count of elements : 731
Compression mode : Lossless
Stream size : 38.2 KiB (0%)
Title : Romanian
Language : Romanian
Default : No
Forced : No

Text #24
ID : 26
Format : ASS
Codec ID : S_TEXT/ASS
Duration : 54 min 39 s
Bit rate : 125 b/s
Count of elements : 783
Compression mode : Lossless
Stream size : 50.2 KiB (0%)
Title : Russian
Language : Russian
Default : No
Forced : No

Text #25
ID : 27
Format : ASS
Codec ID : S_TEXT/ASS
Duration : 54 min 40 s
Bit rate : 93 b/s
Count of elements : 747
Compression mode : Lossless
Stream size : 37.4 KiB (0%)
Title : Swedish
Language : Swedish
Default : No
Forced : No

Text #26
ID : 28
Format : ASS
Codec ID : S_TEXT/ASS
Duration : 54 min 40 s
Bit rate : 166 b/s
Count of elements : 749
Compression mode : Lossless
Stream size : 66.8 KiB (0%)
Title : Thai
Language : Thai
Default : No
Forced : No

Text #27
ID : 29
Format : ASS
Codec ID : S_TEXT/ASS
Duration : 54 min 40 s
Bit rate : 88 b/s
Count of elements : 730
Compression mode : Lossless
Stream size : 35.6 KiB (0%)
Title : Turkish
Language : Turkish
Default : No
Forced : No

Text #28
ID : 30
Format : ASS
Codec ID : S_TEXT/ASS
Duration : 54 min 40 s
Bit rate : 108 b/s
Count of elements : 751
Compression mode : Lossless
Stream size : 43.3 KiB (0%)
Title : Vietnamese
Language : Vietnamese
Default : No
Forced : No

Text #29
ID : 31
Format : ASS
Codec ID : S_TEXT/ASS
Duration : 54 min 38 s
Bit rate : 96 b/s
Count of elements : 750
Compression mode : Lossless
Stream size : 38.5 KiB (0%)
Title : Simplified Chinese
Language : Chinese
Default : No
Forced : No

Text #30
ID : 32
Format : ASS
Codec ID : S_TEXT/ASS
Duration : 54 min 49 s
Bit rate : 93 b/s
Count of elements : 756
Compression mode : Lossless
Stream size : 37.6 KiB (0%)
Title : Traditional Chinese
Language : Chinese
Default : No
Forced : No

Download

Direct download files get automatically deleted after a month or so. Posted on : 05/15/2020

[collapse]
Media Info and Download Links | S01E01

General
Format : Matroska
Format version : Version 4
File size : 340 MiB
Duration : 56 min 0 s
Overall bit rate : 848 kb/s
Movie name : White.Lines.S01E01.720p.10bit.WEBRip.6CH.x265.HEVC

Video
ID : 1
Format : HEVC
Format/Info : High Efficiency Video Coding
Format profile : Main [email protected]@Main
Codec ID : V_MPEGH/ISO/HEVC
Duration : 56 min 0 s
Bit rate : 653 kb/s
Width : 1 280 pixels
Height : 720 pixels
Display aspect ratio : 2.105
Frame rate mode : Constant
Frame rate : 25.000 FPS
Color space : YUV
Chroma subsampling : 4:2:0
Bit depth : 10 bits
Bits/(Pixel*Frame) : 0.028
Stream size : 261 MiB (77%)
Default : Yes
Forced : No
Color range : Limited
Color primaries : BT.709
Transfer characteristics : BT.709
Matrix coefficients : BT.709

Audio
ID : 2
Format : AAC LC
Codec ID : A_AAC-2
Duration : 56 min 0 s
Bit rate : 192 kb/s
Channel(s) : 6 channels
Channel layout : C L R Ls Rs LFE
Sampling rate : 48.0 kHz
Frame rate : 46.875 FPS (1024 SPF)
Compression mode : Lossy
Delay relative to video : -21 ms
Stream size : 75.6 MiB (22%)
Title : Surround
Language : English
Default : Yes
Forced : No

Text #1
ID : 3
Format : ASS
Codec ID : S_TEXT/ASS
Duration : 54 min 46 s
Bit rate : 116 b/s
Count of elements : 694
Compression mode : Lossless
Stream size : 46.6 KiB (0%)
Title : Arabic
Language : Arabic
Default : No
Forced : No

Text #2
ID : 4
Format : ASS
Codec ID : S_TEXT/ASS
Duration : 54 min 46 s
Bit rate : 77 b/s
Count of elements : 685
Compression mode : Lossless
Stream size : 31.0 KiB (0%)
Title : Czech
Language : Czech
Default : No
Forced : No

Text #3
ID : 5
Format : ASS
Codec ID : S_TEXT/ASS
Duration : 54 min 44 s
Bit rate : 72 b/s
Count of elements : 579
Compression mode : Lossless
Stream size : 29.0 KiB (0%)
Title : Danish
Language : Danish
Default : No
Forced : No

Text #4
ID : 6
Format : ASS
Codec ID : S_TEXT/ASS
Duration : 54 min 44 s
Bit rate : 78 b/s
Count of elements : 635
Compression mode : Lossless
Stream size : 31.4 KiB (0%)
Title : German
Language : German
Default : No
Forced : No

Text #5
ID : 7
Format : ASS
Codec ID : S_TEXT/ASS
Duration : 52 min 18 s
Bit rate : 119 b/s
Count of elements : 643
Compression mode : Lossless
Stream size : 45.8 KiB (0%)
Title : Greek
Language : Greek
Default : No
Forced : No

Text #6
ID : 8
Format : ASS
Codec ID : S_TEXT/ASS
Duration : 47 min 46 s
Bit rate : 21 b/s
Count of elements : 158
Compression mode : Lossless
Stream size : 7.68 KiB (0%)
Title : English (Forced)
Language : English
Default : No
Forced : No

Text #7
ID : 9
Format : ASS
Codec ID : S_TEXT/ASS
Duration : 52 min 39 s
Bit rate : 117 b/s
Count of elements : 899
Compression mode : Lossless
Stream size : 45.1 KiB (0%)
Title : English (SDH)
Language : English
Default : Yes
Forced : Yes

Text #8
ID : 10
Format : ASS
Codec ID : S_TEXT/ASS
Duration : 54 min 44 s
Bit rate : 59 b/s
Count of elements : 469
Compression mode : Lossless
Stream size : 23.8 KiB (0%)
Title : Spanish
Language : Spanish
Default : No
Forced : No

Text #9
ID : 11
Format : ASS
Codec ID : S_TEXT/ASS
Duration : 54 min 44 s
Bit rate : 100 b/s
Count of elements : 783
Compression mode : Lossless
Stream size : 40.2 KiB (0%)
Title : European Spanish (SDH)
Language : Spanish
Default : No
Forced : No

Text #10
ID : 12
Format : ASS
Codec ID : S_TEXT/ASS
Duration : 54 min 42 s
Bit rate : 76 b/s
Count of elements : 626
Compression mode : Lossless
Stream size : 30.5 KiB (0%)
Title : Finnish
Language : Finnish
Default : No
Forced : No

Text #11
ID : 13
Format : ASS
Codec ID : S_TEXT/ASS
Duration : 54 min 44 s
Bit rate : 79 b/s
Count of elements : 655
Compression mode : Lossless
Stream size : 32.1 KiB (0%)
Title : French
Language : French
Default : No
Forced : No

Text #12
ID : 14
Format : ASS
Codec ID : S_TEXT/ASS
Duration : 54 min 44 s
Bit rate : 107 b/s
Count of elements : 681
Compression mode : Lossless
Stream size : 43.2 KiB (0%)
Title : Hebrew
Default : No
Forced : No

Text #13
ID : 15
Format : ASS
Codec ID : S_TEXT/ASS
Duration : 53 min 25 s
Bit rate : 80 b/s
Count of elements : 639
Compression mode : Lossless
Stream size : 31.6 KiB (0%)
Title : Hungarian
Language : Hungarian
Default : No
Forced : No

Text #14
ID : 16
Format : ASS
Codec ID : S_TEXT/ASS
Duration : 54 min 47 s
Bit rate : 80 b/s
Count of elements : 695
Compression mode : Lossless
Stream size : 32.4 KiB (0%)
Title : Indonesian
Default : No
Forced : No

Text #15
ID : 17
Format : ASS
Codec ID : S_TEXT/ASS
Duration : 54 min 46 s
Bit rate : 77 b/s
Count of elements : 633
Compression mode : Lossless
Stream size : 31.1 KiB (0%)
Title : Italian
Language : Italian
Default : No
Forced : No

Text #16
ID : 18
Format : ASS
Codec ID : S_TEXT/ASS
Duration : 54 min 45 s
Bit rate : 77 b/s
Count of elements : 615
Compression mode : Lossless
Stream size : 30.9 KiB (0%)
Title : Japanese
Language : Japanese
Default : No
Forced : No

Text #17
ID : 19
Format : ASS
Codec ID : S_TEXT/ASS
Duration : 54 min 44 s
Bit rate : 93 b/s
Count of elements : 697
Compression mode : Lossless
Stream size : 37.7 KiB (0%)
Title : Korean
Language : Korean
Default : No
Forced : No

Text #18
ID : 20
Format : ASS
Codec ID : S_TEXT/ASS
Duration : 54 min 44 s
Bit rate : 72 b/s
Count of elements : 603
Compression mode : Lossless
Stream size : 29.1 KiB (0%)
Title : Norwegian
Language : Norwegian
Default : No
Forced : No

Text #19
ID : 21
Format : ASS
Codec ID : S_TEXT/ASS
Duration : 54 min 44 s
Bit rate : 71 b/s
Count of elements : 560
Compression mode : Lossless
Stream size : 28.7 KiB (0%)
Title : Dutch
Language : Dutch
Default : No
Forced : No

Text #20
ID : 22
Format : ASS
Codec ID : S_TEXT/ASS
Duration : 54 min 44 s
Bit rate : 77 b/s
Count of elements : 654
Compression mode : Lossless
Stream size : 30.9 KiB (0%)
Title : Polish
Language : Polish
Default : No
Forced : No

Text #21
ID : 23
Format : ASS
Codec ID : S_TEXT/ASS
Duration : 54 min 44 s
Bit rate : 80 b/s
Count of elements : 677
Compression mode : Lossless
Stream size : 32.2 KiB (0%)
Title : Portuguese
Language : Portuguese
Default : No
Forced : No

Text #22
ID : 24
Format : ASS
Codec ID : S_TEXT/ASS
Duration : 54 min 46 s
Bit rate : 77 b/s
Count of elements : 667
Compression mode : Lossless
Stream size : 31.2 KiB (0%)
Title : Brazilian Portuguese
Language : Portuguese
Default : No
Forced : No

Text #23
ID : 25
Format : ASS
Codec ID : S_TEXT/ASS
Duration : 54 min 44 s
Bit rate : 83 b/s
Count of elements : 680
Compression mode : Lossless
Stream size : 33.3 KiB (0%)
Title : Romanian
Language : Romanian
Default : No
Forced : No

Text #24
ID : 26
Format : ASS
Codec ID : S_TEXT/ASS
Duration : 54 min 44 s
Bit rate : 108 b/s
Count of elements : 708
Compression mode : Lossless
Stream size : 43.4 KiB (0%)
Title : Russian
Language : Russian
Default : No
Forced : No

Text #25
ID : 27
Format : ASS
Codec ID : S_TEXT/ASS
Duration : 54 min 44 s
Bit rate : 81 b/s
Count of elements : 697
Compression mode : Lossless
Stream size : 32.8 KiB (0%)
Title : Swedish
Language : Swedish
Default : No
Forced : No

Text #26
ID : 28
Format : ASS
Codec ID : S_TEXT/ASS
Duration : 54 min 44 s
Bit rate : 147 b/s
Count of elements : 699
Compression mode : Lossless
Stream size : 59.1 KiB (0%)
Title : Thai
Language : Thai
Default : No
Forced : No

Text #27
ID : 29
Format : ASS
Codec ID : S_TEXT/ASS
Duration : 54 min 44 s
Bit rate : 78 b/s
Count of elements : 673
Compression mode : Lossless
Stream size : 31.3 KiB (0%)
Title : Turkish
Language : Turkish
Default : No
Forced : No

Text #28
ID : 30
Format : ASS
Codec ID : S_TEXT/ASS
Duration : 54 min 44 s
Bit rate : 100 b/s
Count of elements : 698
Compression mode : Lossless
Stream size : 40.3 KiB (0%)
Title : Vietnamese
Language : Vietnamese
Default : No
Forced : No

Text #29
ID : 31
Format : ASS
Codec ID : S_TEXT/ASS
Duration : 54 min 44 s
Bit rate : 85 b/s
Count of elements : 699
Compression mode : Lossless
Stream size : 34.4 KiB (0%)
Title : Simplified Chinese
Language : Chinese
Default : No
Forced : No

Text #30
ID : 32
Format : ASS
Codec ID : S_TEXT/ASS
Duration : 54 min 55 s
Bit rate : 81 b/s
Count of elements : 701
Compression mode : Lossless
Stream size : 33.0 KiB (0%)
Title : Traditional Chinese
Language : Chinese
Default : No
Forced : No

Download

Direct download files get automatically deleted after a month or so. Posted on : 05/15/2020

[collapse]

You may also like...

error: nah :p~