Wild District

Distrito Salvaje (original title)|TV-MA | 45min | Action, Crime, Drama | TV Series (2018– )

Jhon Jeiver, a lethal guerrilla fighter who escapes from the jungle after the signing and referendum of the Colombian Peace Agreements, arrives in Bogotá escaping from his past, and tries to reinsert himself into society.

Watch trailer

Media Info and Download Links | S02 COMPLETE

Average Media Info:
General
Format : Matroska
Format version : Version 4
Overall bit rate : 422 kb/s
Encoded date : UTC 2019-12-30 15:38:52
Writing application : mkvmerge v41.0.0 (‘Smarra’) 32-bit
Writing library : libebml v1.3.9 + libmatroska v1.5.2

Video
ID : 1
Format : HEVC
Format/Info : High Efficiency Video Coding
Format profile : [email protected]@Main
Codec ID : V_MPEGH/ISO/HEVC
Bit rate : 355 kb/s
Width : 1 280 pixels
Height : 720 pixels
Display aspect ratio : 2.2:1
Frame rate mode : Constant
Frame rate : 23.976 (24000/1001) FPS
Color space : YUV
Chroma subsampling : 4:2:0
Bit depth : 8 bits
Bits/(Pixel*Frame) : 0.016
Default : Yes
Forced : No
Color range : Limited
Color primaries : BT.709
Transfer characteristics : BT.709
Matrix coefficients : BT.709

Audio
ID : 2
Format : AAC LC
Codec ID : A_AAC-2
Duration : 50 min 15 s
Bit rate : 64.1 kb/s
Channel(s) : 2 channels
Channel layout : L R
Sampling rate : 48.0 kHz
Frame rate : 46.875 FPS (1024 SPF)
Compression mode : Lossy
Delay relative to video : -21 ms
Stream size : 23.0 MiB (15%)
Title : Stereo
Language : Spanish
Default : Yes
Forced : No

Text #1
ID : 3
Format : ASS
Codec ID : S_TEXT/ASS
Duration : 48 min 3 s
Bit rate : 88 b/s
Count of elements : 568
Compression mode : Lossless
Stream size : 31.2 KiB (0%)
Language : English
Default : Yes
Forced : Yes

Text #2
ID : 4
Format : ASS
Codec ID : S_TEXT/ASS
Duration : 47 min 22 s
Bit rate : 95 b/s
Count of elements : 622
Compression mode : Lossless
Stream size : 33.3 KiB (0%)
Language : English
Default : No
Forced : No

Text #3
ID : 5
Format : ASS
Codec ID : S_TEXT/ASS
Duration : 47 min 23 s
Bit rate : 108 b/s
Count of elements : 619
Compression mode : Lossless
Stream size : 37.5 KiB (0%)
Language : Spanish
Default : No
Forced : No

Text #4
ID : 6
Format : ASS
Codec ID : S_TEXT/ASS
Duration : 48 min 2 s
Bit rate : 87 b/s
Count of elements : 552
Compression mode : Lossless
Stream size : 30.6 KiB (0%)
Language : Portuguese
Default : No
Forced : No

Part01 Part02

Direct download files get automatically deleted after a month or so. Posted on : 12/30/2019

File size : 1.54 GB (1,662,365,696 bytes)

[collapse]
Magnet

Magnet

Wild.District.S02.SPANISH.1080p.NF.WEBRip.DDP5.1.x264-Cinefeel-11.01 GB

[collapse]

Media Info and Download Links | S01 COMPLETE

Average Media Info:
General
Format : Matroska
Format version : Version 4
Overall bit rate : 538 kb/s
Encoded date : UTC 2019-12-28 21:59:49
Writing application : mkvmerge v41.0.0 (‘Smarra’) 32-bit
Writing library : libebml v1.3.9 + libmatroska v1.5.2

Video
ID : 1
Format : HEVC
Format/Info : High Efficiency Video Coding
Format profile : [email protected]@Main
Codec ID : V_MPEGH/ISO/HEVC
Bit rate : 471 kb/s
Width : 1 280 pixels
Height : 720 pixels
Display aspect ratio : 2.2:1
Frame rate mode : Constant
Frame rate : 23.976 (24000/1001) FPS
Color space : YUV
Chroma subsampling : 4:2:0
Bit depth : 8 bits
Bits/(Pixel*Frame) : 0.021
Default : Yes
Forced : No
Color range : Limited
Color primaries : BT.709
Transfer characteristics : BT.709
Matrix coefficients : BT.709

Audio
ID : 2
Format : AAC LC
Codec ID : A_AAC-2
Bit rate : 64.2 kb/s
Channel(s) : 2 channels
Channel layout : L R
Sampling rate : 48.0 kHz
Frame rate : 46.875 FPS (1024 SPF)
Compression mode : Lossy
Delay relative to video : -21 ms
Title : Stereo
Language : Spanish
Default : Yes
Forced : No

Text #1
ID : 3
Format : ASS
Codec ID : S_TEXT/ASS
Bit rate : 88 b/s
Count of elements : 522
Compression mode : Lossless
Language : English
Default : Yes
Forced : Yes

Text #2
ID : 4
Format : ASS
Codec ID : S_TEXT/ASS
Bit rate : 102 b/s
Count of elements : 607
Compression mode : Lossless
Language : Spanish
Default : No
Forced : No

Text #3
ID : 5
Format : ASS
Codec ID : S_TEXT/ASS
Bit rate : 83 b/s
Count of elements : 523
Compression mode : Lossless
Language : Portuguese
Default : No
Forced : No

Part01 Part02

Direct download files get automatically deleted after a month or so. Posted on : 12/29/2019

File size : 1.72 GB (1,855,946,752 bytes)

[collapse]
Magnet

Magnet

Wild.District.S01.SPANISH.1080p.WEBRip.DD5.1.x264-SbR-12.65 GB

[collapse]

You may also like...

error: nah :p~