Wolf

Börü (original title)|1h 20min | Action, Thriller, War | TV Mini-Series (2018)

Turkey in the spring of 2014. A time when the enemies are growing on the border, the circle of danger inside is becoming narrower. The Republic of Turkey faces the greatest threats of recent history. BÖRÜ tells the story of heroic heroes who are touched by love. They are the last castle.

Watch trailer

Media Info and Download Links | S01E06

General
Format : Matroska
Format version : Version 4
File size : 644 MiB
Duration : 1 h 17 min
Overall bit rate : 1 169 kb/s
Movie name : Wolf.S01E06.720p.WEB-DL.2CH.x264.AVC
Encoded date : UTC 2018-12-27 18:50:00
Writing application : mkvmerge v29.0.0 (‘Like It Or Not’) 32-bit
Writing library : libebml v1.3.6 + libmatroska v1.4.9

Video
ID : 2
Format : AVC
Format/Info : Advanced Video Codec
Format profile : [email protected]
Format settings : CABAC / 8 Ref Frames
Format settings, CABAC : Yes
Format settings, RefFrames : 8 frames
Codec ID : V_MPEG4/ISO/AVC
Duration : 1 h 17 min
Bit rate : 1 100 kb/s
Width : 1 280 pixels
Height : 720 pixels
Display aspect ratio : 16:9
Frame rate mode : Constant
Frame rate : 25.000 FPS
Color space : YUV
Chroma subsampling : 4:2:0
Bit depth : 8 bits
Scan type : Progressive
Bits/(Pixel*Frame) : 0.048
Stream size : 606 MiB (94%)
Default : Yes
Forced : No
Color range : Limited
Color primaries : BT.709
Transfer characteristics : BT.709
Matrix coefficients : BT.709

Audio
ID : 1
Format : AAC LC SBR
Commercial name : HE-AAC
Format settings : Explicit
Codec ID : A_AAC-2
Duration : 1 h 17 min
Bit rate : 64.0 kb/s
Channel(s) : 2 channels
Channel layout : L R
Sampling rate : 48.0 kHz
Frame rate : 23.438 FPS (2048 SPF)
Compression mode : Lossy
Delay relative to video : 31 ms
Stream size : 35.3 MiB (5%)
Language : Turkish
Default : Yes
Forced : No

Text #1
ID : 3
Format : UTF-8
Codec ID : S_TEXT/UTF8
Codec ID/Info : UTF-8 Plain Text
Duration : 1 h 14 min
Bit rate : 54 b/s
Count of elements : 794
Stream size : 29.9 KiB (0%)
Title : English [Full]
Language : English
Default : Yes
Forced : No

Text #2
ID : 4
Format : UTF-8
Codec ID : S_TEXT/UTF8
Codec ID/Info : UTF-8 Plain Text
Duration : 1 h 15 min
Bit rate : 48 b/s
Count of elements : 806
Stream size : 27.0 KiB (0%)
Title : Castilian [Full]
Language : Spanish
Default : No
Forced : No

Text #3
ID : 5
Format : UTF-8
Codec ID : S_TEXT/UTF8
Codec ID/Info : UTF-8 Plain Text
Duration : 1 h 15 min
Bit rate : 45 b/s
Count of elements : 782
Stream size : 25.4 KiB (0%)
Title : Spanish [Full]
Language : Spanish
Default : No
Forced : No

Text #4
ID : 6
Format : UTF-8
Codec ID : S_TEXT/UTF8
Codec ID/Info : UTF-8 Plain Text
Duration : 1 h 15 min
Bit rate : 46 b/s
Count of elements : 803
Stream size : 25.8 KiB (0%)
Title : French [Full]
Language : French
Default : No
Forced : No

Text #5
ID : 7
Format : UTF-8
Codec ID : S_TEXT/UTF8
Codec ID/Info : UTF-8 Plain Text
Duration : 1 h 15 min
Bit rate : 52 b/s
Count of elements : 794
Stream size : 29.0 KiB (0%)
Title : German [Full]
Language : German
Default : No
Forced : No

Text #6
ID : 8
Format : UTF-8
Codec ID : S_TEXT/UTF8
Codec ID/Info : UTF-8 Plain Text
Duration : 1 h 15 min
Bit rate : 52 b/s
Count of elements : 809
Stream size : 29.2 KiB (0%)
Title : Italian [Full]
Language : Italian
Default : No
Forced : No

Text #7
ID : 9
Format : UTF-8
Codec ID : S_TEXT/UTF8
Codec ID/Info : UTF-8 Plain Text
Duration : 1 h 15 min
Bit rate : 50 b/s
Count of elements : 804
Stream size : 28.1 KiB (0%)
Title : Portuguese [Full]
Language : Portuguese
Default : No
Forced : No

Text #8
ID : 10
Format : UTF-8
Codec ID : S_TEXT/UTF8
Codec ID/Info : UTF-8 Plain Text
Duration : 1 h 15 min
Bit rate : 50 b/s
Count of elements : 808
Stream size : 28.2 KiB (0%)
Title : Brazilian Portuguese [Full]
Language : Portuguese
Default : No
Forced : No

Text #9
ID : 11
Format : UTF-8
Codec ID : S_TEXT/UTF8
Codec ID/Info : UTF-8 Plain Text
Duration : 1 h 15 min
Bit rate : 41 b/s
Count of elements : 803
Stream size : 22.9 KiB (0%)
Title : Polish [Full]
Language : Polish
Default : No
Forced : No

Text #10
ID : 12
Format : UTF-8
Codec ID : S_TEXT/UTF8
Codec ID/Info : UTF-8 Plain Text
Duration : 1 h 15 min
Bit rate : 59 b/s
Count of elements : 915
Stream size : 33.0 KiB (0%)
Title : Turkish [SDH]
Language : Turkish
Default : No
Forced : No

Text #11
ID : 13
Format : UTF-8
Codec ID : S_TEXT/UTF8
Codec ID/Info : UTF-8 Plain Text
Duration : 1 h 15 min
Bit rate : 47 b/s
Count of elements : 803
Stream size : 26.4 KiB (0%)
Title : Swedish [Full]
Language : Swedish
Default : No
Forced : No

Text #12
ID : 14
Format : UTF-8
Codec ID : S_TEXT/UTF8
Codec ID/Info : UTF-8 Plain Text
Duration : 1 h 15 min
Bit rate : 47 b/s
Count of elements : 803
Stream size : 26.4 KiB (0%)
Title : Danish [Full]
Language : Danish
Default : No
Forced : No

Text #13
ID : 15
Format : UTF-8
Codec ID : S_TEXT/UTF8
Codec ID/Info : UTF-8 Plain Text
Duration : 1 h 15 min
Bit rate : 40 b/s
Count of elements : 780
Stream size : 22.6 KiB (0%)
Title : Finnish [Full]
Language : Finnish
Default : No
Forced : No

Text #14
ID : 16
Format : UTF-8
Codec ID : S_TEXT/UTF8
Codec ID/Info : UTF-8 Plain Text
Duration : 1 h 15 min
Bit rate : 46 b/s
Count of elements : 818
Stream size : 26.0 KiB (0%)
Title : Dutch [Full]
Language : Dutch
Default : No
Forced : No

Text #15
ID : 17
Format : UTF-8
Codec ID : S_TEXT/UTF8
Codec ID/Info : UTF-8 Plain Text
Duration : 1 h 15 min
Bit rate : 48 b/s
Count of elements : 802
Stream size : 27.1 KiB (0%)
Title : Norwegian [Full]
Language : Norwegian
Default : No
Forced : No

Text #16
ID : 18
Format : UTF-8
Codec ID : S_TEXT/UTF8
Codec ID/Info : UTF-8 Plain Text
Duration : 1 h 15 min
Bit rate : 75 b/s
Count of elements : 789
Stream size : 41.7 KiB (0%)
Title : Russian [Full]
Language : Russian
Default : No
Forced : No

Text #17
ID : 19
Format : UTF-8
Codec ID : S_TEXT/UTF8
Codec ID/Info : UTF-8 Plain Text
Duration : 1 h 15 min
Bit rate : 81 b/s
Count of elements : 815
Stream size : 45.2 KiB (0%)
Title : Greek [Full]
Language : Greek
Default : No
Forced : No

Text #18
ID : 20
Format : UTF-8
Codec ID : S_TEXT/UTF8
Codec ID/Info : UTF-8 Plain Text
Duration : 1 h 15 min
Bit rate : 72 b/s
Count of elements : 817
Stream size : 40.5 KiB (0%)
Title : Hebrew [Full]
Language : Hebrew
Default : No
Forced : No

Text #19
ID : 21
Format : UTF-8
Codec ID : S_TEXT/UTF8
Codec ID/Info : UTF-8 Plain Text
Duration : 1 h 15 min
Bit rate : 80 b/s
Count of elements : 803
Stream size : 44.7 KiB (0%)
Title : Arabic [Full]
Language : Arabic
Default : No
Forced : No

Text #20
ID : 22
Format : UTF-8
Codec ID : S_TEXT/UTF8
Codec ID/Info : UTF-8 Plain Text
Duration : 1 h 15 min
Bit rate : 56 b/s
Count of elements : 800
Stream size : 31.2 KiB (0%)
Title : Romanian [Full]
Language : Romanian
Default : No
Forced : No

Text #21
ID : 23
Format : UTF-8
Codec ID : S_TEXT/UTF8
Codec ID/Info : UTF-8 Plain Text
Duration : 1 h 15 min
Bit rate : 48 b/s
Count of elements : 787
Stream size : 26.8 KiB (0%)
Title : Indonesian [Full]
Language : Indonesian
Default : No
Forced : No

Text #22
ID : 24
Format : UTF-8
Codec ID : S_TEXT/UTF8
Codec ID/Info : UTF-8 Plain Text
Duration : 1 h 15 min
Bit rate : 131 b/s
Count of elements : 804
Stream size : 73.2 KiB (0%)
Title : Thai [Full]
Language : Thai
Default : No
Forced : No

Text #23
ID : 25
Format : UTF-8
Codec ID : S_TEXT/UTF8
Codec ID/Info : UTF-8 Plain Text
Duration : 1 h 15 min
Bit rate : 66 b/s
Count of elements : 805
Stream size : 36.7 KiB (0%)
Title : Korean [Full]
Language : Korean
Default : No
Forced : No

Text #24
ID : 26
Format : UTF-8
Codec ID : S_TEXT/UTF8
Codec ID/Info : UTF-8 Plain Text
Duration : 1 h 15 min
Bit rate : 52 b/s
Count of elements : 803
Stream size : 28.9 KiB (0%)
Title : Chinese (Simplified) [Full]
Language : Chinese
Default : No
Forced : No

Text #25
ID : 27
Format : UTF-8
Codec ID : S_TEXT/UTF8
Codec ID/Info : UTF-8 Plain Text
Duration : 1 h 15 min
Bit rate : 53 b/s
Count of elements : 802
Stream size : 29.5 KiB (0%)
Title : Chinese (Traditional) [Full]
Language : Chinese
Default : No
Forced : No

Text #26
ID : 28
Format : UTF-8
Codec ID : S_TEXT/UTF8
Codec ID/Info : UTF-8 Plain Text
Duration : 1 h 15 min
Bit rate : 49 b/s
Count of elements : 887
Stream size : 27.3 KiB (0%)
Title : Japanese [Full]
Language : Japanese
Default : No
Forced : No

Download

Direct download files get automatically deleted after a month or so. Posted on : 12/27/2018

[collapse]
Media Info and Download Links | S01E05

General
Format : Matroska
Format version : Version 4
File size : 598 MiB
Duration : 1 h 11 min
Overall bit rate : 1 169 kb/s
Movie name : Wolf.S01E05.720p.WEB-DL.2CH.x264.AVC
Encoded date : UTC 2018-12-27 18:48:28
Writing application : mkvmerge v29.0.0 (‘Like It Or Not’) 32-bit
Writing library : libebml v1.3.6 + libmatroska v1.4.9

Video
ID : 1
Format : AVC
Format/Info : Advanced Video Codec
Format profile : [email protected]
Format settings : CABAC / 8 Ref Frames
Format settings, CABAC : Yes
Format settings, RefFrames : 8 frames
Codec ID : V_MPEG4/ISO/AVC
Duration : 1 h 11 min
Bit rate : 1 100 kb/s
Width : 1 280 pixels
Height : 720 pixels
Display aspect ratio : 16:9
Frame rate mode : Constant
Frame rate : 25.000 FPS
Color space : YUV
Chroma subsampling : 4:2:0
Bit depth : 8 bits
Scan type : Progressive
Bits/(Pixel*Frame) : 0.048
Stream size : 562 MiB (94%)
Default : Yes
Forced : No
Color range : Limited
Color primaries : BT.709
Transfer characteristics : BT.709
Matrix coefficients : BT.709

Audio
ID : 29
Format : AAC LC SBR
Commercial name : HE-AAC
Format settings : Explicit
Codec ID : A_AAC-2
Duration : 1 h 11 min
Bit rate : 64.0 kb/s
Channel(s) : 2 channels
Channel layout : L R
Sampling rate : 48.0 kHz
Frame rate : 23.438 FPS (2048 SPF)
Compression mode : Lossy
Delay relative to video : 31 ms
Stream size : 32.7 MiB (5%)
Language : Turkish
Default : Yes
Forced : No

Text #1
ID : 2
Format : UTF-8
Codec ID : S_TEXT/UTF8
Codec ID/Info : UTF-8 Plain Text
Duration : 1 h 9 min
Bit rate : 55 b/s
Count of elements : 750
Stream size : 28.3 KiB (0%)
Title : English [Full]
Language : English
Default : Yes
Forced : No

Text #2
ID : 3
Format : UTF-8
Codec ID : S_TEXT/UTF8
Codec ID/Info : UTF-8 Plain Text
Duration : 1 h 10 min
Bit rate : 54 b/s
Count of elements : 848
Stream size : 27.9 KiB (0%)
Title : Castilian [Full]
Language : Spanish
Default : No
Forced : No

Text #3
ID : 4
Format : UTF-8
Codec ID : S_TEXT/UTF8
Codec ID/Info : UTF-8 Plain Text
Duration : 1 h 10 min
Bit rate : 52 b/s
Count of elements : 832
Stream size : 27.2 KiB (0%)
Title : Spanish [Full]
Language : Spanish
Default : No
Forced : No

Text #4
ID : 5
Format : UTF-8
Codec ID : S_TEXT/UTF8
Codec ID/Info : UTF-8 Plain Text
Duration : 1 h 10 min
Bit rate : 52 b/s
Count of elements : 857
Stream size : 26.8 KiB (0%)
Title : French [Full]
Language : French
Default : No
Forced : No

Text #5
ID : 6
Format : UTF-8
Codec ID : S_TEXT/UTF8
Codec ID/Info : UTF-8 Plain Text
Duration : 1 h 10 min
Bit rate : 57 b/s
Count of elements : 857
Stream size : 29.7 KiB (0%)
Title : German [Full]
Language : German
Default : No
Forced : No

Text #6
ID : 7
Format : UTF-8
Codec ID : S_TEXT/UTF8
Codec ID/Info : UTF-8 Plain Text
Duration : 1 h 10 min
Bit rate : 59 b/s
Count of elements : 870
Stream size : 30.5 KiB (0%)
Title : Italian [Full]
Language : Italian
Default : No
Forced : No

Text #7
ID : 8
Format : UTF-8
Codec ID : S_TEXT/UTF8
Codec ID/Info : UTF-8 Plain Text
Duration : 1 h 10 min
Bit rate : 56 b/s
Count of elements : 855
Stream size : 28.9 KiB (0%)
Title : Portuguese [Full]
Language : Portuguese
Default : No
Forced : No

Text #8
ID : 9
Format : UTF-8
Codec ID : S_TEXT/UTF8
Codec ID/Info : UTF-8 Plain Text
Duration : 1 h 10 min
Bit rate : 56 b/s
Count of elements : 857
Stream size : 29.0 KiB (0%)
Title : Brazilian Portuguese [Full]
Language : Portuguese
Default : No
Forced : No

Text #9
ID : 10
Format : UTF-8
Codec ID : S_TEXT/UTF8
Codec ID/Info : UTF-8 Plain Text
Duration : 1 h 10 min
Bit rate : 47 b/s
Count of elements : 857
Stream size : 24.3 KiB (0%)
Title : Polish [Full]
Language : Polish
Default : No
Forced : No

Text #10
ID : 11
Format : UTF-8
Codec ID : S_TEXT/UTF8
Codec ID/Info : UTF-8 Plain Text
Duration : 46 min 28 s
Bit rate : 6 b/s
Count of elements : 67
Stream size : 2.22 KiB (0%)
Title : Turkish [Forced]
Language : Turkish
Default : No
Forced : Yes

Text #11
ID : 12
Format : UTF-8
Codec ID : S_TEXT/UTF8
Codec ID/Info : UTF-8 Plain Text
Duration : 1 h 8 min
Bit rate : 66 b/s
Count of elements : 959
Stream size : 33.4 KiB (0%)
Title : Turkish [SDH]
Language : Turkish
Default : No
Forced : No

Text #12
ID : 13
Format : UTF-8
Codec ID : S_TEXT/UTF8
Codec ID/Info : UTF-8 Plain Text
Duration : 1 h 10 min
Bit rate : 53 b/s
Count of elements : 856
Stream size : 27.6 KiB (0%)
Title : Swedish [Full]
Language : Swedish
Default : No
Forced : No

Text #13
ID : 14
Format : UTF-8
Codec ID : S_TEXT/UTF8
Codec ID/Info : UTF-8 Plain Text
Duration : 1 h 10 min
Bit rate : 53 b/s
Count of elements : 856
Stream size : 27.4 KiB (0%)
Title : Danish [Full]
Language : Danish
Default : No
Forced : No

Text #14
ID : 15
Format : UTF-8
Codec ID : S_TEXT/UTF8
Codec ID/Info : UTF-8 Plain Text
Duration : 1 h 10 min
Bit rate : 46 b/s
Count of elements : 845
Stream size : 24.2 KiB (0%)
Title : Finnish [Full]
Language : Finnish
Default : No
Forced : No

Text #15
ID : 16
Format : UTF-8
Codec ID : S_TEXT/UTF8
Codec ID/Info : UTF-8 Plain Text
Duration : 1 h 10 min
Bit rate : 53 b/s
Count of elements : 862
Stream size : 27.4 KiB (0%)
Title : Dutch [Full]
Language : Dutch
Default : No
Forced : No

Text #16
ID : 17
Format : UTF-8
Codec ID : S_TEXT/UTF8
Codec ID/Info : UTF-8 Plain Text
Duration : 1 h 10 min
Bit rate : 55 b/s
Count of elements : 860
Stream size : 28.7 KiB (0%)
Title : Norwegian [Full]
Language : Norwegian
Default : No
Forced : No

Text #17
ID : 18
Format : UTF-8
Codec ID : S_TEXT/UTF8
Codec ID/Info : UTF-8 Plain Text
Duration : 1 h 10 min
Bit rate : 86 b/s
Count of elements : 841
Stream size : 44.8 KiB (0%)
Title : Russian [Full]
Language : Russian
Default : No
Forced : No

Text #18
ID : 19
Format : UTF-8
Codec ID : S_TEXT/UTF8
Codec ID/Info : UTF-8 Plain Text
Duration : 1 h 10 min
Bit rate : 91 b/s
Count of elements : 857
Stream size : 47.0 KiB (0%)
Title : Greek [Full]
Language : Greek
Default : No
Forced : No

Text #19
ID : 20
Format : UTF-8
Codec ID : S_TEXT/UTF8
Codec ID/Info : UTF-8 Plain Text
Duration : 1 h 10 min
Bit rate : 81 b/s
Count of elements : 863
Stream size : 42.3 KiB (0%)
Title : Hebrew [Full]
Language : Hebrew
Default : No
Forced : No

Text #20
ID : 21
Format : UTF-8
Codec ID : S_TEXT/UTF8
Codec ID/Info : UTF-8 Plain Text
Duration : 1 h 10 min
Bit rate : 89 b/s
Count of elements : 855
Stream size : 46.0 KiB (0%)
Title : Arabic [Full]
Language : Arabic
Default : No
Forced : No

Text #21
ID : 22
Format : UTF-8
Codec ID : S_TEXT/UTF8
Codec ID/Info : UTF-8 Plain Text
Duration : 1 h 10 min
Bit rate : 64 b/s
Count of elements : 852
Stream size : 33.1 KiB (0%)
Title : Romanian [Full]
Language : Romanian
Default : No
Forced : No

Text #22
ID : 23
Format : UTF-8
Codec ID : S_TEXT/UTF8
Codec ID/Info : UTF-8 Plain Text
Duration : 1 h 10 min
Bit rate : 55 b/s
Count of elements : 847
Stream size : 28.7 KiB (0%)
Title : Indonesian [Full]
Language : Indonesian
Default : No
Forced : No

Text #23
ID : 24
Format : UTF-8
Codec ID : S_TEXT/UTF8
Codec ID/Info : UTF-8 Plain Text
Duration : 1 h 10 min
Bit rate : 149 b/s
Count of elements : 854
Stream size : 77.0 KiB (0%)
Title : Thai [Full]
Language : Thai
Default : No
Forced : No

Text #24
ID : 25
Format : UTF-8
Codec ID : S_TEXT/UTF8
Codec ID/Info : UTF-8 Plain Text
Duration : 1 h 10 min
Bit rate : 72 b/s
Count of elements : 863
Stream size : 37.3 KiB (0%)
Title : Korean [Full]
Language : Korean
Default : No
Forced : No

Text #25
ID : 26
Format : UTF-8
Codec ID : S_TEXT/UTF8
Codec ID/Info : UTF-8 Plain Text
Duration : 1 h 10 min
Bit rate : 58 b/s
Count of elements : 857
Stream size : 30.1 KiB (0%)
Title : Chinese (Simplified) [Full]
Language : Chinese
Default : No
Forced : No

Text #26
ID : 27
Format : UTF-8
Codec ID : S_TEXT/UTF8
Codec ID/Info : UTF-8 Plain Text
Duration : 1 h 10 min
Bit rate : 59 b/s
Count of elements : 863
Stream size : 30.7 KiB (0%)
Title : Chinese (Traditional) [Full]
Language : Chinese
Default : No
Forced : No

Text #27
ID : 28
Format : UTF-8
Codec ID : S_TEXT/UTF8
Codec ID/Info : UTF-8 Plain Text
Duration : 1 h 10 min
Bit rate : 54 b/s
Count of elements : 861
Stream size : 28.1 KiB (0%)
Title : Japanese [Full]
Language : Japanese
Default : No
Forced : No

Download

Direct download files get automatically deleted after a month or so. Posted on : 12/27/2018

[collapse]
Media Info and Download Links | S01E04

General
Format : Matroska
Format version : Version 4
File size : 611 MiB
Duration : 1 h 13 min
Overall bit rate : 1 169 kb/s
Movie name : Wolf.S01E04.720p.WEB-DL.2CH.x264.AVC
Encoded date : UTC 2018-12-27 18:46:56
Writing application : mkvmerge v29.0.0 (‘Like It Or Not’) 32-bit
Writing library : libebml v1.3.6 + libmatroska v1.4.9

Video
ID : 1
Format : AVC
Format/Info : Advanced Video Codec
Format profile : [email protected]
Format settings : CABAC / 8 Ref Frames
Format settings, CABAC : Yes
Format settings, RefFrames : 8 frames
Codec ID : V_MPEG4/ISO/AVC
Duration : 1 h 13 min
Bit rate : 1 100 kb/s
Width : 1 280 pixels
Height : 720 pixels
Display aspect ratio : 16:9
Frame rate mode : Constant
Frame rate : 25.000 FPS
Color space : YUV
Chroma subsampling : 4:2:0
Bit depth : 8 bits
Scan type : Progressive
Bits/(Pixel*Frame) : 0.048
Stream size : 575 MiB (94%)
Default : Yes
Forced : No
Color range : Limited
Color primaries : BT.709
Transfer characteristics : BT.709
Matrix coefficients : BT.709

Audio
ID : 28
Format : AAC LC SBR
Commercial name : HE-AAC
Format settings : Explicit
Codec ID : A_AAC-2
Duration : 1 h 13 min
Bit rate : 64.0 kb/s
Channel(s) : 2 channels
Channel layout : L R
Sampling rate : 48.0 kHz
Frame rate : 23.438 FPS (2048 SPF)
Compression mode : Lossy
Delay relative to video : 31 ms
Stream size : 33.5 MiB (5%)
Language : Turkish
Default : Yes
Forced : No

Text #1
ID : 2
Format : UTF-8
Codec ID : S_TEXT/UTF8
Codec ID/Info : UTF-8 Plain Text
Duration : 1 h 10 min
Bit rate : 69 b/s
Count of elements : 928
Stream size : 36.1 KiB (0%)
Title : English [Full]
Language : English
Default : Yes
Forced : No

Text #2
ID : 3
Format : UTF-8
Codec ID : S_TEXT/UTF8
Codec ID/Info : UTF-8 Plain Text
Duration : 1 h 12 min
Bit rate : 56 b/s
Count of elements : 878
Stream size : 29.8 KiB (0%)
Title : Castilian [Full]
Language : Spanish
Default : No
Forced : No

Text #3
ID : 4
Format : UTF-8
Codec ID : S_TEXT/UTF8
Codec ID/Info : UTF-8 Plain Text
Duration : 1 h 12 min
Bit rate : 54 b/s
Count of elements : 868
Stream size : 28.7 KiB (0%)
Title : Spanish [Full]
Language : Spanish
Default : No
Forced : No

Text #4
ID : 5
Format : UTF-8
Codec ID : S_TEXT/UTF8
Codec ID/Info : UTF-8 Plain Text
Duration : 1 h 12 min
Bit rate : 53 b/s
Count of elements : 894
Stream size : 28.4 KiB (0%)
Title : French [Full]
Language : French
Default : No
Forced : No

Text #5
ID : 6
Format : UTF-8
Codec ID : S_TEXT/UTF8
Codec ID/Info : UTF-8 Plain Text
Duration : 1 h 12 min
Bit rate : 55 b/s
Count of elements : 889
Stream size : 29.5 KiB (0%)
Title : German [Full]
Language : German
Default : No
Forced : No

Text #6
ID : 7
Format : UTF-8
Codec ID : S_TEXT/UTF8
Codec ID/Info : UTF-8 Plain Text
Duration : 1 h 12 min
Bit rate : 64 b/s
Count of elements : 915
Stream size : 33.8 KiB (0%)
Title : Italian [Full]
Language : Italian
Default : No
Forced : No

Text #7
ID : 8
Format : UTF-8
Codec ID : S_TEXT/UTF8
Codec ID/Info : UTF-8 Plain Text
Duration : 1 h 12 min
Bit rate : 60 b/s
Count of elements : 890
Stream size : 31.9 KiB (0%)
Title : Portuguese [Full]
Language : Portuguese
Default : No
Forced : No

Text #8
ID : 9
Format : UTF-8
Codec ID : S_TEXT/UTF8
Codec ID/Info : UTF-8 Plain Text
Duration : 1 h 12 min
Bit rate : 60 b/s
Count of elements : 898
Stream size : 31.9 KiB (0%)
Title : Brazilian Portuguese [Full]
Language : Portuguese
Default : No
Forced : No

Text #9
ID : 10
Format : UTF-8
Codec ID : S_TEXT/UTF8
Codec ID/Info : UTF-8 Plain Text
Duration : 1 h 12 min
Bit rate : 49 b/s
Count of elements : 888
Stream size : 26.2 KiB (0%)
Title : Polish [Full]
Language : Polish
Default : No
Forced : No

Text #10
ID : 11
Format : UTF-8
Codec ID : S_TEXT/UTF8
Codec ID/Info : UTF-8 Plain Text
Duration : 1 h 10 min
Bit rate : 78 b/s
Count of elements : 1074
Stream size : 40.5 KiB (0%)
Title : Turkish [SDH]
Language : Turkish
Default : No
Forced : No

Text #11
ID : 12
Format : UTF-8
Codec ID : S_TEXT/UTF8
Codec ID/Info : UTF-8 Plain Text
Duration : 1 h 12 min
Bit rate : 56 b/s
Count of elements : 891
Stream size : 29.6 KiB (0%)
Title : Swedish [Full]
Language : Swedish
Default : No
Forced : No

Text #12
ID : 13
Format : UTF-8
Codec ID : S_TEXT/UTF8
Codec ID/Info : UTF-8 Plain Text
Duration : 1 h 12 min
Bit rate : 59 b/s
Count of elements : 893
Stream size : 31.4 KiB (0%)
Title : Danish [Full]
Language : Danish
Default : No
Forced : No

Text #13
ID : 14
Format : UTF-8
Codec ID : S_TEXT/UTF8
Codec ID/Info : UTF-8 Plain Text
Duration : 1 h 12 min
Bit rate : 48 b/s
Count of elements : 869
Stream size : 25.9 KiB (0%)
Title : Finnish [Full]
Language : Finnish
Default : No
Forced : No

Text #14
ID : 15
Format : UTF-8
Codec ID : S_TEXT/UTF8
Codec ID/Info : UTF-8 Plain Text
Duration : 1 h 12 min
Bit rate : 55 b/s
Count of elements : 891
Stream size : 29.5 KiB (0%)
Title : Dutch [Full]
Language : Dutch
Default : No
Forced : No

Text #15
ID : 16
Format : UTF-8
Codec ID : S_TEXT/UTF8
Codec ID/Info : UTF-8 Plain Text
Duration : 1 h 12 min
Bit rate : 58 b/s
Count of elements : 890
Stream size : 30.7 KiB (0%)
Title : Norwegian [Full]
Language : Norwegian
Default : No
Forced : No

Text #16
ID : 17
Format : UTF-8
Codec ID : S_TEXT/UTF8
Codec ID/Info : UTF-8 Plain Text
Duration : 1 h 12 min
Bit rate : 91 b/s
Count of elements : 882
Stream size : 48.2 KiB (0%)
Title : Russian [Full]
Language : Russian
Default : No
Forced : No

Text #17
ID : 18
Format : UTF-8
Codec ID : S_TEXT/UTF8
Codec ID/Info : UTF-8 Plain Text
Duration : 1 h 12 min
Bit rate : 95 b/s
Count of elements : 894
Stream size : 50.4 KiB (0%)
Title : Greek [Full]
Language : Greek
Default : No
Forced : No

Text #18
ID : 19
Format : UTF-8
Codec ID : S_TEXT/UTF8
Codec ID/Info : UTF-8 Plain Text
Duration : 1 h 12 min
Bit rate : 85 b/s
Count of elements : 885
Stream size : 45.3 KiB (0%)
Title : Hebrew [Full]
Language : Hebrew
Default : No
Forced : No

Text #19
ID : 20
Format : UTF-8
Codec ID : S_TEXT/UTF8
Codec ID/Info : UTF-8 Plain Text
Duration : 1 h 12 min
Bit rate : 93 b/s
Count of elements : 894
Stream size : 49.1 KiB (0%)
Title : Arabic [Full]
Language : Arabic
Default : No
Forced : No

Text #20
ID : 21
Format : UTF-8
Codec ID : S_TEXT/UTF8
Codec ID/Info : UTF-8 Plain Text
Duration : 1 h 12 min
Bit rate : 68 b/s
Count of elements : 876
Stream size : 36.0 KiB (0%)
Title : Romanian [Full]
Language : Romanian
Default : No
Forced : No

Text #21
ID : 22
Format : UTF-8
Codec ID : S_TEXT/UTF8
Codec ID/Info : UTF-8 Plain Text
Duration : 1 h 12 min
Bit rate : 57 b/s
Count of elements : 879
Stream size : 30.1 KiB (0%)
Title : Indonesian [Full]
Language : Indonesian
Default : No
Forced : No

Text #22
ID : 23
Format : UTF-8
Codec ID : S_TEXT/UTF8
Codec ID/Info : UTF-8 Plain Text
Duration : 1 h 12 min
Bit rate : 159 b/s
Count of elements : 892
Stream size : 84.4 KiB (0%)
Title : Thai [Full]
Language : Thai
Default : No
Forced : No

Text #23
ID : 24
Format : UTF-8
Codec ID : S_TEXT/UTF8
Codec ID/Info : UTF-8 Plain Text
Duration : 1 h 11 min
Bit rate : 76 b/s
Count of elements : 896
Stream size : 40.3 KiB (0%)
Title : Korean [Full]
Language : Korean
Default : No
Forced : No

Text #24
ID : 25
Format : UTF-8
Codec ID : S_TEXT/UTF8
Codec ID/Info : UTF-8 Plain Text
Duration : 1 h 12 min
Bit rate : 61 b/s
Count of elements : 894
Stream size : 32.5 KiB (0%)
Title : Chinese (Simplified) [Full]
Language : Chinese
Default : No
Forced : No

Text #25
ID : 26
Format : UTF-8
Codec ID : S_TEXT/UTF8
Codec ID/Info : UTF-8 Plain Text
Duration : 1 h 12 min
Bit rate : 63 b/s
Count of elements : 893
Stream size : 33.3 KiB (0%)
Title : Chinese (Traditional) [Full]
Language : Chinese
Default : No
Forced : No

Text #26
ID : 27
Format : UTF-8
Codec ID : S_TEXT/UTF8
Codec ID/Info : UTF-8 Plain Text
Duration : 1 h 12 min
Bit rate : 54 b/s
Count of elements : 866
Stream size : 28.6 KiB (0%)
Title : Japanese [Full]
Language : Japanese
Default : No
Forced : No

Download

Direct download files get automatically deleted after a month or so. Posted on : 12/27/2018

[collapse]
Media Info and Download Links | S01E03

General
Format : Matroska
Format version : Version 4
File size : 626 MiB
Duration : 1 h 14 min
Overall bit rate : 1 169 kb/s
Movie name : Wolf.S01E03.720p.WEB-DL.2CH.x264.AVC
Encoded date : UTC 2018-12-27 18:45:28
Writing application : mkvmerge v29.0.0 (‘Like It Or Not’) 32-bit
Writing library : libebml v1.3.6 + libmatroska v1.4.9

Video
ID : 1
Format : AVC
Format/Info : Advanced Video Codec
Format profile : [email protected]
Format settings : CABAC / 8 Ref Frames
Format settings, CABAC : Yes
Format settings, RefFrames : 8 frames
Codec ID : V_MPEG4/ISO/AVC
Duration : 1 h 14 min
Bit rate : 1 100 kb/s
Width : 1 280 pixels
Height : 720 pixels
Display aspect ratio : 16:9
Frame rate mode : Constant
Frame rate : 25.000 FPS
Color space : YUV
Chroma subsampling : 4:2:0
Bit depth : 8 bits
Scan type : Progressive
Bits/(Pixel*Frame) : 0.048
Stream size : 589 MiB (94%)
Default : Yes
Forced : No
Color range : Limited
Color primaries : BT.709
Transfer characteristics : BT.709
Matrix coefficients : BT.709

Audio
ID : 28
Format : AAC LC SBR
Commercial name : HE-AAC
Format settings : Explicit
Codec ID : A_AAC-2
Duration : 1 h 14 min
Bit rate : 64.0 kb/s
Channel(s) : 2 channels
Channel layout : L R
Sampling rate : 48.0 kHz
Frame rate : 23.438 FPS (2048 SPF)
Compression mode : Lossy
Delay relative to video : 31 ms
Stream size : 34.3 MiB (5%)
Language : Turkish
Default : Yes
Forced : No

Text #1
ID : 2
Format : UTF-8
Codec ID : S_TEXT/UTF8
Codec ID/Info : UTF-8 Plain Text
Duration : 1 h 13 min
Bit rate : 63 b/s
Count of elements : 921
Stream size : 34.0 KiB (0%)
Title : English [Full]
Language : English
Default : Yes
Forced : No

Text #2
ID : 3
Format : UTF-8
Codec ID : S_TEXT/UTF8
Codec ID/Info : UTF-8 Plain Text
Duration : 1 h 13 min
Bit rate : 55 b/s
Count of elements : 878
Stream size : 29.8 KiB (0%)
Title : Castilian [Full]
Language : Spanish
Default : No
Forced : No

Text #3
ID : 4
Format : UTF-8
Codec ID : S_TEXT/UTF8
Codec ID/Info : UTF-8 Plain Text
Duration : 1 h 13 min
Bit rate : 52 b/s
Count of elements : 868
Stream size : 28.7 KiB (0%)
Title : Spanish [Full]
Language : Spanish
Default : No
Forced : No

Text #4
ID : 5
Format : UTF-8
Codec ID : S_TEXT/UTF8
Codec ID/Info : UTF-8 Plain Text
Duration : 1 h 13 min
Bit rate : 52 b/s
Count of elements : 888
Stream size : 28.4 KiB (0%)
Title : French [Full]
Language : French
Default : No
Forced : No

Text #5
ID : 6
Format : UTF-8
Codec ID : S_TEXT/UTF8
Codec ID/Info : UTF-8 Plain Text
Duration : 1 h 13 min
Bit rate : 53 b/s
Count of elements : 886
Stream size : 29.0 KiB (0%)
Title : German [Full]
Language : German
Default : No
Forced : No

Text #6
ID : 7
Format : UTF-8
Codec ID : S_TEXT/UTF8
Codec ID/Info : UTF-8 Plain Text
Duration : 1 h 13 min
Bit rate : 61 b/s
Count of elements : 914
Stream size : 33.2 KiB (0%)
Title : Italian [Full]
Language : Italian
Default : No
Forced : No

Text #7
ID : 8
Format : UTF-8
Codec ID : S_TEXT/UTF8
Codec ID/Info : UTF-8 Plain Text
Duration : 1 h 13 min
Bit rate : 57 b/s
Count of elements : 886
Stream size : 31.4 KiB (0%)
Title : Portuguese [Full]
Language : Portuguese
Default : No
Forced : No

Text #8
ID : 9
Format : UTF-8
Codec ID : S_TEXT/UTF8
Codec ID/Info : UTF-8 Plain Text
Duration : 1 h 13 min
Bit rate : 58 b/s
Count of elements : 888
Stream size : 31.9 KiB (0%)
Title : Brazilian Portuguese [Full]
Language : Portuguese
Default : No
Forced : No

Text #9
ID : 10
Format : UTF-8
Codec ID : S_TEXT/UTF8
Codec ID/Info : UTF-8 Plain Text
Duration : 1 h 13 min
Bit rate : 49 b/s
Count of elements : 887
Stream size : 26.7 KiB (0%)
Title : Polish [Full]
Language : Polish
Default : No
Forced : No

Text #10
ID : 11
Format : UTF-8
Codec ID : S_TEXT/UTF8
Codec ID/Info : UTF-8 Plain Text
Duration : 1 h 13 min
Bit rate : 72 b/s
Count of elements : 1074
Stream size : 38.8 KiB (0%)
Title : Turkish [SDH]
Language : Turkish
Default : No
Forced : No

Text #11
ID : 12
Format : UTF-8
Codec ID : S_TEXT/UTF8
Codec ID/Info : UTF-8 Plain Text
Duration : 1 h 13 min
Bit rate : 53 b/s
Count of elements : 887
Stream size : 29.2 KiB (0%)
Title : Swedish [Full]
Language : Swedish
Default : No
Forced : No

Text #12
ID : 13
Format : UTF-8
Codec ID : S_TEXT/UTF8
Codec ID/Info : UTF-8 Plain Text
Duration : 1 h 13 min
Bit rate : 54 b/s
Count of elements : 888
Stream size : 29.8 KiB (0%)
Title : Danish [Full]
Language : Danish
Default : No
Forced : No

Text #13
ID : 14
Format : UTF-8
Codec ID : S_TEXT/UTF8
Codec ID/Info : UTF-8 Plain Text
Duration : 1 h 13 min
Bit rate : 48 b/s
Count of elements : 877
Stream size : 26.3 KiB (0%)
Title : Finnish [Full]
Language : Finnish
Default : No
Forced : No

Text #14
ID : 15
Format : UTF-8
Codec ID : S_TEXT/UTF8
Codec ID/Info : UTF-8 Plain Text
Duration : 1 h 12 min
Bit rate : 50 b/s
Count of elements : 811
Stream size : 27.0 KiB (0%)
Title : Dutch [Full]
Language : Dutch
Default : No
Forced : No

Text #15
ID : 16
Format : UTF-8
Codec ID : S_TEXT/UTF8
Codec ID/Info : UTF-8 Plain Text
Duration : 1 h 13 min
Bit rate : 56 b/s
Count of elements : 886
Stream size : 30.6 KiB (0%)
Title : Norwegian [Full]
Language : Norwegian
Default : No
Forced : No

Text #16
ID : 17
Format : UTF-8
Codec ID : S_TEXT/UTF8
Codec ID/Info : UTF-8 Plain Text
Duration : 1 h 13 min
Bit rate : 89 b/s
Count of elements : 875
Stream size : 48.4 KiB (0%)
Title : Russian [Full]
Language : Russian
Default : No
Forced : No

Text #17
ID : 18
Format : UTF-8
Codec ID : S_TEXT/UTF8
Codec ID/Info : UTF-8 Plain Text
Duration : 1 h 13 min
Bit rate : 94 b/s
Count of elements : 888
Stream size : 51.3 KiB (0%)
Title : Greek [Full]
Language : Greek
Default : No
Forced : No

Text #18
ID : 19
Format : UTF-8
Codec ID : S_TEXT/UTF8
Codec ID/Info : UTF-8 Plain Text
Duration : 1 h 13 min
Bit rate : 84 b/s
Count of elements : 888
Stream size : 45.9 KiB (0%)
Title : Hebrew [Full]
Language : Hebrew
Default : No
Forced : No

Text #19
ID : 20
Format : UTF-8
Codec ID : S_TEXT/UTF8
Codec ID/Info : UTF-8 Plain Text
Duration : 1 h 13 min
Bit rate : 96 b/s
Count of elements : 888
Stream size : 52.2 KiB (0%)
Title : Arabic [Full]
Language : Arabic
Default : No
Forced : No

Text #20
ID : 21
Format : UTF-8
Codec ID : S_TEXT/UTF8
Codec ID/Info : UTF-8 Plain Text
Duration : 1 h 13 min
Bit rate : 65 b/s
Count of elements : 885
Stream size : 35.7 KiB (0%)
Title : Romanian [Full]
Language : Romanian
Default : No
Forced : No

Text #21
ID : 22
Format : UTF-8
Codec ID : S_TEXT/UTF8
Codec ID/Info : UTF-8 Plain Text
Duration : 1 h 13 min
Bit rate : 55 b/s
Count of elements : 880
Stream size : 30.0 KiB (0%)
Title : Indonesian [Full]
Language : Indonesian
Default : No
Forced : No

Text #22
ID : 23
Format : UTF-8
Codec ID : S_TEXT/UTF8
Codec ID/Info : UTF-8 Plain Text
Duration : 1 h 13 min
Bit rate : 171 b/s
Count of elements : 888
Stream size : 92.7 KiB (0%)
Title : Thai [Full]
Language : Thai
Default : No
Forced : No

Text #23
ID : 24
Format : UTF-8
Codec ID : S_TEXT/UTF8
Codec ID/Info : UTF-8 Plain Text
Duration : 1 h 13 min
Bit rate : 69 b/s
Count of elements : 888
Stream size : 37.7 KiB (0%)
Title : Korean [Full]
Language : Korean
Default : No
Forced : No

Text #24
ID : 25
Format : UTF-8
Codec ID : S_TEXT/UTF8
Codec ID/Info : UTF-8 Plain Text
Duration : 1 h 13 min
Bit rate : 60 b/s
Count of elements : 888
Stream size : 33.0 KiB (0%)
Title : Chinese (Simplified) [Full]
Language : Chinese
Default : No
Forced : No

Text #25
ID : 26
Format : UTF-8
Codec ID : S_TEXT/UTF8
Codec ID/Info : UTF-8 Plain Text
Duration : 1 h 13 min
Bit rate : 62 b/s
Count of elements : 887
Stream size : 33.7 KiB (0%)
Title : Chinese (Traditional) [Full]
Language : Chinese
Default : No
Forced : No

Text #26
ID : 27
Format : UTF-8
Codec ID : S_TEXT/UTF8
Codec ID/Info : UTF-8 Plain Text
Duration : 1 h 13 min
Bit rate : 52 b/s
Count of elements : 917
Stream size : 28.3 KiB (0%)
Title : Japanese [Full]
Language : Japanese
Default : No
Forced : No

Download

Direct download files get automatically deleted after a month or so. Posted on : 12/27/2018

[collapse]
Media Info and Download Links | S01E02

General
Format : Matroska
Format version : Version 4
File size : 630 MiB
Duration : 1 h 15 min
Overall bit rate : 1 169 kb/s
Movie name : Wolf.S01E02.720p.WEB-DL.2CH.x264.AVC
Encoded date : UTC 2018-12-27 18:44:09
Writing application : mkvmerge v29.0.0 (‘Like It Or Not’) 32-bit
Writing library : libebml v1.3.6 + libmatroska v1.4.9

Video
ID : 2
Format : AVC
Format/Info : Advanced Video Codec
Format profile : [email protected]
Format settings : CABAC / 8 Ref Frames
Format settings, CABAC : Yes
Format settings, RefFrames : 8 frames
Codec ID : V_MPEG4/ISO/AVC
Duration : 1 h 15 min
Bit rate : 1 100 kb/s
Width : 1 280 pixels
Height : 720 pixels
Display aspect ratio : 16:9
Frame rate mode : Constant
Frame rate : 25.000 FPS
Color space : YUV
Chroma subsampling : 4:2:0
Bit depth : 8 bits
Scan type : Progressive
Bits/(Pixel*Frame) : 0.048
Stream size : 593 MiB (94%)
Default : Yes
Forced : No
Color range : Limited
Color primaries : BT.709
Transfer characteristics : BT.709
Matrix coefficients : BT.709

Audio
ID : 1
Format : AAC LC SBR
Commercial name : HE-AAC
Format settings : Explicit
Codec ID : A_AAC-2
Duration : 1 h 15 min
Bit rate : 64.0 kb/s
Channel(s) : 2 channels
Channel layout : L R
Sampling rate : 48.0 kHz
Frame rate : 23.438 FPS (2048 SPF)
Compression mode : Lossy
Delay relative to video : 31 ms
Stream size : 34.5 MiB (5%)
Language : Turkish
Default : Yes
Forced : No

Text #1
ID : 3
Format : UTF-8
Codec ID : S_TEXT/UTF8
Codec ID/Info : UTF-8 Plain Text
Duration : 1 h 13 min
Bit rate : 55 b/s
Count of elements : 822
Stream size : 29.8 KiB (0%)
Title : English [Full]
Language : English
Default : Yes
Forced : No

Text #2
ID : 4
Format : UTF-8
Codec ID : S_TEXT/UTF8
Codec ID/Info : UTF-8 Plain Text
Duration : 1 h 14 min
Bit rate : 51 b/s
Count of elements : 844
Stream size : 28.2 KiB (0%)
Title : Castilian [Full]
Language : Spanish
Default : No
Forced : No

Text #3
ID : 5
Format : UTF-8
Codec ID : S_TEXT/UTF8
Codec ID/Info : UTF-8 Plain Text
Duration : 1 h 14 min
Bit rate : 50 b/s
Count of elements : 832
Stream size : 27.3 KiB (0%)
Title : Spanish [Full]
Language : Spanish
Default : No
Forced : No

Text #4
ID : 6
Format : UTF-8
Codec ID : S_TEXT/UTF8
Codec ID/Info : UTF-8 Plain Text
Duration : 1 h 14 min
Bit rate : 50 b/s
Count of elements : 848
Stream size : 27.2 KiB (0%)
Title : French [Full]
Language : French
Default : No
Forced : No

Text #5
ID : 7
Format : UTF-8
Codec ID : S_TEXT/UTF8
Codec ID/Info : UTF-8 Plain Text
Duration : 1 h 14 min
Bit rate : 50 b/s
Count of elements : 838
Stream size : 27.4 KiB (0%)
Title : German [Full]
Language : German
Default : No
Forced : No

Text #6
ID : 8
Format : UTF-8
Codec ID : S_TEXT/UTF8
Codec ID/Info : UTF-8 Plain Text
Duration : 1 h 14 min
Bit rate : 56 b/s
Count of elements : 863
Stream size : 30.6 KiB (0%)
Title : Italian [Full]
Language : Italian
Default : No
Forced : No

Text #7
ID : 9
Format : UTF-8
Codec ID : S_TEXT/UTF8
Codec ID/Info : UTF-8 Plain Text
Duration : 1 h 14 min
Bit rate : 54 b/s
Count of elements : 846
Stream size : 29.6 KiB (0%)
Title : Portuguese [Full]
Language : Portuguese
Default : No
Forced : No

Text #8
ID : 10
Format : UTF-8
Codec ID : S_TEXT/UTF8
Codec ID/Info : UTF-8 Plain Text
Duration : 1 h 14 min
Bit rate : 53 b/s
Count of elements : 848
Stream size : 29.3 KiB (0%)
Title : Brazilian Portuguese [Full]
Language : Portuguese
Default : No
Forced : No

Text #9
ID : 11
Format : UTF-8
Codec ID : S_TEXT/UTF8
Codec ID/Info : UTF-8 Plain Text
Duration : 1 h 14 min
Bit rate : 46 b/s
Count of elements : 847
Stream size : 25.5 KiB (0%)
Title : Polish [Full]
Language : Polish
Default : No
Forced : No

Text #10
ID : 12
Format : UTF-8
Codec ID : S_TEXT/UTF8
Codec ID/Info : UTF-8 Plain Text
Duration : 1 h 14 min
Bit rate : 62 b/s
Count of elements : 930
Stream size : 33.9 KiB (0%)
Title : Turkish [SDH]
Language : Turkish
Default : No
Forced : No

Text #11
ID : 13
Format : UTF-8
Codec ID : S_TEXT/UTF8
Codec ID/Info : UTF-8 Plain Text
Duration : 1 h 14 min
Bit rate : 50 b/s
Count of elements : 848
Stream size : 27.6 KiB (0%)
Title : Swedish [Full]
Language : Swedish
Default : No
Forced : No

Text #12
ID : 14
Format : UTF-8
Codec ID : S_TEXT/UTF8
Codec ID/Info : UTF-8 Plain Text
Duration : 1 h 14 min
Bit rate : 50 b/s
Count of elements : 848
Stream size : 27.7 KiB (0%)
Title : Danish [Full]
Language : Danish
Default : No
Forced : No

Text #13
ID : 15
Format : UTF-8
Codec ID : S_TEXT/UTF8
Codec ID/Info : UTF-8 Plain Text
Duration : 1 h 14 min
Bit rate : 44 b/s
Count of elements : 838
Stream size : 24.4 KiB (0%)
Title : Finnish [Full]
Language : Finnish
Default : No
Forced : No

Text #14
ID : 16
Format : UTF-8
Codec ID : S_TEXT/UTF8
Codec ID/Info : UTF-8 Plain Text
Duration : 1 h 13 min
Bit rate : 48 b/s
Count of elements : 776
Stream size : 25.9 KiB (0%)
Title : Dutch [Full]
Language : Dutch
Default : No
Forced : No

Text #15
ID : 17
Format : UTF-8
Codec ID : S_TEXT/UTF8
Codec ID/Info : UTF-8 Plain Text
Duration : 1 h 14 min
Bit rate : 52 b/s
Count of elements : 846
Stream size : 28.3 KiB (0%)
Title : Norwegian [Full]
Language : Norwegian
Default : No
Forced : No

Text #16
ID : 18
Format : UTF-8
Codec ID : S_TEXT/UTF8
Codec ID/Info : UTF-8 Plain Text
Duration : 1 h 14 min
Bit rate : 82 b/s
Count of elements : 839
Stream size : 44.7 KiB (0%)
Title : Russian [Full]
Language : Russian
Default : No
Forced : No

Text #17
ID : 19
Format : UTF-8
Codec ID : S_TEXT/UTF8
Codec ID/Info : UTF-8 Plain Text
Duration : 1 h 14 min
Bit rate : 88 b/s
Count of elements : 848
Stream size : 48.2 KiB (0%)
Title : Greek [Full]
Language : Greek
Default : No
Forced : No

Text #18
ID : 20
Format : UTF-8
Codec ID : S_TEXT/UTF8
Codec ID/Info : UTF-8 Plain Text
Duration : 1 h 14 min
Bit rate : 79 b/s
Count of elements : 848
Stream size : 43.1 KiB (0%)
Title : Hebrew [Full]
Language : Hebrew
Default : No
Forced : No

Text #19
ID : 21
Format : UTF-8
Codec ID : S_TEXT/UTF8
Codec ID/Info : UTF-8 Plain Text
Duration : 1 h 14 min
Bit rate : 94 b/s
Count of elements : 848
Stream size : 51.2 KiB (0%)
Title : Arabic [Full]
Language : Arabic
Default : No
Forced : No

Text #20
ID : 22
Format : UTF-8
Codec ID : S_TEXT/UTF8
Codec ID/Info : UTF-8 Plain Text
Duration : 1 h 14 min
Bit rate : 61 b/s
Count of elements : 847
Stream size : 33.3 KiB (0%)
Title : Romanian [Full]
Language : Romanian
Default : No
Forced : No

Text #21
ID : 23
Format : UTF-8
Codec ID : S_TEXT/UTF8
Codec ID/Info : UTF-8 Plain Text
Duration : 1 h 14 min
Bit rate : 50 b/s
Count of elements : 838
Stream size : 27.5 KiB (0%)
Title : Indonesian [Full]
Language : Indonesian
Default : No
Forced : No

Text #22
ID : 24
Format : UTF-8
Codec ID : S_TEXT/UTF8
Codec ID/Info : UTF-8 Plain Text
Duration : 1 h 14 min
Bit rate : 144 b/s
Count of elements : 848
Stream size : 78.4 KiB (0%)
Title : Thai [Full]
Language : Thai
Default : No
Forced : No

Text #23
ID : 25
Format : UTF-8
Codec ID : S_TEXT/UTF8
Codec ID/Info : UTF-8 Plain Text
Duration : 1 h 13 min
Bit rate : 72 b/s
Count of elements : 850
Stream size : 39.3 KiB (0%)
Title : Korean [Full]
Language : Korean
Default : No
Forced : No

Text #24
ID : 26
Format : UTF-8
Codec ID : S_TEXT/UTF8
Codec ID/Info : UTF-8 Plain Text
Duration : 1 h 14 min
Bit rate : 57 b/s
Count of elements : 848
Stream size : 31.2 KiB (0%)
Title : Chinese (Simplified) [Full]
Language : Chinese
Default : No
Forced : No

Text #25
ID : 27
Format : UTF-8
Codec ID : S_TEXT/UTF8
Codec ID/Info : UTF-8 Plain Text
Duration : 1 h 14 min
Bit rate : 59 b/s
Count of elements : 848
Stream size : 32.3 KiB (0%)
Title : Chinese (Traditional) [Full]
Language : Chinese
Default : No
Forced : No

Text #26
ID : 28
Format : UTF-8
Codec ID : S_TEXT/UTF8
Codec ID/Info : UTF-8 Plain Text
Duration : 1 h 14 min
Bit rate : 49 b/s
Count of elements : 868
Stream size : 26.8 KiB (0%)
Title : Japanese [Full]
Language : Japanese
Default : No
Forced : No

Download

Direct download files get automatically deleted after a month or so. Posted on : 12/27/2018

[collapse]
Media Info and Download Links | S01E01

General
Format : Matroska
Format version : Version 4
File size : 674 MiB
Duration : 1 h 20 min
Overall bit rate : 1 169 kb/s
Movie name : Wolf.S01E01.720p.WEB-DL.2CH.x264.AVC
Encoded date : UTC 2018-12-27 18:41:47
Writing application : mkvmerge v29.0.0 (‘Like It Or Not’) 32-bit
Writing library : libebml v1.3.6 + libmatroska v1.4.9

Video
ID : 2
Format : AVC
Format/Info : Advanced Video Codec
Format profile : [email protected]
Format settings : CABAC / 8 Ref Frames
Format settings, CABAC : Yes
Format settings, RefFrames : 8 frames
Codec ID : V_MPEG4/ISO/AVC
Duration : 1 h 20 min
Bit rate : 1 100 kb/s
Width : 1 280 pixels
Height : 720 pixels
Display aspect ratio : 16:9
Frame rate mode : Constant
Frame rate : 25.000 FPS
Color space : YUV
Chroma subsampling : 4:2:0
Bit depth : 8 bits
Scan type : Progressive
Bits/(Pixel*Frame) : 0.048
Stream size : 634 MiB (94%)
Default : Yes
Forced : No
Color range : Limited
Color primaries : BT.709
Transfer characteristics : BT.709
Matrix coefficients : BT.709

Audio
ID : 1
Format : AAC LC SBR
Commercial name : HE-AAC
Format settings : Explicit
Codec ID : A_AAC-2
Duration : 1 h 20 min
Bit rate : 64.0 kb/s
Channel(s) : 2 channels
Channel layout : L R
Sampling rate : 48.0 kHz
Frame rate : 23.438 FPS (2048 SPF)
Compression mode : Lossy
Delay relative to video : 31 ms
Stream size : 36.9 MiB (5%)
Language : Turkish
Default : Yes
Forced : No

Text #1
ID : 3
Format : UTF-8
Codec ID : S_TEXT/UTF8
Codec ID/Info : UTF-8 Plain Text
Duration : 1 h 18 min
Bit rate : 55 b/s
Count of elements : 909
Stream size : 32.1 KiB (0%)
Title : English [Full]
Language : English
Default : Yes
Forced : No

Text #2
ID : 4
Format : UTF-8
Codec ID : S_TEXT/UTF8
Codec ID/Info : UTF-8 Plain Text
Duration : 1 h 19 min
Bit rate : 49 b/s
Count of elements : 857
Stream size : 29.0 KiB (0%)
Title : Castilian [Full]
Language : Spanish
Default : No
Forced : No

Text #3
ID : 5
Format : UTF-8
Codec ID : S_TEXT/UTF8
Codec ID/Info : UTF-8 Plain Text
Duration : 1 h 19 min
Bit rate : 48 b/s
Count of elements : 857
Stream size : 28.1 KiB (0%)
Title : Spanish [Full]
Language : Spanish
Default : No
Forced : No

Text #4
ID : 6
Format : UTF-8
Codec ID : S_TEXT/UTF8
Codec ID/Info : UTF-8 Plain Text
Duration : 1 h 19 min
Bit rate : 47 b/s
Count of elements : 859
Stream size : 27.9 KiB (0%)
Title : French [Full]
Language : French
Default : No
Forced : No

Text #5
ID : 7
Format : UTF-8
Codec ID : S_TEXT/UTF8
Codec ID/Info : UTF-8 Plain Text
Duration : 1 h 19 min
Bit rate : 48 b/s
Count of elements : 862
Stream size : 28.1 KiB (0%)
Title : German [Full]
Language : German
Default : No
Forced : No

Text #6
ID : 8
Format : UTF-8
Codec ID : S_TEXT/UTF8
Codec ID/Info : UTF-8 Plain Text
Duration : 1 h 19 min
Bit rate : 53 b/s
Count of elements : 865
Stream size : 31.3 KiB (0%)
Title : Italian [Full]
Language : Italian
Default : No
Forced : No

Text #7
ID : 9
Format : UTF-8
Codec ID : S_TEXT/UTF8
Codec ID/Info : UTF-8 Plain Text
Duration : 1 h 19 min
Bit rate : 51 b/s
Count of elements : 858
Stream size : 29.9 KiB (0%)
Title : Portuguese [Full]
Language : Portuguese
Default : No
Forced : No

Text #8
ID : 10
Format : UTF-8
Codec ID : S_TEXT/UTF8
Codec ID/Info : UTF-8 Plain Text
Duration : 1 h 19 min
Bit rate : 51 b/s
Count of elements : 859
Stream size : 30.0 KiB (0%)
Title : Brazilian Portuguese [Full]
Language : Portuguese
Default : No
Forced : No

Text #9
ID : 11
Format : UTF-8
Codec ID : S_TEXT/UTF8
Codec ID/Info : UTF-8 Plain Text
Duration : 1 h 19 min
Bit rate : 44 b/s
Count of elements : 857
Stream size : 25.8 KiB (0%)
Title : Polish [Full]
Language : Polish
Default : No
Forced : No

Text #10
ID : 12
Format : UTF-8
Codec ID : S_TEXT/UTF8
Codec ID/Info : UTF-8 Plain Text
Duration : 1 h 19 min
Bit rate : 63 b/s
Count of elements : 1015
Stream size : 37.1 KiB (0%)
Title : Turkish [SDH]
Language : Turkish
Default : No
Forced : No

Text #11
ID : 13
Format : UTF-8
Codec ID : S_TEXT/UTF8
Codec ID/Info : UTF-8 Plain Text
Duration : 1 h 19 min
Bit rate : 48 b/s
Count of elements : 858
Stream size : 28.4 KiB (0%)
Title : Swedish [Full]
Language : Swedish
Default : No
Forced : No

Text #12
ID : 14
Format : UTF-8
Codec ID : S_TEXT/UTF8
Codec ID/Info : UTF-8 Plain Text
Duration : 1 h 19 min
Bit rate : 49 b/s
Count of elements : 859
Stream size : 29.0 KiB (0%)
Title : Danish [Full]
Language : Danish
Default : No
Forced : No

Text #13
ID : 15
Format : UTF-8
Codec ID : S_TEXT/UTF8
Codec ID/Info : UTF-8 Plain Text
Duration : 1 h 19 min
Bit rate : 42 b/s
Count of elements : 849
Stream size : 24.9 KiB (0%)
Title : Finnish [Full]
Language : Finnish
Default : No
Forced : No

Text #14
ID : 16
Format : UTF-8
Codec ID : S_TEXT/UTF8
Codec ID/Info : UTF-8 Plain Text
Duration : 1 h 18 min
Bit rate : 45 b/s
Count of elements : 768
Stream size : 26.5 KiB (0%)
Title : Dutch [Full]
Language : Dutch
Default : No
Forced : No

Text #15
ID : 17
Format : UTF-8
Codec ID : S_TEXT/UTF8
Codec ID/Info : UTF-8 Plain Text
Duration : 1 h 19 min
Bit rate : 49 b/s
Count of elements : 858
Stream size : 28.8 KiB (0%)
Title : Norwegian [Full]
Language : Norwegian
Default : No
Forced : No

Text #16
ID : 18
Format : UTF-8
Codec ID : S_TEXT/UTF8
Codec ID/Info : UTF-8 Plain Text
Duration : 1 h 19 min
Bit rate : 77 b/s
Count of elements : 853
Stream size : 45.2 KiB (0%)
Title : Russian [Full]
Language : Russian
Default : No
Forced : No

Text #17
ID : 19
Format : UTF-8
Codec ID : S_TEXT/UTF8
Codec ID/Info : UTF-8 Plain Text
Duration : 1 h 19 min
Bit rate : 82 b/s
Count of elements : 860
Stream size : 48.1 KiB (0%)
Title : Greek [Full]
Language : Greek
Default : No
Forced : No

Text #18
ID : 20
Format : UTF-8
Codec ID : S_TEXT/UTF8
Codec ID/Info : UTF-8 Plain Text
Duration : 1 h 19 min
Bit rate : 74 b/s
Count of elements : 860
Stream size : 43.4 KiB (0%)
Title : Hebrew [Full]
Language : Hebrew
Default : No
Forced : No

Text #19
ID : 21
Format : UTF-8
Codec ID : S_TEXT/UTF8
Codec ID/Info : UTF-8 Plain Text
Duration : 1 h 19 min
Bit rate : 81 b/s
Count of elements : 859
Stream size : 47.4 KiB (0%)
Title : Arabic [Full]
Language : Arabic
Default : No
Forced : No

Text #20
ID : 22
Format : UTF-8
Codec ID : S_TEXT/UTF8
Codec ID/Info : UTF-8 Plain Text
Duration : 1 h 19 min
Bit rate : 57 b/s
Count of elements : 858
Stream size : 33.6 KiB (0%)
Title : Romanian [Full]
Language : Romanian
Default : No
Forced : No

Text #21
ID : 23
Format : UTF-8
Codec ID : S_TEXT/UTF8
Codec ID/Info : UTF-8 Plain Text
Duration : 1 h 19 min
Bit rate : 47 b/s
Count of elements : 810
Stream size : 27.9 KiB (0%)
Title : Indonesian [Full]
Language : Indonesian
Default : No
Forced : No

Text #22
ID : 24
Format : UTF-8
Codec ID : S_TEXT/UTF8
Codec ID/Info : UTF-8 Plain Text
Duration : 1 h 19 min
Bit rate : 127 b/s
Count of elements : 859
Stream size : 74.3 KiB (0%)
Title : Thai [Full]
Language : Thai
Default : No
Forced : No

Text #23
ID : 25
Format : UTF-8
Codec ID : S_TEXT/UTF8
Codec ID/Info : UTF-8 Plain Text
Duration : 1 h 19 min
Bit rate : 60 b/s
Count of elements : 860
Stream size : 35.3 KiB (0%)
Title : Korean [Full]
Language : Korean
Default : No
Forced : No

Text #24
ID : 26
Format : UTF-8
Codec ID : S_TEXT/UTF8
Codec ID/Info : UTF-8 Plain Text
Duration : 1 h 19 min
Bit rate : 52 b/s
Count of elements : 859
Stream size : 30.9 KiB (0%)
Title : Chinese (Simplified) [Full]
Language : Chinese
Default : No
Forced : No

Text #25
ID : 27
Format : UTF-8
Codec ID : S_TEXT/UTF8
Codec ID/Info : UTF-8 Plain Text
Duration : 1 h 19 min
Bit rate : 53 b/s
Count of elements : 859
Stream size : 31.2 KiB (0%)
Title : Chinese (Traditional) [Full]
Language : Chinese
Default : No
Forced : No

Text #26
ID : 28
Format : UTF-8
Codec ID : S_TEXT/UTF8
Codec ID/Info : UTF-8 Plain Text
Duration : 1 h 19 min
Bit rate : 47 b/s
Count of elements : 883
Stream size : 27.6 KiB (0%)
Title : Japanese [Full]
Language : Japanese
Default : No
Forced : No

Download

Direct download files get automatically deleted after a month or so. Posted on : 12/27/2018

[collapse]

Magnet

Magnet

Wolf.aka.Boru.S01.TURKISH.720p.NF.WEBRip.DDP5.1.x264-MZABI-11.26 GB

[collapse]

 

You may also like...

error: nah :p~