• Uncategorized

Spider-Man: Homecoming (2017)

PG-13 | 2h 13min | Action, Adventure, Sci-Fi | 7 July 2017 (USA)

Peter Parker tries to balance his life as an ordinary high school student in Queens with his superhero alter-ego Spider-Man, and must confront a new menace prowling the skies of New York City.

Watch trailer

Media information

General
Format : Matroska
Format version : Version 4
File size : 1.17 GiB
Duration : 2 h 13 min
Overall bit rate : 1 255 kb/s
Movie name : Spider-Man.Homecoming.2017.720p.10bit.BluRay.6CH.x265.HEVC
Encoded date : UTC 2019-07-16 14:11:48
Writing application : mkvmerge v35.0.0 (‘All The Love In The World’) 32-bit
Writing library : libebml v1.3.9 + libmatroska v1.5.2

Video
ID : 1
Format : HEVC
Format/Info : High Efficiency Video Coding
Format profile : Main [email protected]@Main
Codec ID : V_MPEGH/ISO/HEVC
Duration : 2 h 13 min
Bit rate : 1 045 kb/s
Width : 1 280 pixels
Height : 536 pixels
Display aspect ratio : 2.40:1
Frame rate mode : Constant
Frame rate : 23.976 (24000/1001) FPS
Color space : YUV
Chroma subsampling : 4:2:0
Bit depth : 10 bits
Bits/(Pixel*Frame) : 0.064
Stream size : 998 MiB (83%)
Default : Yes
Forced : No

Audio
ID : 2
Format : AAC LC SBR
Commercial name : HE-AAC
Format settings : Explicit
Codec ID : A_AAC-2
Duration : 2 h 13 min
Bit rate : 207 kb/s
Channel(s) : 6 channels
Channel layout : C L R Ls Rs LFE
Sampling rate : 48.0 kHz
Frame rate : 23.438 FPS (2048 SPF)
Compression mode : Lossy
Delay relative to video : 23 ms
Stream size : 198 MiB (17%)
Language : English
Default : Yes
Forced : No

Text #1
ID : 3
Format : UTF-8
Codec ID : S_TEXT/UTF8
Codec ID/Info : UTF-8 Plain Text
Duration : 2 h 12 min
Bit rate : 69 b/s
Count of elements : 1929
Stream size : 67.7 KiB (0%)
Title : ENG
Language : English
Default : Yes
Forced : No

Text #2
ID : 4
Format : UTF-8
Codec ID : S_TEXT/UTF8
Codec ID/Info : UTF-8 Plain Text
Duration : 2 h 12 min
Bit rate : 75 b/s
Count of elements : 2212
Stream size : 74.0 KiB (0%)
Title : ENG SDH
Language : English
Default : No
Forced : No

[collapse]
Download Link(s)

Download

Direct download files get automatically deleted after a month or so. Posted on : 07/16/2019

 

[collapse]
Magnet Link

Magnet

Spider-Man.Homecoming.2017.1080p.BluRay.REMUX.AVC.DTS-HD.MA.5.1-FGT-28.71 GB

[collapse]

You may also like...

error: nah :p~